На всех торрентах на трекере установлена скидка на скачивание в размере 100 процентов(а).
 Возможность скачивания торрента НЕ зависит от ограничений при низком ратио, низком аплоаде, требуемом ратио или требуемом аплоаде.


Начать новую тему Ответить на тему
Статистика раздачи
Размер: 1.09 ГБ | Добавлен: 21 окт 2014, 21:00 | Скачали: 0
Сидеров: 12  [0 байт/сек]    Личеров: 3  [0 байт/сек]
Пред. тема | След. тема 

Автор
Сообщение

СообщениеДобавлено: 21 окт 2014, 21:00 

Ответить с цитатой 

Сурайя


Жанр: Драма
Год выпуска: 1987
Продолжительность: 01:16:50


Режиссёр: Тофик Исмайлов

В ролях: Малахат Аббасова, Яшар Нури, Пётр Глебов, Тофик Мирзоев, Гаджи Исмайлов, Эльмира Шабанова, Рза Худиев, Эмиль Пашаев, Ульви Мамедов, Мухтар Авшаров, Мухтар Маниев, Гюндуз Аббасов, Дадаш Казимов, Софа Басирзаде, Саида Гулиева

Описание: Молодая доярка Сурайя из далекого горного села разыскивает в городе своего жениха Сейфетдина.Она узнает,что тот давно женат,имеет сына,который живет у старого больного деда,поскольку Сейфетдин отбывает наказание за хулиганский поступок.Сурайя увозит мальчика в село,чтобы заботиться о нем,но тут появляется жена Сейфетдина...

Семпл



Качество видео: VHSRip
Формат видео: AVI

Видео: Xvid 704x528 25fps 1829 kbps
Аудио: Dolby AC3 48000Hz stereo 192kbps



Complete name : Сурайя (1987) VHSRip.avi
Format : AVI
Format/Info : Audio Video Interleave
File size : 1.09 GiB
Duration : 1h 16mn
Overall bit rate : 2 031 Kbps
Writing application : VirtualDubMod 1.5.10.2 (build 2540/release)
Writing library : VirtualDubMod build 2540/release

Video
ID : 0
Format : MPEG-4 Visual
Format profile : Advanced Simple@L5
Format settings, BVOP : Yes
Format settings, QPel : No
Format settings, GMC : No warppoints
Format settings, Matrix : Default (H.263)
Codec ID : XVID
Codec ID/Hint : XviD
Duration : 1h 16mn
Bit rate : 1 829 Kbps
Width : 704 pixels
Height : 528 pixels
Display aspect ratio : 4:3
Frame rate : 25.000 fps
Color space : YUV
Chroma subsampling : 4:2:0
Bit depth : 8 bits
Scan type : Progressive
Compression mode : Lossy
Bits/(Pixel*Frame) : 0.197
Stream size : 1 005 MiB (90%)
Writing library : XviD 1.2.0.dev47 (UTC 2006-11-01)

Audio
ID : 1
Format : AC-3
Format/Info : Audio Coding 3
Mode extension : CM (complete main)
Format settings, Endianness : Big
Codec ID : 2000
Duration : 1h 16mn
Bit rate mode : Constant
Bit rate : 192 Kbps
Channel(s) : 2 channels
Channel positions : Front: L R
Sampling rate : 48.0 KHz
Bit depth : 16 bits
Compression mode : Lossy
Stream size : 106 MiB (9%)
Alignment : Split accross interleaves
Interleave, duration : 40 ms (1.00 video frame)
Interleave, preload duration : 500 ms


загрузка...
Правила, инструкции, FAQ!!!
Торрент  Добавлен [21 окт 2014, 21:00] Скачать торрент Магнет ссылка
Скачать торрент
[ Размер 11.38 КБ / Просмотров 21 ]

Статус
Проверен 
 
Размер  1.09 ГБ
Приватный: Нет (DHT включён)
.torrent скачан  0
Как залить торрент? | Как скачать Torrent? | Ошибка в торренте? Качайте магнет  


     Отправить личное сообщение
   
Страница 1 из 1
Показать сообщения за:  Поле сортировки  
Начать новую тему Ответить на тему

   Похожие торренты   Автор   Ответы   Просмотры   Последнее сообщение 
В этой теме нет новых непрочитанных сообщений. Скачать торрент Проверен По следам Чарвадаров (Тофик Исмайлов) [1974, Киноповесть, экранизация, VHSRip]

в форуме Кино СССР, Размер: 747.42 МБ, Здоровье: 100%

Anonymous

0
18|6

90
0

21 окт 2014, 20:55

Anonymous Перейти к последнему сообщению

В этой теме нет новых непрочитанных сообщений. Скачать торрент Проверен A-Ha - Scoundrel Days World Tour [1987, Pop, VHSRip]

в форуме Концерты (DVD-Video), Размер: 3.58 ГБ, Здоровье: 0%

Anonymous

0
0|0

8
0

12 ноя 2017, 01:39

Anonymous Перейти к последнему сообщению

В этой теме нет новых непрочитанных сообщений. Скачать торрент Проверен [iPhone] Разжалованный (Александр Сокуров) [1980 г., драма, VHSRip, 480х368]

в форуме Фильмы для iPod, iPhone, iPad, Размер: 219.37 МБ, Здоровье: 100%

Гость

0
3|1

109
0

12 май 2015, 00:08

Гость Перейти к последнему сообщению

В этой теме нет новых непрочитанных сообщений. Скачать торрент Проверен Мираж (Алоиз Бренч) [1983 г., Детектив, приключения, драма, VHSRip]

в форуме Кино СССР, Размер: 1.88 ГБ, Здоровье: 100%

Anonymous

0
28|1

285
6

21 окт 2014, 21:00

Anonymous Перейти к последнему сообщению

В этой теме нет новых непрочитанных сообщений. Скачать торрент Проверен Michael Jackson - live in Tokyo '87 - 2 concerts [1987, Pop, VHSRip]

в форуме Концерты (DVD-Video), Размер: 7.5 ГБ, Здоровье: 0%

Anonymous

0
0|0

5
0

12 ноя 2017, 00:52

Anonymous Перейти к последнему сообщению



Сейчас этот форум просматривают: нет зарегистрированных пользователей и гости: 1


Вы не можете начинать темы
Вы не можете отвечать на сообщения
Вы не можете редактировать свои сообщения
Вы не можете удалять свои сообщения
Вы не можете добавлять вложения

Перейти:  
Ресурс не предоставляет электронные версии произведений, а занимается лишь коллекционированием и каталогизацией ссылок, присылаемых и публикуемых на форуме нашими читателями. Если вы являетесь правообладателем какого-либо представленного материала и не желаете чтобы ссылка на него находилась в нашем каталоге, свяжитесь с нами и мы незамедлительно удалим её. Файлы для обмена на трекере предоставлены пользователями сайта, и администрация не несёт ответственности за их содержание. Просьба не заливать файлы, защищенные авторскими правами, а также файлы нелегального содержания!