На всех торрентах на трекере установлена скидка на скачивание в размере 100 процентов(а).
 Возможность скачивания торрента НЕ зависит от ограничений при низком ратио, низком аплоаде, требуемом ратио или требуемом аплоаде.


Начать новую тему Ответить на тему
Статистика раздачи
Размер: 10.88 ГБ | Добавлен: 16 ноя 2013, 10:52 | Скачали: 0
Сидеров: 20  [0 байт/сек]    Личеров: 7  [0 байт/сек]
Пред. тема | След. тема 

Автор
Сообщение

СообщениеДобавлено: 16 ноя 2013, 10:52 

Ответить с цитатой 

Суперсемейка / The Incredibles

Страна: США
Жанр: фэнтези, комедия, приключения
Продолжительность: 01:55:25
Год выпуска: 2004
Перевод: Профессиональный (дублированный)
Режиссёр: Брэд Бёрд / Brad Bird
Роли озвучивали: Крэйг Т. Нельсон (Боб Парр / Мистер Исключительный), Холли Хантер (Хелен Парр / Эластика), Сэмюэл Л. Джексон (Люциус Бест / Фреон), Джейсон Ли (Бадди Пайн / Синдром), Брэд Бёрд (Эдна Мод)
Описание: История семьи супергероев, члены которой уже отошли от больших дел и предпочитают жить непримечательной жизнью обычных землян. В прошлом все они обладали суперспособностями и относительно легко справлялись с мировым злом. Но в один прекрасный день папаше и его домочадцам приходится вновь облачиться в костюмы супергероев (а для этого нужно срочно сбросить лишние килограммы!) и в очередной раз спасти человечество от таинственного злодея…
Качество: BDRip | EbP [Sample]
Формат: MKV
Видео: AVC, 1920x804, 23.976 fps, 8000 Kbps
Аудио №1: Русский AC3, 5.1, 48 kHz, ~640.00 kbps | Дубляж
Аудио №2: Русский DTS, 5.1, 48 kHz, ~1510 Kbps | Двухголосый закадровый, Tycoon [отдельно]
Аудио №3: Русский DTS, 5.1, 48 kHz, ~1510 Kbps | Одноголосый закадровый, Д. «Гоблин» Пучков [отдельно]
Аудио №4: Английский DTS, 5.1, 48 kHz, ~1510 Kbps
Аудио №5: Английский AC3, 2.0, 48 kHz, ~160 Kbps | Комментарии, Брэд Бёрд и Джон Уолкер
Аудио №6: Английский AC3, 2.0, 48 kHz, ~160 Kbps | Комментарии, мультипликаторы
Субтитры: Русский(full/forced), русский(Goblin), русский(com1/com2), английский
Скриншоты:

mi
Код:
Код:
General
Unique ID                        : 177725366019633473372897990244671621076 (0x85B4A911E75B7769A5800B680D5B07D4)
Complete name                    : The.Incredibles.2004.1080p.BDRip.Rus.Eng\The.Incredibles.2004.1080p.BDRip.Rus.Eng.mkv
Format                           : Matroska
File size                        : 8.44 GiB
Duration                         : 1h 55mn
Overall bit rate                 : 10.5 Mbps
Encoded date                     : UTC 2011-05-12 15:42:21
Writing application              : mkvmerge v4.6.0 ('Still Crazy After All These Years') built on Mar 10 2011 02:50:32
Writing library                  : libebml v1.2.0 + libmatroska v1.1.0

Video
ID                               : 1
Format                           : AVC
Format/Info                      : Advanced Video Codec
Format profile                   : High@L4.1
Format settings, CABAC           : Yes
Format settings, ReFrames        : 5 frames
Codec ID                         : V_MPEG4/ISO/AVC
Duration                         : 1h 55mn
Bit rate                         : 8 000 Kbps
Width                            : 1 920 pixels
Height                           : 804 pixels
Display aspect ratio             : 2.35:1
Frame rate                       : 23.976 fps
Color space                      : YUV
Chroma subsampling               : 4:2:0
Bit depth                        : 8 bits
Scan type                        : Progressive
Bits/(Pixel*Frame)               : 0.216
Stream size                      : 6.29 GiB (74%)
Title                            : The Incredibles (2004)
Writing library                  : x264 core 114 r1924 08d04a4
Encoding settings                : cabac=1 / ref=5 / deblock=1:-3:-3 / analyse=0x3:0x113 / me=tesa / subme=10 / psy=1 / psy_rd=0.70:0.00 / mixed_ref=1 / me_range=16 / chroma_me=1 / trellis=2 / 8x8dct=1 / cqm=0 / deadzone=21,11 / fast_pskip=0 / chroma_qp_offset=-2 / threads=12 / sliced_threads=0 / nr=0 / decimate=0 / interlaced=0 / constrained_intra=0 / bframes=6 / b_pyramid=2 / b_adapt=2 / b_bias=0 / direct=3 / weightb=1 / open_gop=0 / weightp=2 / keyint=250 / keyint_min=23 / scenecut=40 / intra_refresh=0 / rc=2pass / mbtree=0 / bitrate=8000 / ratetol=1.0 / qcomp=0.60 / qpmin=0 / qpmax=69 / qpstep=4 / cplxblur=20.0 / qblur=0.5 / ip_ratio=1.40 / pb_ratio=1.30 / aq=1:0.80 / zones=4535,4747,b=2.5/4826,4868,b=2.5/4904,4984,b=2.5/5076,5187,b=2.5/5235,5271,b=2.5/5562,5611,b=2.5/5658,5774,b=2.5/6827,6919,b=2.5/6984,7206,b=2.5/7369,7473,b=2.5/7722,7834,b=2.5/7887,7943,b=2.5/8203,8271,b=2.5/35525,35560,b=2.5/35604,35707,b=2.5/35737,35865,b=2.5/35943,36236,b=2.5/36377,36438,b=2.5/36552,36594,b=2.5/37465,37524,b=2.5
Language                         : English

Audio #1
ID                               : 2
Format                           : AC-3
Format/Info                      : Audio Coding 3
Mode extension                   : CM (complete main)
Codec ID                         : A_AC3
Duration                         : 1h 55mn
Bit rate mode                    : Constant
Bit rate                         : 640 Kbps
Channel(s)                       : 6 channels
Channel positions                : Front: L C R, Side: L R, LFE
Sampling rate                    : 48.0 KHz
Bit depth                        : 16 bits
Compression mode                 : Lossy
Stream size                      : 528 MiB (6%)
Title                            : RUS
Language                         : Russian

Audio #2
ID                               : 3
Format                           : DTS
Format/Info                      : Digital Theater Systems
Format profile                   : ES
Codec ID                         : A_DTS
Duration                         : 1h 55mn
Bit rate mode                    : Constant
Bit rate                         : 1 510 Kbps
Channel(s)                       : 6 channels
Channel positions                : Front: L C R, Side: L R, LFE
Sampling rate                    : 48.0 KHz
Bit depth                        : 24 bits
Compression mode                 : Lossy
Delay relative to video          : 11ms
Stream size                      : 1.22 GiB (14%)
Title                            : ENG
Language                         : English

Audio #3
ID                               : 4
Format                           : AC-3
Format/Info                      : Audio Coding 3
Mode extension                   : CM (complete main)
Codec ID                         : A_AC3
Duration                         : 1h 55mn
Bit rate mode                    : Constant
Bit rate                         : 160 Kbps
Channel(s)                       : 2 channels
Channel positions                : Front: L R
Sampling rate                    : 48.0 KHz
Bit depth                        : 16 bits
Compression mode                 : Lossy
Stream size                      : 132 MiB (2%)
Title                            : ENG, Commentary 1
Language                         : English

Audio #4
ID                               : 5
Format                           : AC-3
Format/Info                      : Audio Coding 3
Mode extension                   : CM (complete main)
Codec ID                         : A_AC3
Duration                         : 1h 55mn
Bit rate mode                    : Constant
Bit rate                         : 160 Kbps
Channel(s)                       : 2 channels
Channel positions                : Front: L R
Sampling rate                    : 48.0 KHz
Bit depth                        : 16 bits
Compression mode                 : Lossy
Stream size                      : 132 MiB (2%)
Title                            : ENG, Commentary 2
Language                         : English

Text #1
ID                               : 6
Format                           : UTF-8
Codec ID                         : S_TEXT/UTF8
Codec ID/Info                    : UTF-8 Plain Text
Title                            : RUS, Forced
Language                         : Russian

Text #2
ID                               : 7
Format                           : UTF-8
Codec ID                         : S_TEXT/UTF8
Codec ID/Info                    : UTF-8 Plain Text
Title                            : RUS
Language                         : Russian

Text #3
ID                               : 8
Format                           : UTF-8
Codec ID                         : S_TEXT/UTF8
Codec ID/Info                    : UTF-8 Plain Text
Title                            : RUS, Goblin
Language                         : Russian

Text #4
ID                               : 9
Format                           : UTF-8
Codec ID                         : S_TEXT/UTF8
Codec ID/Info                    : UTF-8 Plain Text
Title                            : ENG
Language                         : English

Text #5
ID                               : 10
Format                           : UTF-8
Codec ID                         : S_TEXT/UTF8
Codec ID/Info                    : UTF-8 Plain Text
Title                            : RUS, Commentary 1
Language                         : Russian

Text #6
ID                               : 11
Format                           : UTF-8
Codec ID                         : S_TEXT/UTF8
Codec ID/Info                    : UTF-8 Plain Text
Title                            : RUS, Commentary 2
Language                         : Russian

Menu
00:00:00.000                     : en:1. Golden Age
00:09:14.554                     : en:2. Weddings & Lawsuits
00:11:32.734                     : en:3. 15 Years & 50 Pounds Later
00:13:31.352                     : en:4. After School
00:17:08.527                     : en:5. Family Dinner
00:20:44.910                     : en:6. 2 Ex-Supers
00:26:53.529                     : en:7. A Super Defeated
00:30:42.215                     : en:8. Help Wanted
00:34:54.592                     : en:9. Nomanisan
00:41:27.235                     : en:10. New & Improved
00:46:01.675                     : en:11. Helen Suspects
00:48:54.515                     : en:12. Helen & E
00:50:02.124                     : en:13. An Important Meeting
00:54:01.780                     : en:14. E's Lab
00:57:09.551                     : en:15. Secrets Revealed
01:00:35.799                     : en:16. Suiting Up
01:05:04.859                     : en:17. Missile Lock
01:10:53.708                     : en:18. Out To Sea
01:12:57.915                     : en:19. Good Guys/Bad Guys
01:16:27.583                     : en:20. Elastigirl Returns
01:19:19.213                     : en:21. Caves & Rockets
01:21:13.911                     : en:22. Lost & Found
01:23:59.659                     : en:23. 100 Mile Dash
01:27:05.637                     : en:24. Reunited
01:30:29.841                     : en:25. Bob's Confession
01:32:47.395                     : en:26. Frozone & Honey
01:33:33.024                     : en:27. Omnidroid Attacks
01:34:30.540                     : en:28. Road Trip
01:37:03.151                     : en:29. The Incredibles vs. The Omnidroid
01:41:58.070                     : en:30. Past vs. Future
01:45:40.000                     : en:31. Happy Endings
01:47:33.322                     : en:32. End Credits


12.05.11 Торрент перезалит. Обновил рип и звук.
загрузка...
Правила, инструкции, FAQ!!!
Торрент  Добавлен [16 ноя 2013, 10:52] Скачать торрент Магнет ссылка
Скачать торрент
[ Размер 55.11 КБ / Просмотров 313 ]

Статус  
 
Размер  10.88 ГБ
Приватный: Нет (DHT включён)
.torrent скачан  0
Как залить торрент? | Как скачать Torrent? | Ошибка в торренте? Качайте магнет  


     Отправить личное сообщение
   
Страница 1 из 1
Показать сообщения за:  Поле сортировки  
Начать новую тему Ответить на тему

   Похожие торренты   Автор   Ответы   Просмотры   Последнее сообщение 
В этой теме нет новых непрочитанных сообщений. Скачать торрент Проверен Рататуй в 3Д / Ratatouille 3D (Брэд Бёрд, Ян Пинкава / Brad Bird, Jan Pinkava) [2007, Фэнтези, комедия, BDremux, 1080p] BD3D

в форуме HD-Video в 3D, Размер: 27.43 ГБ, Здоровье: 100%

Anonymous

0
21|7

225
0

02 ноя 2014, 09:51

Anonymous Перейти к последнему сообщению

В этой теме нет новых непрочитанных сообщений. Скачать торрент Проверен Рататуй в 3Д / Ratatouille 3D (Брэд Бёрд, Ян Пинкава / Brad Bird, Jan Pinkava) [2007, Мультфильм, Фэнтези, Комедия, Семейный, BDrip-AVC] Half OverUnder / Вертикальная анаморфная стереопара

в форуме HD-Video в 3D, Размер: 4.95 ГБ, Здоровье: 100%

Anonymous

0
65|20

219
5

02 ноя 2014, 09:50

Anonymous Перейти к последнему сообщению

В этой теме нет новых непрочитанных сообщений. Скачать торрент Проверен Рататуй в 3Д / Ratatouille 3D (Брэд Бёрд, Ян Пинкав) [2007, мультфильм, фэнтези, комедия, семейный, BDrip, 1080p] OverUnder / Вертикальная стереопара

в форуме 3D Мультфильмы, Размер: 6.08 ГБ, Здоровье: 0%

Anonymous

0
0|0

24
0

07 сен 2016, 18:12

Anonymous Перейти к последнему сообщению

В этой теме нет новых непрочитанных сообщений. Скачать торрент Проверен Тачки 2 в 3Д / Cars 2 3D (Джон Лассетер / John Lasseter, Брэд Льюис / Brad Lewis) [2011, мультфильм, комедия, приключения, семейный, Blu-ray disc 1080p] BD3D CEE

в форуме 3D Мультфильмы, Размер: 41.72 ГБ, Здоровье: 0%

Anonymous

0
0|0

44
0

07 сен 2016, 18:14

Anonymous Перейти к последнему сообщению

В этой теме нет новых непрочитанных сообщений. Скачать торрент The Incredibles / Суперсемейка [P] [RUS / RUS] (2004)

в форуме Детские, Размер: 1008.02 МБ, Здоровье: 100%

Anonymous

0
122|1

203
1

28 сен 2013, 23:08

Anonymous Перейти к последнему сообщению



Сейчас этот форум просматривают: нет зарегистрированных пользователей и гости: 0


Вы не можете начинать темы
Вы не можете отвечать на сообщения
Вы не можете редактировать свои сообщения
Вы не можете удалять свои сообщения
Вы не можете добавлять вложения

Перейти:  
Ресурс не предоставляет электронные версии произведений, а занимается лишь коллекционированием и каталогизацией ссылок, присылаемых и публикуемых на форуме нашими читателями. Если вы являетесь правообладателем какого-либо представленного материала и не желаете чтобы ссылка на него находилась в нашем каталоге, свяжитесь с нами и мы незамедлительно удалим её. Файлы для обмена на трекере предоставлены пользователями сайта, и администрация не несёт ответственности за их содержание. Просьба не заливать файлы, защищенные авторскими правами, а также файлы нелегального содержания!
cron