На всех торрентах на трекере установлена скидка на скачивание в размере 100 процентов(а).
 Возможность скачивания торрента НЕ зависит от ограничений при низком ратио, низком аплоаде, требуемом ратио или требуемом аплоаде.


Начать новую тему Ответить на тему
Статистика раздачи
Размер: 3.82 ГБ | Добавлен: 26 апр 2015, 22:16 | Скачали: 1
Сидеров: 7  [0 байт/сек]    Личеров: 2  [0 байт/сек]
Пред. тема | След. тема 

Автор
Сообщение

СообщениеДобавлено: 26 апр 2015, 22:16 

Ответить с цитатой 

Sully Erna - Avalon Live
Жанр: Hard Rock, Experimental
Продолжительность: 1:27:16
Год выпуска: 2012
Описание: Бостонский концерт 16 декабря 2011 г. в поддержку сольного альбома вокалиста Godsmack - Sully Erna.
Треклист:
1. Avalon
2. Sinner's Prayer
3. Broken Road
4. The Departed
5. Lester's Ditty
6. My Light
7. Cast Out
8. 3 Times Fold
9. Until Then... (Featuring Irina Chirkova)
10. Midnight
11. The Rise
12. Eyes Of A Child
13. 7 Years
14. Serenity
15. The Chain
16. Hey Jude
Состав:
Sully Erna - вокал, пианино, гитара, перкуссия.
Lisa Guyer - вокал.
David Stefanelli - ударные, перкуссия
Niall Gregory - ударные, перкуссия
Chris Decato - клавишные, миди, вокал
Tim Theriault - гитары, вокал
Irina Chirkova - виолончель
Chris Lester - гитары, бас, мандолин
Доп. информация:
Собственный рип Sully Erna - Avalon Live [2012, Hard Rock/Experimental, Blu-ray], спасибо GODSMACK_FOREVER за предоставленный блю-рей.
Качество: BDRip 720p
Контейнер: MKV
Видео кодек: H.264
Аудио кодек: DTS, AC3
Видео: H.264, 1280x720, 4184 Kbps, 23.976 fps
Аудио: DTS, 1 509 Kbps, 48.0 KHz, 5.1
Аудио 2: AC3, 448 Kbps, 48.0 KHz, 2.0
raw [info]: 1280x720p 1:1 @ 24000/1001 fps (cfr)
x264 [info]: using SAR=1/1
x264 [info]: using cpu capabilities: MMX2 SSE2Fast SSSE3 SSE4.2 AVX
x264 [info]: profile High, level 4.1

x264 [info]: frame I:1341 Avg QP:14.63 size: 97341
x264 [info]: frame P:27687 Avg QP:15.42 size: 40248
x264 [info]: frame B:96509 Avg QP:17.58 size: 16308
x264 [info]: consecutive B-frames: 1.7% 1.5% 8.7% 30.5% 19.9% 32.5% 5.2%
x264 [info]: mb I I16..4: 24.8% 55.3% 19.9%
x264 [info]: mb P I16..4: 7.5% 13.4% 2.0% P16..4: 32.4% 15.7% 11.7% 0.6% 0.2% skip:16.4%
x264 [info]: mb B I16..4: 1.8% 1.8% 0.2% B16..8: 31.9% 11.5% 3.1% direct:10.8% skip:38.9% L0:45.9% L1:38.8% BI:15.3%
x264 [info]: 8x8 transform intra:54.6% inter:57.6%
x264 [info]: direct mvs spatial:99.9% temporal:0.1%
x264 [info]: coded y,uvDC,uvAC intra: 50.0% 77.5% 70.0% inter: 18.6% 38.8% 19.6%
x264 [info]: i16 v,h,dc,p: 71% 15% 9% 5%
x264 [info]: i8 v,h,dc,ddl,ddr,vr,hd,vl,hu: 16% 11% 24% 6% 8% 9% 8% 9% 9%
x264 [info]: i4 v,h,dc,ddl,ddr,vr,hd,vl,hu: 16% 14% 13% 8% 11% 10% 10% 9% 10%
x264 [info]: i8c dc,h,v,p: 55% 16% 20% 9%
x264 [info]: Weighted P-Frames: Y:10.4% UV:8.0%
x264 [info]: ref P L0: 46.2% 7.1% 18.2% 8.1% 6.2% 4.8% 4.0% 2.6% 2.4% 0.3% 0.0%
x264 [info]: ref B L0: 67.7% 13.8% 7.3% 3.9% 3.0% 2.4% 1.4% 0.5%
x264 [info]: ref B L1: 91.2% 8.8%
x264 [info]: kb/s:4306.71
Код:
Код:
General
Unique ID                                : 227695583327341961813782581322126899583 (0xAB4C92FFA7A9ADE8BAA6A005CD6EB97F)
Complete name                            : D:\Sully Erna\Sully Erna - Avalon Live BDRip 720p DTS.mkv
Format                                   : Matroska
Format version                           : Version 4 / Version 2
File size                                : 3.82 GiB
Duration                                 : 1h 27mn
Overall bit rate                         : 6 265 Kbps
Encoded date                             : UTC 2013-07-07 10:06:19
Writing application                      : mkvmerge v6.3.0 ('You can't stop me!') built on Jun 28 2013 20:09:41
Writing library                          : libebml v1.3.0 + libmatroska v1.4.0

Video
ID                                       : 1
Format                                   : AVC
Format/Info                              : Advanced Video Codec
Format profile                           : High@L4.1
Format settings, CABAC                   : Yes
Format settings, ReFrames                : 9 frames
Codec ID                                 : V_MPEG4/ISO/AVC
Duration                                 : 1h 27mn
Bit rate                                 : 4 184 Kbps
Width                                    : 1 280 pixels
Height                                   : 720 pixels
Display aspect ratio                     : 16:9
Frame rate mode                          : Constant
Frame rate                               : 23.976 fps
Color space                              : YUV
Chroma subsampling                       : 4:2:0
Bit depth                                : 8 bits
Scan type                                : Progressive
Bits/(Pixel*Frame)                       : 0.189
Stream size                              : 2.55 GiB (67%)
Writing library                          : x264 core 130 r2273 b3065e6
Encoding settings                        : cabac=1 / ref=9 / deblock=1:-3:-3 / analyse=0x3:0x133 / me=umh / subme=9 / psy=1 / psy_rd=1.00:0.15 / mixed_ref=1 / me_range=24 / chroma_me=1 / trellis=2 / 8x8dct=1 / cqm=0 / deadzone=21,11 / fast_pskip=0 / chroma_qp_offset=-3 / threads=12 / lookahead_threads=1 / sliced_threads=0 / nr=0 / decimate=1 / interlaced=0 / bluray_compat=0 / constrained_intra=0 / bframes=6 / b_pyramid=2 / b_adapt=2 / b_bias=0 / direct=3 / weightb=1 / open_gop=0 / weightp=2 / keyint=250 / keyint_min=23 / scenecut=40 / intra_refresh=0 / rc_lookahead=60 / rc=crf / mbtree=0 / crf=19.0 / qcomp=0.60 / qpmin=0 / qpmax=69 / qpstep=4 / vbv_maxrate=40000 / vbv_bufsize=30000 / crf_max=0.0 / nal_hrd=none / ip_ratio=1.40 / pb_ratio=1.30 / aq=1:1.00
Language                                 : English
Default                                  : Yes
Forced                                   : No
Color primaries                          : BT.709
Transfer characteristics                 : BT.709
Matrix coefficients                      : BT.709

Audio #1
ID                                       : 2
Format                                   : DTS
Format/Info                              : Digital Theater Systems
Mode                                     : 16
Format settings, Endianness              : Big
Codec ID                                 : A_DTS
Duration                                 : 1h 27mn
Bit rate mode                            : Constant
Bit rate                                 : 1 509 Kbps
Channel(s)                               : 6 channels
Channel positions                        : Front: L C R, Side: L R, LFE
Sampling rate                            : 48.0 KHz
Bit depth                                : 24 bits
Compression mode                         : Lossy
Stream size                              : 942 MiB (24%)
Title                                    : DTS 1509 Kbps 5.1
Language                                 : English
Default                                  : Yes
Forced                                   : No

Audio #2
ID                                       : 3
Format                                   : AC-3
Format/Info                              : Audio Coding 3
Mode extension                           : CM (complete main)
Format settings, Endianness              : Big
Codec ID                                 : A_AC3
Duration                                 : 1h 27mn
Bit rate mode                            : Constant
Bit rate                                 : 448 Kbps
Channel(s)                               : 2 channels
Channel positions                        : Front: L R
Sampling rate                            : 48.0 KHz
Bit depth                                : 16 bits
Compression mode                         : Lossy
Stream size                              : 280 MiB (7%)
Title                                    : AC3 448 Kbps 2.0
Language                                 : English
Default                                  : No
Forced                                   : No

Menu
00:00:00.000                             : en:Avalon
00:06:04.114                             : en:Sinner's Prayer
00:10:27.001                             : en:Broken Road
00:15:21.587                             : en:The Departed
00:21:18.903                             : en:Lester's Ditty
00:22:43.779                             : en:My Light
00:28:24.912                             : en:Cast Out
00:33:42.687                             : en:3 Times Fold
00:38:36.397                             : en:Until Then... (Featuring Irina Chirkova)
00:43:38.574                             : en:Midnight
00:48:55.724                             : en:The Rise
00:55:42.172                             : en:Eyes Of A Child
01:00:34.840                             : en:7 Years
01:10:23.594                             : en:Serenity
01:15:53.382                             : en:The Chain
01:21:49.738                             : en:Hey Jude
01:24:32.359                             : en:Credits

загрузка...
Правила, инструкции, FAQ!!!
Торрент  Добавлен [26 апр 2015, 22:16] Скачать торрент
Скачать торрент
[ Размер 19.6 КБ / Просмотров 21 ]

Статус
Проверен 
 
Размер  3.82 ГБ
Приватный: Нет (DHT включён)
.torrent скачан  1
Как залить торрент? | Как скачать Torrent? | Как смотреть и слушать онлайн?  


     Отправить личное сообщение
   
Страница 1 из 1
Показать сообщения за:  Поле сортировки  
Начать новую тему Ответить на тему

   Похожие торренты   Автор   Ответы   Просмотры   Последнее сообщение 
В этой теме нет новых непрочитанных сообщений. Скачать торрент Проверен Sully Erna - Avalon Live [2012, Hard Rock/Experimental, Blu-ray]

в форуме Концерты (HD-Video), Размер: 21.78 ГБ, Здоровье: 100%

Гость

0
64|4

276
0

03 май 2015, 22:24

Гость Перейти к последнему сообщению

В этой теме нет новых непрочитанных сообщений. Скачать торрент Проверен (Hard Rock | Experimental) Sully Erna (Godsmack) - Avalon - 2010, FLAC (tracks+.cue) lossless

в форуме Alternative & Nu-metal, Размер: 368.98 МБ, Здоровье: 0%

Anonymous

0
0|0

11
0

25 фев 2017, 11:48

Anonymous Перейти к последнему сообщению

В этой теме нет новых непрочитанных сообщений. Скачать торрент Проверен Sully Erna - Avalon Live [2012, Acoustic Rock, Tribal Music, Native American Music, BDRip 1080p]

в форуме Концерты (HD-Video), Размер: 8.12 ГБ, Здоровье: 100%

Anonymous

0
15|5

62
4

23 окт 2016, 19:49

Anonymous Перейти к последнему сообщению

В этой теме нет новых непрочитанных сообщений. Скачать торрент Проверен (Alternative Rock, Acoustic) Sully Erna (Godsmack) - Hometown Life - 2016, FLAC (image+.cue), lossless

в форуме Alternative & Nu-metal, Размер: 284.9 МБ, Здоровье: 100%

Anonymous

0
14|5

35
0

25 фев 2017, 14:08

Anonymous Перейти к последнему сообщению

В этой теме нет новых непрочитанных сообщений. Скачать торрент Проверен Blue Man Group - How to be a Megastar LIVE! [2008, Experimental Rock, BDRip, 720p]

в форуме Концерты (HD-Video), Размер: 4.35 ГБ, Здоровье: 100%

Anonymous

0
7|2

10
0

23 окт 2016, 12:23

Anonymous Перейти к последнему сообщению



Сейчас этот форум просматривают: нет зарегистрированных пользователей и гости: 0


Вы не можете начинать темы
Вы не можете отвечать на сообщения
Вы не можете редактировать свои сообщения
Вы не можете удалять свои сообщения
Вы не можете добавлять вложения

Перейти:  

!ВНИМАНИЕ!
 Ресурс не предоставляет электронные версии произведений, а занимается лишь коллекционированием и каталогизацией ссылок, присылаемых и публикуемых на форуме нашими читателями. Если вы являетесь правообладателем какого-либо представленного материала и не желаете чтобы ссылка на него находилась в нашем каталоге, свяжитесь с нами и мы незамедлительно удалим её. Файлы для обмена на трекере предоставлены пользователями сайта, и администрация не несёт ответственности за их содержание. Просьба не заливать файлы, защищенные авторскими правами, а также файлы нелегального содержания!