На всех торрентах на трекере установлена скидка на скачивание в размере 100 процентов(а).
 Возможность скачивания торрента НЕ зависит от ограничений при низком ратио, низком аплоаде, требуемом ратио или требуемом аплоаде.


Начать новую тему Ответить на тему
Статистика раздачи
Размер: 1.45 ГБ | Добавлен: 14 апр 2014, 09:27 | Скачали: 0
Сидеров: 12  [0 байт/сек]    Личеров: 4  [0 байт/сек]
Пред. тема | След. тема 

Автор
Сообщение

СообщениеДобавлено: 14 апр 2014, 09:27 

Ответить с цитатой 

Стая / La horde / Die horde [UNRATED]

Год выпуска: 2009
Страна: Франция
Жанр: Ужасы, Боевик, Триллер
Продолжительность: 1:41:40
Перевод: Авторский (Одноголосый), Антон Карповский
Cубтитры: нет

Режиссер: Янник Даан / Yannick Dahan, Бенжамен Роше / Benjamin Rocher

В ролях: Клод Перрон /Claude Perron/, Жан-Пьер Мартен /Jean-Pierre Martins/, Эрик Эбони /Eriq Ebouaney/, Орельен Рекуан /Aurélien Recoing/, Дуду Маста /Doudou Masta/, Антуан Оппенхайм /Antoine Oppenheim/

Описание: Север Парижа. Собираясь отомстить за убийство сослуживца безжалостной бандой, четыре полицейских пробираются в здание, служащее гангстерам штаб-квартирой. Замеченные и пойманные, офицеры готовятся к казни, как вдруг случается невообразимое: в дом врывается стая кровожадных плотоядных существ, жестоко нападая на всех и каждого. Полицейским и бандитам приходится объединить усилия в отчаянной схватке.

Качество видео: HDRip
Формат: AVI
Видео кодек: XviD
Аудио кодек: AC3
Видео: 720x304, 23,976 fps, 1579 kbps
Аудио: 48000Hz, DD 5.1, 448 kbps

Скачать: SAMPLE 30.55MB

Доп. информация: За перевод, данного фильма у Антона Карповского, выражается благодарность следующим людям: Guyver, Linnan, Slimka, Dr. Destructo, Kampfer161, Wolf_Larsen, zetrob, ZeDOK, zeleniydzhan, feldeger.

MediaInfo
Формат : AVI
Формат/Информация : Audio Video Interleave
Размер файла : 1,45 Гбайт
Продолжительность : 1 ч. 41 м.
Общий поток : 2036 Кбит/сек
Программа кодирования : VirtualDubMod 1.5.4.1 (build 2178/release)
Библиотека кодирования : VirtualDubMod build 2178/release

Видео
Идентификатор : 0
Формат : MPEG-4 Visual
Профиль формата : Advanced Simple@L5
Параметр BVOP формата : 1
Параметр QPel формата : Нет
Параметр GMC формата : Без точки перехода
Параметр матрицы формата : Default (MPEG)
Идентификатор кодека : XVID
Идентификатор кодека/Подсказка : XviD
Продолжительность : 1 ч. 41 м.
Битрейт : 1579 Кбит/сек
Ширина : 720 пикселей
Высота : 304 пикселя
Соотношение сторон : 2,35:1
Частота кадров : 23,976 кадра/сек
Цветовое пространство : YUV
Субдискретизация насыщенности : 4:2:0
Битовая глубина : 8 бит
Тип развёртки : Прогрессивная
Метод сжатия : С потерями
Бит/(Пиксели*Кадры) : 0.301
Размер потока : 1,12 Гбайт (78%)
Библиотека кодирования : XviD 1.2.1 (UTC 2008-12-04)

Аудио
Идентификатор : 1
Формат : AC-3
Формат/Информация : Audio Coding 3
Расширение режима : CM (complete main)
Параметр Endianness формата : Big
Идентификатор кодека : 2000
Продолжительность : 1 ч. 41 м.
Вид битрейта : Постоянный
Битрейт : 448 Кбит/сек
Каналы : 6 каналов
Расположение каналов : Front: L C R, Side: L R, LFE
Частота : 48,0 КГц
Битовая глубина : 16 бит
Метод сжатия : С потерями
Размер потока : 326 Мбайт (22%)
Выравнивание : Разделение по промежуткам
Продолжительность промежутка : 42 мс. (1,00 видеокадр)
Время предзагрузки промежутка : 500 мс.
Скриншоты
загрузка...
Правила, инструкции, FAQ!!!
Торрент  Добавлен [14 апр 2014, 09:27] Скачать торрент
Скачать торрент
[ Размер 14.96 КБ / Просмотров 7 ]

Статус  
 
Размер  1.45 ГБ
Приватный: Нет (DHT включён)
.torrent скачан  0
Как залить торрент? | Как скачать Torrent? | Как смотреть и слушать онлайн?  


     Отправить личное сообщение
   
Страница 1 из 1
Показать сообщения за:  Поле сортировки  
Начать новую тему Ответить на тему

   Похожие торренты   Автор   Ответы   Просмотры   Последнее сообщение 
В этой теме нет новых непрочитанных сообщений. Скачать торрент Проверен Стая / La horde (2009) BDRip 720p | UNRATED

в форуме 720p | 1080p, Размер: 2.74 ГБ, Здоровье: 100%

Anonymous

0
42|4

67
316

25 дек 2014, 19:59

Anonymous Перейти к последнему сообщению

В этой теме нет новых непрочитанных сообщений. Скачать торрент Проверен (Avant-Prog, Experimental) Mnemonists - Horde - 1981, FLAC (tracks), lossless

в форуме Progressive & Art-Rock, Размер: 179.79 МБ, Здоровье: 0%

Anonymous

0
0|0

0
0

29 авг 2016, 23:02

Anonymous Перейти к последнему сообщению

В этой теме нет новых непрочитанных сообщений. Скачать торрент Проверен [VIDEO] Воздушный маршал / Non-Stop (Хауме Кольет-Серра / Jaume Collet-Serra) [2014г, Великобритания, Франция, США, детектив, триллер, боевик, HDRip][MP4, 480x] Dub (Лицензия)

в форуме Видео для смартфонов и КПК, Размер: 491.21 МБ, Здоровье: 100%

Anonymous

0
56|19

105
0

02 авг 2014, 16:55

Anonymous Перейти к последнему сообщению

В этой теме нет новых непрочитанных сообщений. Скачать торрент Проверен (Indie Rock, Jazz Noir, Low Rock) Morphine - Horde Jam 08-03-97, Bootleg - 1997, MP3 (tracks), 160 kbps

в форуме Classic Rock & Hard Rock, Размер: 51.11 МБ, Здоровье: 100%

Anonymous

0
2|1

0
0

13 ноя 2016, 21:46

Anonymous Перейти к последнему сообщению

В этой теме нет новых непрочитанных сообщений. Скачать торрент Проверен [VIDEO] Дракула 2000 / Dracula 2000 (Патрик Люссье / Patrick Lussier) [2000, ужасы, фэнтези, боевик, триллер, HDRip] [MP4, 960x]

в форуме Видео для смартфонов и КПК, Размер: 1.05 ГБ, Здоровье: 100%

Anonymous

0
2|1

403
0

02 авг 2014, 16:53

Anonymous Перейти к последнему сообщению



Сейчас этот форум просматривают: нет зарегистрированных пользователей и гости: 1


Вы не можете начинать темы
Вы не можете отвечать на сообщения
Вы не можете редактировать свои сообщения
Вы не можете удалять свои сообщения
Вы не можете добавлять вложения

Перейти:  

!ВНИМАНИЕ!
 Ресурс не предоставляет электронные версии произведений, а занимается лишь коллекционированием и каталогизацией ссылок, присылаемых и публикуемых на форуме нашими читателями. Если вы являетесь правообладателем какого-либо представленного материала и не желаете чтобы ссылка на него находилась в нашем каталоге, свяжитесь с нами и мы незамедлительно удалим её. Файлы для обмена на трекере предоставлены пользователями сайта, и администрация не несёт ответственности за их содержание. Просьба не заливать файлы, защищенные авторскими правами, а также файлы нелегального содержания!