На всех торрентах на трекере установлена скидка на скачивание в размере 100 процентов(а).
 Возможность скачивания торрента НЕ зависит от ограничений при низком ратио, низком аплоаде, требуемом ратио или требуемом аплоаде.


Начать новую тему Ответить на тему
Статистика раздачи
Размер: 4.23 ГБ | Добавлен: 15 апр 2018, 18:47 | Скачали: 0
Сидеров: 0  [0 байт/сек]    Личеров: 0  [0 байт/сек]
Пред. тема | След. тема 

Автор
Сообщение

СообщениеДобавлено: 15 апр 2018, 18:47 

Ответить с цитатой 

Atlanta Rhythm Section - 6 LP's
Жанр: Southern Rock
Носитель: LP
Год выпуска: 1973, 1976, 1976, 1978, 1980, 1981
Лейбл: MCA Records, Polydor, CBS/Sony
Страна-производитель: Japan, US
Аудио кодек: FLAC
Тип рипа: image+.cue
Формат записи: 24/96
Формат раздачи: 24/96
Продолжительность: 3:35:32
Источник оцифровки: Valiko (aka Валентин)
Код класса состояния винила: VG+ - Ex
#777Год выпуска: 1973
Лейбл: MCA Records – VIM 4057
Страна-производитель: Japan
Продолжительность: 36:26
Код класса состояния винила: Ex
Треклист:
A1. Wrong
A2. Cold Turkey Tenn
A3. Will I Live On ?
A4. A Livin‘ Lovin‘ Wreck
A5. Superman
B1. What You Gonna Do About It ?
B2. Conversation
B3. Redneck
B4. Make Me Believe It
B5. Back Up Against The Wall
B6. It Must Be Love
Устройство воспроизведения: Diatone LT-3
Головка звукоснимателя: Denon DL-103
Предварительный усилитель: Step-Up Transformer ENTRE ET-100 + Victor P-3030
АЦП: ONKYO WAVIO SE-300PCIE
Программа-оцифровщик: Adobe Audition CS6
Обработка: нет
foobar2000 1.3.16 / Dynamic Range Meter 1.1.1
log date: 2017-10-16 09:36:37
--------------------------------------------------------------------------------
Analyzed: Atlanta Rhythm Section / Back Up Against The Wall
--------------------------------------------------------------------------------
DR Peak RMS Duration Track
--------------------------------------------------------------------------------
DR13 -0.93 dB -15.09 dB 2:43 01-A1. Wrong
DR12 -1.46 dB -15.22 dB 3:18 02-A2. Cold Turkey Tenn
DR12 -1.35 dB -17.07 dB 2:52 03-A3. Will I Live On ?
DR13 -0.34 dB -15.29 dB 3:07 04-A4. A Livin‘ Lovin‘ Wreck
DR12 -0.91 dB -15.70 dB 3:27 05-A5. Superman
DR13 -0.65 dB -15.59 dB 3:04 06-B1. What You Gonna Do About It ?
DR12 -1.16 dB -16.51 dB 3:27 07-B2. Conversation
DR13 -0.09 dB -15.52 dB 3:47 08-B3. Redneck
DR12 -0.94 dB -16.09 dB 3:15 09-B4. Make Me Believe It
DR12 -0.79 dB -14.70 dB 3:23 10-B5. Back Up Against The Wall
DR13 -0.87 dB -15.57 dB 4:03 11-B6. It Must Be Love
--------------------------------------------------------------------------------
Number of tracks: 11
Official DR value: DR12
Samplerate: 96000 Hz
Channels: 2
Bits per sample: 24
Bitrate: 2844 kbps
Codec: FLAC
================================================================================
Bass – Paul Goddard
Drums – Robert Nix
Lead Guitar – Barry Bailey
Piano, Organ – Dean Daughtry
Piano, Vocals – Ronnie Hammond
Rhythm Guitar [Electric], Slide Guitar, Acoustic Guitar [Rhythm] – J. R. Cobb
Harmonica – Billy Lee Riley
Synthesizer [ARP] – Al Kooper
Группа образована в 1970 году бывшими участниками Candymen и Classics IV, как сессионный коллектив для недавно открытой Studio One в Доравилле, Джорджия, недалеко от Атланты. Поучаствовав в записях других исполнителей, они решили стать настоящей группой со своими собственными правами. В оригинальный состав вошли вокалист Родни Хусто, гитарист Барри Бэйли, басист Пол Годдард, клавишник Дин Дотри, и барабанщик Роберт Никс. Гитарист Джеймс Б. Кобб младший присоединился к группе в начале 1972. Хусто покинул группу после первого альбома и был заменен Ронни Хаммондом. Бадди Буйе, менеджер и продюсер группы, является соавтором большинства песен группы. Певец христианской музыки и южного рока Милон Лефевр принял участие в записи песни "Jesus Hearted People", попавшей на альбом Third Annual Pipe Dream. Интересно, что Барри Бэйли, Пол Годдард, и Дин Дотри, до создания ARS, были участниками аккомпанирующей Лефевру группы.
В 1996 году группа была включена в Музыкальный Зал Славы Джорджии (англ. Georgia Music Hall of Fame).
Хотя они и не добились такого коммерческого успеха как Lynyrd Skynyrd или The Allman Brothers, у них была длинная череда хитов, два из которых вошли в Топ 10 - "So Into You", "Imaginary Lover", плюс песни - фавориты фанов, такие как "Boogie Smoogie", "Jukin'", and "Georgia Rhythm". Atlanta Rhythm Section оказали влияние на ряд рок и кантри исполнителей, в частности Трэвиса Тритта (англ. Travis Tritt), который сделал каверы на песни "Back Up Against the Wall" и "Homesick". Группа Shudder to Think сделала кавер на "So Into You". Вайнонна Джадд записала на своем альбоме 1993 года песню "Rock Bottom", написанную Коббом и Буйе. Гарт Брукс на альбоме Scarecrow записал песню Кобба/Буйе "Mr. Midnight".
Matrix / Runout (Side A Label): 7-13146
Matrix / Runout (Side B Label): 7-13147✤
Matrix / Runout (Side A ): MG7-13146 W1 ⧈-G-⧈ DWJ
Matrix / Runout (Side B ): MG7-13147 W1 DWJ ⧈-G-⧈
Rights Society: BMI
#777#777#777#777#777
#777Год выпуска: 1976
Лейбл: Polydor – PD-1-6060
Страна-производитель: US
Продолжительность: 32:15
Код класса состояния винила: VG+
Треклист:
A1. Jukin
A2. Mixed Emotions
A3. Shanghied
A4. Police! Police!
A5. Beautiful Dreamer
B1. Oh What A Feeling
B2. Free Spirit
B3. Another Man's Woman
Устройство воспроизведения: Diatone LT-3
Головка звукоснимателя: Denon DL-103
Предварительный усилитель: Step-Up Transformer ENTRE ET-100 + Victor P-3030
АЦП: ONKYO WAVIO SE-300PCIE
Программа-оцифровщик: Adobe Audition CS6
Обработка: нет
foobar2000 1.3.16 / Dynamic Range Meter 1.1.1
log date: 2017-10-29 18:51:13
--------------------------------------------------------------------------------
Analyzed: Atlanta Rhythm Section / Red Tape
--------------------------------------------------------------------------------
DR Peak RMS Duration Track
--------------------------------------------------------------------------------
DR13 -1.08 dB -16.23 dB 3:44 01-A1. Jukin
DR13 -0.96 dB -15.99 dB 3:21 02-A2. Mixed Emotions
DR13 -1.39 dB -16.65 dB 2:16 03-A3. Shanghied
DR13 -1.46 dB -17.31 dB 3:12 04-A4. Police! Police!
DR13 -2.81 dB -18.76 dB 3:28 05-A5. Beautiful Dreamer
DR13 -0.90 dB -16.56 dB 2:44 06-B1. Oh What A Feeling
DR14 -0.92 dB -17.21 dB 3:39 07-B2. Free Spirit
DR14 -0.09 dB -17.45 dB 9:51 08-B3. Another Man's Woman
--------------------------------------------------------------------------------
Number of tracks: 8
Official DR value: DR13
Samplerate: 96000 Hz
Channels: 2
Bits per sample: 24
Bitrate: 2687 kbps
Codec: FLAC
================================================================================
Backing Vocals [Background Vocals] – Dean Daughtry, J.R. Cobb*, Robert Nix, Ronnie Hammond
Bass – Paul Goddard
Drums – Robert Nix
Keyboards – Dean Daughtry
Lead Guitar – Barry Bailey (3)
Lead Vocals – Ronnie Hammond
Rhythm Guitar, Slide Guitar – J.R. Cobb
Producer – Buddy Buie
Matrix / Runout (Side 1 Matrix Hand Etched): PD-1-6060-AS (PRC) -1-1-11
Matrix / Runout (Side 1 Stamped): MASTERDISK
Matrix / Runout (Side 2 Matrix Hand Etched): D-1-6060-BS (PRC) 1-1-1
#777#777#777#777#777
#777Год выпуска: 1976
Лейбл: Polydor ‎– PD-1-6080
Страна-производитель: US
Продолжительность: 35:11
Код класса состояния винила: Ex-
Треклист:
A1. Sky High
A2. Hitch-Hikers' Hero
A3. Don't Miss The Message
A4. Georgia Rhythm
B1. So In To You
B2. Outside Woman Blues
B3. Everybody Gotta Go
B4. Neon Nites
Устройство воспроизведения: Diatone LT-3
Головка звукоснимателя: Denon DL-103
Предварительный усилитель: Step-Up Transformer ENTRE ET-100 + Victor P-3030
АЦП: ONKYO WAVIO SE-300PCIE
Программа-оцифровщик: Adobe Audition CS6
Обработка: нет
foobar2000 1.3.16 / Dynamic Range Meter 1.1.1
log date: 2017-11-11 11:16:03
--------------------------------------------------------------------------------
Analyzed: Atlanta Rhythm Section / A Rock And Roll Alternative
--------------------------------------------------------------------------------
DR Peak RMS Duration Track
--------------------------------------------------------------------------------
DR15 -0.38 dB -17.25 dB 5:17 01-A1. Sky High
DR14 -0.09 dB -17.22 dB 3:40 02-A2. Hitch-Hikers' Hero
DR14 -1.53 dB -17.55 dB 3:33 03-A3. Don't Miss The Message
DR14 -0.62 dB -18.52 dB 5:02 04-A4. Georgia Rhythm
DR15 -1.04 dB -18.53 dB 4:28 05-B1. So In To You
DR16 -0.87 dB -19.04 dB 4:55 06-B2. Outside Woman Blues
DR15 -1.01 dB -18.61 dB 4:14 07-B3. Everybody Gotta Go
DR15 -0.59 dB -20.60 dB 4:02 08-B4. Neon Nites
--------------------------------------------------------------------------------
Number of tracks: 8
Official DR value: DR15
Samplerate: 96000 Hz
Channels: 2
Bits per sample: 24
Bitrate: 2739 kbps
Codec: FLAC
================================================================================
Bass – Paul Goddard
Drums, Backing Vocals – Robert Nix
Keyboards – Dean Daughtry
Lead Guitar – Barry Bailey
Lead Vocals, Backing Vocals – Ronnie Hammond
Mastered By – Bob Ludwig, Rodney Mills
Весной 1977 Atlanta Rhythm Section добились первого серьезного успеха с песней So In To You (№ 7) и альбомом «A Rock And Roll Alternative» (№ 11), который принес им первый «золотой диск» и вошел в число десяти наиболее часто заказываемых на радио пластинок.
#777#777#777
#777Год выпуска: 1978
Лейбл: Polydor – MPF 1159
Страна-производитель: Japan
Продолжительность: 36:26
Код класса состояния винила: Ex-
Треклист:
A1. Large Time
A2. I'm Not Gonna Let It Bother Me Tonight
A3. Normal Love
A4. Champagne Jam
B1. Imaginary Lover
B2. The Ballad Of Lois Malone
B3. The Great Escape
B4. Evileen
Устройство воспроизведения: Diatone LT-3
Головка звукоснимателя: Denon DL-103
Предварительный усилитель: Step-Up Transformer ENTRE ET-100 + Victor P-3030
АЦП: ONKYO WAVIO SE-300PCIE
Программа-оцифровщик: Adobe Audition CS6
Обработка: нет
foobar2000 1.3.16 / Dynamic Range Meter 1.1.1
log date: 2018-01-08 13:34:42
--------------------------------------------------------------------------------
Analyzed: Atlanta Rhythm Section / Champagne Jam
--------------------------------------------------------------------------------
DR Peak RMS Duration Track
--------------------------------------------------------------------------------
DR14 -0.91 dB -17.42 dB 2:57 01-A1. Large Time
DR13 -1.82 dB -16.70 dB 4:10 02-A2. I'm Not Gonna Let It Bother Me Tonight
DR13 -4.49 dB -20.69 dB 3:25 03-A3. Normal Love
DR14 -1.90 dB -18.54 dB 4:38 04-A4. Champagne Jam
DR14 -1.88 dB -17.65 dB 5:06 05-B1. Imaginary Lover
DR14 -1.86 dB -18.01 dB 4:34 06-B2. The Ballad Of Lois Malone
DR16 -0.58 dB -18.57 dB 4:50 07-B3. The Great Escape
DR14 -2.10 dB -17.72 dB 3:34 08-B4. Evileen
--------------------------------------------------------------------------------
Number of tracks: 8
Official DR value: DR14
Samplerate: 96000 Hz
Channels: 2
Bits per sample: 24
Bitrate: 2736 kbps
Codec: FLAC
================================================================================
Backing Vocals – Paul Davis
Bass – Paul Goddard
Drums, Backing Vocals [Background Vocals] – Robert Nix
Keyboards – Dean Daughtry
Lead Guitar – Barry Bailey
Lead Vocals, Backing Vocals [Background Vocals] – Ronnie Hammond
Percussion – Artimus Pyle
Rhythm Guitar, Lead Guitar [Alternate] – J.R. Cobb
Voice ["rebel Yell" Courtesy Of] – Miss Sharon Lawrencer
Mastered By – Bob Ludwig, Rodney Mills
#777#777#777#777#777
#777Год выпуска: 1980
Лейбл: Polydor – Polydor ‎– PD-1-6285
Страна-производитель: US
Продолжительность: 38:54
Код класса состояния винила: VG+
Треклист:
A1 Cocaine Charlie
A2 Next Year's Rock & Roll
A3 I Ain't Much
A4 Putting My Faith In Love
B1 Rough At The Edges
B2 Silver Eagle
B3 Pedestal
B4 Try My Love
B5 Strictly R & R
Устройство воспроизведения: VICTOR QL-Y7
Головка звукоснимателя: SHURE m97xE/VN35(SAS)
Предварительный усилитель: SANEI PR-100
АЦП: ONKYO WAVIO SE-300PCIE
Программа-оцифровщик: Adobe Audition CS6
Обработка: нет
foobar2000 1.3.16 / Dynamic Range Meter 1.1.1
log date: 2018-04-14 12:16:37
--------------------------------------------------------------------------------
Analyzed: Atlanta Rhythm Section / Boys From Doraville
--------------------------------------------------------------------------------
DR Peak RMS Duration Track
--------------------------------------------------------------------------------
DR13 -2.18 dB -17.38 dB 4:53 01-A1 Cocaine Charlie
DR13 -1.15 dB -16.57 dB 5:26 02-A2 Next Year's Rock & Roll
DR14 -0.92 dB -16.20 dB 4:26 03-A3 I Ain't Much
DR14 -0.96 dB -16.73 dB 5:14 04-A4 Putting My Faith In Love
DR14 -1.60 dB -16.92 dB 3:20 05-B1 Rough At The Edges
DR12 -1.84 dB -16.41 dB 3:54 06-B2 Silver Eagle
DR13 -3.24 dB -18.80 dB 2:50 07-B3 Pedestal
DR13 -0.56 dB -15.56 dB 4:04 08-B4 Try My Love
DR14 -1.41 dB -17.13 dB 4:46 09-B5 Strictly R & R
--------------------------------------------------------------------------------
Number of tracks: 9
Official DR value: DR13
Samplerate: 96000 Hz
Channels: 2
Bits per sample: 24
Bitrate: 2758 kbps
Codec: FLAC
================================================================================
Bass – Paul Goddard
Guitar – Barry Bailey
Guitar, Backing Vocals – J.R. Cobb
Keyboards – Dean Daughtry
Percussion – Roy Yeager
Vocals, Backing Vocals – Ronnie Hammond
#777#777#777#777#777
#777Год выпуска: 1981
Лейбл: CBS/Sony ‎– 25AP-2150
Страна-производитель: Japan
Продолжительность: 39:31
Код класса состояния винила: Ex
Треклист:
A1. Homesick
A2. Quinella
A3. Alien
A4. Higher
B1. You're So Strong
B2. Outlaw Music
B3. Pretty Girl
B4. Southern Exposure
B5. Going to Shangri-La
Устройство воспроизведения: Diatone LT-3
Головка звукоснимателя: Denon DL-103
Предварительный усилитель: Step-Up Transformer ENTRE ET-100 + Victor P-3030
АЦП: ONKYO WAVIO SE-300PCIE
Программа-оцифровщик: Adobe Audition CS6
Обработка: нет
foobar2000 1.3.16 / Dynamic Range Meter 1.1.1
log date: 2018-01-07 11:25:40
--------------------------------------------------------------------------------
Analyzed: Atlanta Rhythm Section / Quinella
--------------------------------------------------------------------------------
DR Peak RMS Duration Track
--------------------------------------------------------------------------------
DR13 -0.51 dB -16.16 dB 4:17 01-A1. Homesick
DR13 -1.15 dB -16.55 dB 5:29 02-A2. Quinella
DR12 -1.35 dB -16.11 dB 4:57 03-A3. Alien
DR12 -0.94 dB -14.52 dB 4:17 04-A4. Higher
DR12 0.00 dB -16.54 dB 5:05 05-B1. You're So Strong
DR13 -2.21 dB -17.57 dB 5:07 06-B2. Outlaw Music
DR13 -2.79 dB -17.82 dB 3:34 07-B3. Pretty Girl
DR12 -2.01 dB -17.31 dB 2:53 08-B4. Southern Exposure
DR13 -0.75 dB -16.25 dB 3:52 09-B5. Going to Shangri-La
--------------------------------------------------------------------------------
Number of tracks: 9
Official DR value: DR13
Samplerate: 96000 Hz
Channels: 2
Bits per sample: 24
Bitrate: 2814 kbps
Codec: FLAC
================================================================================
#777#777#777#777#777
Хотя на "Atlanta Rhythm Section" налеплена этикетка "южный рок", их хиты были более мягкими и поп-ориентированными чем у "Lynyrd Skynyrd" или "Allman Brothers Band". Родилась команда в 1970 году в маленьком пригороде Атланты Доравилле. Все началось с постройки студии "One", совладельцами которой являлись Бадди Бью и Джеймс Кобб. Они-то и подобрали для этого заведения домашнюю команду, в которую вошли музыканты из сопровождения Роя Орбисона, вокалиста Родни Джусто, клавишника Дина Дотри и барабанщика Роберта Никса, а также два местных сайдмена, гитарист Барри Бэйли и басист Пол Годдард. Сам Кобб также играл с ними на гитаре, а вот Бью ограничился организаторскими функциями, да сочинением песен. Поначалу "ритм-секция" горбатилась на других исполнителей, но потихоньку Бадди, Дин и Роберт готовили оригинальные вещи, и в конце концов группа, оформившаяся в самостоятельную единицу, нарезала демо, обеспечившее ей двухальбомный контракт с "MCA/Decca". Первая пластинка "ARS" хоть и обратила на себя внимание критиков, ввиду отсутствия явных хитов широкого распространения не получила. Во время ее сессий музыканты познакомились с ассистентом звукоинженера Ронни Хаммондом, который играл на многих инструментах и к тому же обладал шикарным голосом. Поэтому когда Джусто вздумал отколоться от коллектива и работать соло, выбор нового фронтмена был предрешен заранее. Второй безхитовый диск "Back Up Against The Wall" все же поднял рейтинги "сектантов", тем более что музыканты наконец-то вылезли из студии и начали давать промо-концерты. Передислоцировавшись на "Polydor", команда немного причесала звук и в результате впервые познала вкус успеха. Посвященный родному городу трек "Doraville" стал не только провинциальным шлягером, но также попал в общеамериканский Топ 40, и протолкнул породивший его альбом "Third Annual Pipe Dream" в первую сотню "Billboard". В то время как "LS" и "ABB" делали ставку на жесткие гитары и перфомансы, наши герои сосредотачивались на песнях и выводили более радиоформатную разновидность южного рока, в которую вплетали блюз, кантри, латино, рэгги и другие стили. К подобным экспериментам, усугубившимся на "Dog Days, слушатели отнеслись с прохладцей, и в следующий раз поднаторевшие в концертах "Atlanta Rhythm Section" сделали более живую и роковую программу "Red Tape". Композиции "Jukin'" и "Free Spirit" с этого альбома частенько гоняли южные станции, но продажи дисков не удовлетворили "Polydor" и в 1976-м фирма урезала студийные сроки с трех до полутора месяцев. Как ни странно, но давление лейбла пошло на пользу, и ритм-секция из Атланты выдала шикарный винил "A Rock And Roll Alternative". Здесь группа довела баланс между рокешниками и более попсовыми номерами до совершенства, но главным было появление настоящего хита. Если первый сингл "Neon Nites" вплотную подобрался к сороковке, то "So Into You" попал в десятку и стал летним шлягером 1977 года. В Топ 10 угодил и сам альбом, а "Atlanta Rhythm Section" вылезли из душных клубов на просторные стадионы. Со своим следующим студийником команда достигла зенита славы, и с выходом "Champagne Jam" золотой сертификат сменился платиновым. "ARS" даже удостоились приглашения в Белый Дом от президента Картера, однако в ближайшем будущем дело пошло на спад. Уставшего от напряженной жизни Никса сменил Рой Йегер, а записанный с ним альбом "Underdog" получился чересчур мягким. Впрочем, пара вещей с пластинки ("Do It Or Die", "Spooky") побывала в Топ 20, а в подкрепление получившему золото студийнику был выпущен неплохой зальник "Are You Ready!". В начале 80-х, когда "ритм- секция" перебралась на "CBS", вышло два альбома, сделанных с уклоном в кантри-энд-вестерн. Однако на группе по-прежнему стояло "южное" клеймо, а музыку такого направления в эпоху новой волны продавать стало трудновато. Очередной альбом из-за недовольства лейбла оказался заброшен на полку, а в середине 80-х ушел в сольное плавание Хаммонд. Окопавшись в Нэшвилле с вернувшимся Джусто, команда пробовала работать с кантри продюсерами, но затея не увенчалась успехом и привела к оттоку кадров в сайд-проекты. В конце 80-х Хаммонд, Бэйли и Дотри с тремя новыми рекрутами возродили "Atlanta Rhythm Section", но выпущенный этим составом альбом "Truth In A Structured Form" из-за своей синтетичности резко отличался от предыдущих опусов и имел малый спрос, так что группа опять легла на дно.
В середине 90-х та же троица оригиналов опять воссоединилась и живьем перезаписала классические вещи "ARS" для пластинки "Atlanta Rhythm Section 96". Вскоре после этого ансамбль ввели в "Georgia Music Hall Of Fame", а в честь 25-летия студийного дебюта "сектанты" решили выпустить диск "Partly Plugged", где новые электрические вещи были перемешаны с акустическими обработками старых. Подобный компот (однако уже полностью plugged) звучал и на альбоме "Eufaula". Вопреки ожиданиям музыкантов из-за финансовых трудностей лейбл не стал раскручивать пластинку, а вскоре после ее записи от сердечного приступа скончался барабанщик "ARS" Р.Дж. Вили. В начале нулевых гастроли утомили Хаммонда и Бэйли, но зато со временем в родные пенаты вернулись Джусто и Годдард.
Добавил 1980 - The Boys From Doraville
загрузка...
Правила, инструкции, FAQ!!!
Торрент  Добавлен [15 апр 2018, 18:47] Скачать торрент Магнет ссылка
Скачать торрент
[ Размер 25.79 КБ / Просмотров 11 ]

Статус
Проверен 
 
Размер  4.23 ГБ
Приватный: Нет (DHT включён)
.torrent скачан  0
Как залить торрент? | Как скачать Torrent? | Ошибка в торренте? Качайте магнет  


     Отправить личное сообщение
   
Страница 1 из 1
Показать сообщения за:  Поле сортировки  
Начать новую тему Ответить на тему

   Похожие торренты   Автор   Ответы   Просмотры   Последнее сообщение 
В этой теме нет новых непрочитанных сообщений. Скачать торрент Проверен (Southern Rock, Classic Rock) Atlanta Rhythm Section - The Best Of Atlanta Rhythm Section - 1997 [COL-8409 (314 520 382-2)], APE (image+.cue), lossless

в форуме Classic Rock & Hard Rock, Размер: 214.72 МБ, Здоровье: 100%

Anonymous

0
1|0

17
0

04 сен 2016, 17:47

Anonymous Перейти к последнему сообщению

В этой теме нет новых непрочитанных сообщений. Скачать торрент Проверен (Southern rock) Atlanta Rhythm Section - Quinella - 1981, APE (image+.cue), lossless

в форуме Classic Rock & Hard Rock, Размер: 213.14 МБ, Здоровье: 100%

Anonymous

0
14|1

24
2

03 сен 2016, 13:21

Anonymous Перейти к последнему сообщению

В этой теме нет новых непрочитанных сообщений. Скачать торрент Проверен (Southern rock, Album Rock) Atlanta Rhythm Section - Back Up Against The Wall - 1973, FLAC (tracks+.cue), lossless

в форуме Classic Rock & Hard Rock, Размер: 243.17 МБ, Здоровье: 100%

Anonymous

0
7|1

37
0

03 сен 2016, 13:21

Anonymous Перейти к последнему сообщению

В этой теме нет новых непрочитанных сообщений. Скачать торрент Проверен (Southern Rock) Atlanta Rhythm Section - Eufaula - 1999, APE (image+.cue), lossless

в форуме Classic Rock & Hard Rock, Размер: 293.05 МБ, Здоровье: 0%

Anonymous

0
0|0

7
2

05 сен 2016, 20:06

Anonymous Перейти к последнему сообщению

В этой теме нет новых непрочитанных сообщений. Скачать торрент Проверен (Southern Rock) Atlanta Rhythm Section - Champagne Jam - 1978, APE (image+.cue), lossless

в форуме Classic Rock & Hard Rock, Размер: 187.54 МБ, Здоровье: ???%

Anonymous

0
0|1

15
1

04 сен 2016, 23:30

Anonymous Перейти к последнему сообщению



Сейчас этот форум просматривают: нет зарегистрированных пользователей и гости: 0


Вы не можете начинать темы
Вы не можете отвечать на сообщения
Вы не можете редактировать свои сообщения
Вы не можете удалять свои сообщения
Вы не можете добавлять вложения

Перейти:  
Ресурс не предоставляет электронные версии произведений, а занимается лишь коллекционированием и каталогизацией ссылок, присылаемых и публикуемых на форуме нашими читателями. Если вы являетесь правообладателем какого-либо представленного материала и не желаете чтобы ссылка на него находилась в нашем каталоге, свяжитесь с нами и мы незамедлительно удалим её. Файлы для обмена на трекере предоставлены пользователями сайта, и администрация не несёт ответственности за их содержание. Просьба не заливать файлы, защищенные авторскими правами, а также файлы нелегального содержания!
cron