На всех торрентах на трекере установлена скидка на скачивание в размере 100 процентов(а).
 Возможность скачивания торрента НЕ зависит от ограничений при низком ратио, низком аплоаде, требуемом ратио или требуемом аплоаде.


Начать новую тему Ответить на тему
Статистика раздачи
Размер: 5.76 ГБ | Добавлен: 29 фев 2016, 20:20 | Скачали: 120
Сидеров: 21  [0 байт/сек]    Личеров: 47  [0 байт/сек]
Пред. тема | След. тема 

Автор
Сообщение

СообщениеДобавлено: 29 фев 2016, 20:20 

Ответить с цитатой 

Русское название: Снежные приключения Солана и Людвига
Оригинальное название: Solan og Ludvig - Jul i Flåklypa
Год выпуска: 2013
Жанр: мультфильм, семейный
Выпущено: Норвегия
Режиссер: Расмус А. Сивертсен
В ролях: Кари Анн Грёнсунд , Тронд Хёвик , Тронд Бренне , Каре Конради , John F. Brungot , Торалв Морстад , Андерс Бай , Якоб Офтебро , Эли Анне Линнестад , Эйлиф Хеллум Норакер , Ингрид Воллан , Фредрик Стин
Перевод: Дублированный, Любительский (одноголосый)

Сюжет фильма:
Веселый и любопытный Солан и его друг - пессимист и меланхолик Людвиг - живут в маленькой деревушке вместе с изобретателем Реодором Фельгеном. Спокойную жизнь героев омрачает лишь одно - в канун Рождества в деревне до сих пор не выпал снег. Реодор, желая порадовать друзей, создает самую мощную в мире снежную пушку. Но, к сожалению, есть человек, который хочет использовать машину в корыстных целях - это редактор местной газеты Фриман. Чтобы повысить продажи своего издания, Фриман обещает читателям рекордное количество снега - и, конечно, для этого ему понадобится изобретение Реодора. Редактор своими действиями вызывает настоящую снежную бурю, и тогда Солана и Людвиг решают бросить ему вызов, чтобы остановить разбушевавшуюся стихию и вернуть Рождество.


Качество: BDRip 1080p
Формат: AVC (библиотека кодирования x.264)
Контейнер (Расширение): MKV
Видео: 1920x1076, 9125 Кбит/сек, 24 кадр/сек, 0,184 Бит/[Пиксели*Кадры]
Аудио №1: русский / AC3 / 2.0 / 48 kHz / 192 kbps / 16 bit |DUB - студия Пифагор|
Аудио №2: русский / AC3 / 2.0 / 48 kHz / 192 kbps / 16 bit |DUB - телеканал Gulli|
Аудио №3: русский / AC3 / 5.1 / 48 kHz / 640 kbps / 16 bit |VO - Max Nabokov|
Аудио №4: Norwegian / AC3 / 5.1 / 48 kHz / 640 kbps / 16 bit
Субтитры: English, Norwegian
Навигация по главам(Чаптеры): есть
Продолжительность: 01:16:25

Автор рипа: Сообщество:


Format : Matroska
Format version : Version 2
File size : 5.76 GiB
Duration : 1h 16mn
Overall bit rate : 10.8 Mbps
Movie name : Solan og Ludvig.(2013).BDRip.1080p.[denis100]
Encoded date : UTC 2016-02-29 14:36:28
Writing application : mkvmerge v5.8.0 ('No Sleep / Pillow') built on Sep 2 2012 15:37:04
Writing library : libebml v1.2.3 + libmatroska v1.3.0

Video
ID : 1
Format : AVC
Format/Info : Advanced Video Codec
Format profile : High@L4.1
Format settings, CABAC : Yes
Format settings, ReFrames : 4 frames
Codec ID : V_MPEG4/ISO/AVC
Duration : 1h 16mn
Bit rate : 9 125 Kbps
Width : 1 920 pixels
Height : 1 076 pixels
Display aspect ratio : 16:9
Frame rate : 24.000 fps
Color space : YUV
Chroma subsampling : 4:2:0
Bit depth : 8 bits
Scan type : Progressive
Bits/(Pixel*Frame) : 0.184
Stream size : 4.76 GiB (83%)
Title : Solan og Ludvig.(2013).BDRip.1080p.[denis100]
Writing library : x264 core 148 r2665 a01e339
Encoding settings : cabac=1 / ref=4 / deblock=1:0:0 / analyse=0x3:0x133 / me=umh / subme=11 / psy=1 / psy_rd=1.00:0.00 / mixed_ref=1 / me_range=32 / chroma_me=1 / trellis=2 / 8x8dct=1 / cqm=0 / deadzone=21,11 / fast_pskip=0 / chroma_qp_offset=-2 / threads=6 / lookahead_threads=1 / sliced_threads=0 / nr=0 / decimate=1 / interlaced=0 / bluray_compat=0 / constrained_intra=0 / bframes=8 / b_pyramid=2 / b_adapt=2 / b_bias=0 / direct=3 / weightb=1 / open_gop=0 / weightp=2 / keyint=250 / keyint_min=24 / scenecut=40 / intra_refresh=0 / rc=2pass / mbtree=0 / bitrate=9125 / ratetol=1.0 / qcomp=0.60 / qpmin=0 / qpmax=69 / qpstep=4 / cplxblur=20.0 / qblur=0.5 / ip_ratio=1.40 / pb_ratio=1.30 / aq=1:1.00
Language : English
Default : Yes
Forced : No

Audio #1
ID : 2
Format : AC-3
Format/Info : Audio Coding 3
Mode extension : CM (complete main)
Codec ID : A_AC3
Duration : 1h 16mn
Bit rate mode : Constant
Bit rate : 192 Kbps
Channel(s) : 2 channels
Channel positions : Front: L R
Sampling rate : 48.0 KHz
Bit depth : 16 bits
Compression mode : Lossy
Stream size : 105 MiB (2%)
Title : DUB - студия Пифагор
Language : Russian
Default : Yes
Forced : No

Audio #2
ID : 3
Format : AC-3
Format/Info : Audio Coding 3
Mode extension : CM (complete main)
Codec ID : A_AC3
Duration : 1h 16mn
Bit rate mode : Constant
Bit rate : 192 Kbps
Channel(s) : 2 channels
Channel positions : Front: L R
Sampling rate : 48.0 KHz
Bit depth : 16 bits
Compression mode : Lossy
Stream size : 105 MiB (2%)
Title : DUB - телеканал Gulli
Language : Russian
Default : No
Forced : No

Audio #3
ID : 4
Format : AC-3
Format/Info : Audio Coding 3
Mode extension : CM (complete main)
Codec ID : A_AC3
Duration : 1h 16mn
Bit rate mode : Constant
Bit rate : 640 Kbps
Channel(s) : 6 channels
Channel positions : Front: L C R, Side: L R, LFE
Sampling rate : 48.0 KHz
Bit depth : 16 bits
Compression mode : Lossy
Stream size : 350 MiB (6%)
Title : VO - Max Nabokov
Language : Russian
Default : No
Forced : No

Audio #4
ID : 5
Format : AC-3
Format/Info : Audio Coding 3
Mode extension : CM (complete main)
Codec ID : A_AC3
Duration : 1h 16mn
Bit rate mode : Constant
Bit rate : 640 Kbps
Channel(s) : 6 channels
Channel positions : Front: L C R, Side: L R, LFE
Sampling rate : 48.0 KHz
Bit depth : 16 bits
Compression mode : Lossy
Stream size : 350 MiB (6%)
Language : Norwegian
Default : No
Forced : No

Text #1
ID : 6
Format : UTF-8
Codec ID : S_TEXT/UTF8
Codec ID/Info : UTF-8 Plain Text
Language : English
Default : No
Forced : No

Text #2
ID : 7
Format : UTF-8
Codec ID : S_TEXT/UTF8
Codec ID/Info : UTF-8 Plain Text
Language : Norwegian
Default : No
Forced : No

Menu
00:00:00.000 : no:00:00:00.000
00:05:20.791 : no:00:05:20.791
00:12:33.833 : no:00:12:33.833
00:20:17.958 : no:00:20:17.958
00:28:15.375 : no:00:28:15.375
00:35:48.125 : no:00:35:48.125
00:42:45.250 : no:00:42:45.250
00:50:18.791 : no:00:50:18.791
00:57:12.166 : no:00:57:12.166
01:01:31.208 : no:01:01:31.208
01:09:05.833 : no:01:09:05.833
01:13:01.375 : no:01:13:01.375
x264 [info]: frame I:947 Avg QP:14.20 size:300317
x264 [info]: frame P:27295 Avg QP:16.33 size: 89241
x264 [info]: frame B:81808 Avg QP:17.70 size: 30685
Правила, инструкции, FAQ!!!
Торрент  Добавлен [29 фев 2016, 20:20] Скачать торрент Магнет ссылка
Скачать торрент
[ Размер 29.55 КБ / Просмотров 36 ]

Статус
Проверен 
 
Размер  5.76 ГБ
Приватный: Нет (DHT включён)
.torrent скачан  120
Как залить торрент? | Как скачать Torrent? | Ошибка в торренте? Качайте магнет  
загрузка...


     Отправить личное сообщение
   
Страница 1 из 1
Показать сообщения за:  Поле сортировки  
Начать новую тему Ответить на тему

   Похожие торренты   Автор   Ответы   Просмотры   Последнее сообщение 
В этой теме нет новых непрочитанных сообщений. Скачать торрент Проверен Снежные приключения Солана и Людвига / Solan og Ludvig - Jul i Flåklypa (2013) НDRip | Р

в форуме Зарубежные мультфильмы, Размер: 1.36 ГБ, Здоровье: 100%

Гость

0
23|6

384
17

29 фев 2016, 20:23

Гость Перейти к последнему сообщению

В этой теме нет новых непрочитанных сообщений. Скачать торрент Белка и Стрелка: Лунные приключения (2013) BDRip 1080p | Лицензия

в форуме Отечественные мультфильмы (HD Video), Размер: 3.88 ГБ, Здоровье: 100%

Anonymous

0
6|0

278
2

29 мар 2014, 08:49

Anonymous Перейти к последнему сообщению

В этой теме нет новых непрочитанных сообщений. Скачать торрент Проверен Кавказская пленница, или Новые приключения Шурика (Леонид Гайдай) [1967, СССР, комедия, приключения, семейный, BDRip 1080p]

в форуме Наше кино (HD Video), Размер: 7.95 ГБ, Здоровье: 100%

Гость

0
113|39

227
4

12 апр 2015, 10:59

Гость Перейти к последнему сообщению

В этой теме нет новых непрочитанных сообщений. Скачать торрент Проверен Тарзан в 3Д / Tarzan 3D (Райнхард Клоосс / Reinhard Klooss) [2013, Мультфильм, Семейный, Приключения, BDrip, 1080p] OverUnder / Вертикальная стереопара

в форуме 3D Мультфильмы, Размер: 11.28 ГБ, Здоровье: 100%

Anonymous

0
2|0

103
1

07 сен 2016, 17:44

Anonymous Перейти к последнему сообщению

В этой теме нет новых непрочитанных сообщений. Скачать торрент Проверен Эпик в 3Д / Epic 3D (Крис Уэдж / Chris Wedge) [2013, Мультфильм, Фэнтези, Приключения, Семейный, BDrip, 1080p] OverUnder / Вертикальная стереопара

в форуме 3D Мультфильмы, Размер: 9.6 ГБ, Здоровье: 0%

Anonymous

0
0|0

68
0

07 сен 2016, 17:38

Anonymous Перейти к последнему сообщению



Сейчас этот форум просматривают: нет зарегистрированных пользователей и гости: 0


Вы не можете начинать темы
Вы не можете отвечать на сообщения
Вы не можете редактировать свои сообщения
Вы не можете удалять свои сообщения
Вы не можете добавлять вложения

Перейти:  
Ресурс не предоставляет электронные версии произведений, а занимается лишь коллекционированием и каталогизацией ссылок, присылаемых и публикуемых на форуме нашими читателями. Если вы являетесь правообладателем какого-либо представленного материала и не желаете чтобы ссылка на него находилась в нашем каталоге, свяжитесь с нами и мы незамедлительно удалим её. Файлы для обмена на трекере предоставлены пользователями сайта, и администрация не несёт ответственности за их содержание. Просьба не заливать файлы, защищенные авторскими правами, а также файлы нелегального содержания!
cron