На всех торрентах на трекере установлена скидка на скачивание в размере 100 процентов(а).
 Возможность скачивания торрента НЕ зависит от ограничений при низком ратио, низком аплоаде, требуемом ратио или требуемом аплоаде.


Начать новую тему Ответить на тему
Статистика раздачи
Размер: 1.22 ГБ | Добавлен: 25 дек 2014, 00:34 | Скачали: 3
Сидеров: 43  [0 байт/сек]    Личеров: 0  [0 байт/сек]
Пред. тема | След. тема 

Автор
Сообщение

СообщениеДобавлено: 25 дек 2014, 00:34 

Ответить с цитатой 

Русское название: Снеговик и Снежный пёс
Оригинальное название: The Snowman and the Snowdog
Год выпуска: 2012
Жанр: Рисованная анимация
Страна: Великобритания

Описание:
Мультфильм "Снеговик и Снежный пёс" создан в стилистике и является продолжением классического мультика "Снеговик", созданного в 1982 году по одноименной книге Раймонда Бриггса. Новый фильм, как и его знаменитый предшественник, был нарисован от руки без применения компьютерной графики и рассказывает еще одну волшебную рождественскую историю с участием старых и новых героев.

Режиссер: Хилари Одус

Премьера (мир) 24 декабря 2012



За Рип - Большое Спасибо JustOff

Продолжительность: 00:23:44
Перевод: Без слов / Немой

Видеокодек: MPEG-4 AVC/H.264
Битрейт видео: ~6848 kb/s
Размер кадра: 1280x720
Качество видео: HDTVRip
Аудиокодек: AC3 6 ch
Битрейт аудио: 384 kb/s
Общее
Уникальный идентификатор : 186047112445945921463989103892533282115 (0x8BF75ED89B1790F5A1215E8A34E30543)
Полное имя : E:\NNM-CLUB\The.Snowman.And.The.SnowDog.2012.720p.HDTVRip.mkv
Формат : Matroska
Версия формата : Version 2
Размер файла : 1,22 Гбайт
Продолжительность : 23 м.
Общий поток : 7378 Кбит/сек
Дата кодирования : UTC 2012-12-25 12:03:11
Программа кодирования : mkvmerge v5.6.0 ('Kenya Kane') built on May 27 2012 16:44:04
Библиотека кодирования : libebml v1.2.3 + libmatroska v1.3.0

Видео
Идентификатор : 1
Формат : AVC
Формат/Информация : Advanced Video Codec
Профиль формата :
Параметр CABAC формата : Да
Параметр ReFrames формата : 5 кадров
Идентификатор кодека : V_MPEG4/ISO/AVC
Продолжительность : 23 м.
Битрейт : 6848 Кбит/сек
Ширина : 1280 пикселей
Высота : 720 пикселей
Соотношение сторон : 16:9
Режим частоты кадров : Постоянный
Частота кадров : 25,000 кадров/сек
Цветовое пространство : YUV
Субдискретизация насыщенности : 4:2:0
Битовая глубина : 8 бит
Тип развёртки : Прогрессивная
Бит/(Пиксели*Кадры) : 0.297
Размер потока : 1,14 Гбайт (93%)
Библиотека кодирования : x264 core 129 r2230 1cffe9f
Настройки программы : cabac=1 / ref=5 / deblock=1:0:0 / analyse=0x3:0x113 / me=umh / subme=8 / psy=1 / psy_rd=1.00:0.00 / mixed_ref=1 / me_range=16 / chroma_me=1 / trellis=1 / 8x8dct=1 / cqm=0 / deadzone=21,11 / fast_pskip=1 / chroma_qp_offset=-2 / threads=12 / lookahead_threads=2 / sliced_threads=0 / nr=0 / decimate=1 / interlaced=0 / bluray_compat=0 / constrained_intra=0 / bframes=3 / b_pyramid=2 / b_adapt=2 / b_bias=0 / direct=2 / weightb=1 / open_gop=0 / weightp=2 / keyint=250 / keyint_min=25 / scenecut=40 / intra_refresh=0 / rc_lookahead=50 / rc=crf / mbtree=1 / crf=18.0 / qcomp=0.60 / qpmin=0 / qpmax=69 / qpstep=4 / ip_ratio=1.40 / aq=1:1.00
Язык : English
Default : Да
Forced : Нет

Аудио
Идентификатор : 2
Формат : AC-3
Формат/Информация : Audio Coding 3
Расширение режима : CM (complete main)
Параметр Endianness формата : Big
Идентификатор кодека : A_AC3
Продолжительность : 23 м.
Вид битрейта : Постоянный
Битрейт : 384 Кбит/сек
Каналы : 6 каналов
Расположение каналов : Front: L C R, Side: L R, LFE
Частота : 48,0 КГц
Битовая глубина : 16 бит
Метод сжатия : С потерями
Размер потока : 65,2 Мбайт (5%)
Язык : English
Default : Да
Forced : Нет
Скриншоты:

загрузка...
Правила, инструкции, FAQ!!!
Торрент  Добавлен [25 дек 2014, 00:34] Скачать торрент Магнет ссылка
Скачать торрент
[ Размер 12.99 КБ / Просмотров 13 ]

Статус
Проверен 
 
Размер  1.22 ГБ
Приватный: Нет (DHT включён)
.torrent скачан  3
Как залить торрент? | Как скачать Torrent? | Ошибка в торренте? Качайте магнет  


     Отправить личное сообщение
   
Страница 1 из 1
Показать сообщения за:  Поле сортировки  
Начать новую тему Ответить на тему

   Похожие торренты   Автор   Ответы   Просмотры   Последнее сообщение 
В этой теме нет новых непрочитанных сообщений. Скачать торрент Снеговик и Снегопёс / The snowman & the snowdog game (2013) Android

в форуме Android игры, Размер: 442.87 МБ, Здоровье: 0%

Anonymous

0
0|0

48
0

04 янв 2014, 16:56

Anonymous Перейти к последнему сообщению

В этой теме нет новых непрочитанных сообщений. Скачать торрент Снеговик / The Snowman (1982) BDRip 720p

в форуме Зарубежные мультфильмы (HD Video), Размер: 2.22 ГБ, Здоровье: 16%

Anonymous

0
1|6

101
0

26 дек 2013, 23:09

Anonymous Перейти к последнему сообщению

В этой теме нет новых непрочитанных сообщений. Скачать торрент Проверен Снеговик / The Snowman (Томас Альфредсон / Tomas Alfredson) [2017, Великобритания, США, Швеция, ужасы, триллер, драма, BDRip-AVC] Dub + Original + Sub (rus, eng)

в форуме Фильмы 2016-2017, Размер: 2.15 ГБ, Здоровье: ???%

Anonymous

0
0|1

10
1

04 фев 2018, 15:08

Anonymous Перейти к последнему сообщению

В этой теме нет новых непрочитанных сообщений. Скачать торрент Проверен Снеговик / The Snowman (Томас Альфредсон / Tomas Alfredson) [2017, Великобритания, США, Швеция, ужасы, триллер, драма, криминал, детектив, WEB-DLRip-AVC] Dub + Sub Rus

в форуме Фильмы 2016-2017, Размер: 1.46 ГБ, Здоровье: 100%

Anonymous

0
68|22

7
0

04 фев 2018, 15:03

Anonymous Перейти к последнему сообщению

В этой теме нет новых непрочитанных сообщений. Скачать торрент Проверен Снеговик / The Snowman (Томас Альфредсон / Tomas Alfredson) [2017, Великобритания, США, Швеция, ужасы, триллер, драма, криминал, детектив, BDRip] Dub (iTunes)

в форуме Фильмы 2016-2017, Размер: 1.46 ГБ, Здоровье: 0%

Anonymous

0
0|0

0
0

03 фев 2018, 20:52

Anonymous Перейти к последнему сообщению



Сейчас этот форум просматривают: нет зарегистрированных пользователей и гости: 0


Вы не можете начинать темы
Вы не можете отвечать на сообщения
Вы не можете редактировать свои сообщения
Вы не можете удалять свои сообщения
Вы не можете добавлять вложения

Перейти:  
Ресурс не предоставляет электронные версии произведений, а занимается лишь коллекционированием и каталогизацией ссылок, присылаемых и публикуемых на форуме нашими читателями. Если вы являетесь правообладателем какого-либо представленного материала и не желаете чтобы ссылка на него находилась в нашем каталоге, свяжитесь с нами и мы незамедлительно удалим её. Файлы для обмена на трекере предоставлены пользователями сайта, и администрация не несёт ответственности за их содержание. Просьба не заливать файлы, защищенные авторскими правами, а также файлы нелегального содержания!
cron