На всех торрентах на трекере установлена скидка на скачивание в размере 100 процентов(а).
 Возможность скачивания торрента НЕ зависит от ограничений при низком ратио, низком аплоаде, требуемом ратио или требуемом аплоаде.


Начать новую тему Ответить на тему
Статистика раздачи
Размер: 4.39 ГБ | Добавлен: 03 июл 2018, 22:26 | Скачали: 1
Сидеров: 22  [0 байт/сек]    Личеров: 7  [0 байт/сек]
Пред. тема | След. тема 

Автор
Сообщение

СообщениеДобавлено: 03 июл 2018, 22:26 

Ответить с цитатой 

Sly & The Family Stone / Live At The Fillmore East October 4th & 5th, 1968
Формат записи/Источник записи: [TR24][OF]
Наличие водяных знаков: Нет
Год издания/переиздания диска: 2015
Жанр: Rock, Funk, Soul
Издатель (лейбл): Epic, Legacy
Продолжительность: 2:49:35
Наличие сканов в содержимом раздачи: Файл PDF
Источник (релизер): 7digital
Контейнер: FLAC (*.flac)
Тип рипа: tracks
Разрядность: 24/96
Формат: PCM
Количество каналов: 2.0
Disc: 1 - October 4th, 1968 (1st Night) The Early Show
01. Are You Ready (4:57)
02. Color Me True (4:54)
03. Won't Be Long (6:55)
04. We Love All (Freedom) (8:24)
05. Medley: Turn Me Loose/I Can't Turn You Loose (5:14)
06. Chicken (9:22)
07. Love City (8:52)
Disc: 2 - October 4th, 1968 (1st Night) The Late Show
01. M'Lady (5:12)
02. Don't Burn Baby (4:39)
03. Color Me True (6:04)
04. Won't Be Long (6:40)
05. St. James Infirmary (7:40) (See Note 1)
06. Medley: Turn Me Loose/I Can't Turn You Loose (5:46)
07. Are You Ready (5:45)
08. Dance To The Music (5:11)
09. Music Lover (8:07)
10. Medley: Life/Music Lover (9:11)
Disc: 3 - October 5th, 1968 (2nd Night) The Early Show
01. Life (3:05)
02. Color Me True (6:03)
03. Won't Be Long (7:15)
04. Are You Ready (6:20)
05. Dance To The Music (5:24)
06. Music Lover (6:18)
07. M'Lady (5:43)
Disc: 4 - October 5th, 1968 (2nd Night) The Late Show
01. M'Lady (5:22)
02. Life (3:03)
03. Are You Ready (7:59)
04. Won't Be Long (7:52)
05. Color Me True (6:25)
06. Dance To The Music (5:30)
07. Music Lover (5:51)
08. Love City (5:33)
09. Medley: Turn Me Loose/I Can't Turn You Loose (5:25)
10. The Riffs (1:48)
Код:
foobar2000 1.1.10 / Dynamic Range Meter 1.1.1
log date: 2018-07-03 20:47:02
--------------------------------------------------------------------------------
Analyzed: Sly & The Family Stone / Live at the Fillmore East October 4th & 5th 1968
--------------------------------------------------------------------------------
DR         Peak         RMS     Duration Track
--------------------------------------------------------------------------------
DR9       -0.18 dB   -11.57 dB      4:57 ?-Are You Ready (Live - Show 1)
DR8       -0.77 dB   -12.58 dB      4:55 ?-Color Me True (Live - Show 1)
DR9       -0.13 dB   -11.96 dB      6:55 ?-Won't Be Long (Live - Show 1)
DR9       -0.44 dB   -14.46 dB      8:25 ?-We Love All (Freedom) (Live - Show 1)
DR10      -0.02 dB   -13.11 dB      5:14 ?-Medley  Turn Me Loose - I Can't Turn You Loose (Live - Show 1)
DR11      -0.18 dB   -15.63 dB      9:23 ?-Chicken (Live - Show 1)
DR7       -2.46 dB   -12.47 dB      8:52 ?-Love City (Live - Show 1)
DR10       0.00 dB   -13.24 dB      5:12 ?-M' Lady (Live - Show 2)
DR11       0.00 dB   -13.80 dB      4:39 ?-Don't Burn Baby (Live - Show 2)
DR10      -0.51 dB   -14.36 dB      6:03 ?-Color Me True (Live - Show 2)
DR10      -0.54 dB   -13.37 dB      6:41 ?-Won't Be Long (Live - Show 2)
DR12       0.00 dB   -17.59 dB      7:40 ?-St. James Infirmary (Live - Show 2)
DR11       0.00 dB   -13.96 dB      5:47 ?-Medley  Turn Me Loose - I Can't Turn You Loose (Live - Show 2)
DR11      -0.01 dB   -14.16 dB      5:46 ?-Are You Ready (Live - Show 2)
DR11       0.00 dB   -13.86 dB      5:11 ?-Dance to the Music (Live - Show 2)
DR11       0.00 dB   -13.84 dB      8:08 ?-Music Lover (Live - Show 2)
DR12      -0.03 dB   -14.78 dB      9:12 ?-Medley  Life - Music Lover (Live - Show 2)
DR9       -0.18 dB   -12.03 dB      3:05 ?-Life (Live - Show 3)
DR10      -0.08 dB   -14.47 dB      6:03 ?-Color Me True (Live - Show 3)
DR10      -0.01 dB   -13.39 dB      7:15 ?-Won't Be Long (Live - Show 3)
DR10      -0.21 dB   -13.04 dB      6:20 ?-Are You Ready (Live - Show 3)
DR11      -0.13 dB   -13.50 dB      5:24 ?-Dance to the Music (Live - Show 3)
DR11      -0.02 dB   -13.74 dB      6:19 ?-Music Lover (Live - Show 3)
DR11       0.00 dB   -13.99 dB      5:43 ?-M' Lady (Live - Show 3)
DR10      -0.81 dB   -14.10 dB      5:23 ?-M' Lady (Live - Show 4)
DR9       -0.40 dB   -12.26 dB      3:03 ?-Life (Live - Show 4)
DR10      -0.22 dB   -13.16 dB      7:59 ?-Are You Ready (Live - Show 4)
DR10      -0.49 dB   -13.77 dB      7:53 ?-Won't Be Long (Live - Show 4)
DR10      -0.18 dB   -14.50 dB      6:26 ?-Color Me True (Live - Show 4)
DR11      -0.52 dB   -14.04 dB      5:31 ?-Dance to the Music (Live - Show 4)
DR11       0.00 dB   -13.21 dB      5:51 ?-Music Lover (Live - Show 4)
DR11       0.00 dB   -12.92 dB      5:34 ?-Love City (Live - Show 4)
DR10       0.00 dB   -12.55 dB      5:26 ?-Medley  Turn Me Loose - I Can't Turn You Loose (Live - Show 4)
DR11       0.00 dB   -14.08 dB      1:49 ?-Riffs (Live - Show 4)
--------------------------------------------------------------------------------
Number of tracks:  34
Official DR value: DR10
Samplerate:        96000 Hz
Channels:          2
Bits per sample:   24
Bitrate:           3009 kbps
Codec:             FLAC
================================================================================
Bass, Vocals – Larry Graham
Electric Piano, Vocals – Sister Rosie Stone
Guitar, Vocals – Brother Freddie Stone
Organ, Vocals – Sly Stone
Percussion – Greg Errico
Saxophone – Jerry Martini
Trumpet – Cynthia Robinson
A four-disc set of previously unreleased live performances, featuring four energetic shows from the legendary New York venue.
“We were at the top of our game then,” Greg Errico, drummer of Sly & The Family Stone says of the group’s 1968 stand at New York’s infamous Fillmore East. “The band was just killing it. There were moments that made my hair stand up, where that stage lifted off like a 747 and flew.” The performance showcases a band both fully formed and on the cusp of greatness.
Sly & The Family Stone-Live At The Fillmore East October 4th & 5th, 1968 is a never before released live album set by Sly & The Family Stone which was recorded in 1968 at Bill Graham's legendary New York City venue The Fillmore East where the band performed for 2 nights. It will at long last be released for the first time ever on a 4-CD set comprised of these concerts (two shows per night), each disc featuring one of the shows.
On October 4th and 5th, 1968, shortly after the release of the band's third album Life, Sly & The Family Stone took the stage at Bill Graham's legendary Fillmore East in New York City. Along with the success of Dance To The Music, which was released earlier that year and spun off the Top 10 hit of the same name, Sly & The Family Stone were making a name for themselves on the concert circuit, with their dynamic, high energy live performances.
Epic Records recorded all four of these concerts (two shows per night) with plans to release a live album that would consist of selections from these performances but the release was shelved until now.
https://en.wikipedia.org/wiki/Sly_and_the_Family_Stone

Раздаю до первых 5-ти скачавших, на раздачи не возвращаюсь...

Правила, инструкции, FAQ!!!
Торрент  Добавлен [03 июл 2018, 22:26] Скачать торрент Магнет ссылка
Скачать торрент
[ Размер 24.48 КБ / Просмотров 8 ]

Статус
Проверен 
 
Размер  4.39 ГБ
Приватный: Нет (DHT включён)
.torrent скачан  1
Как залить торрент? | Как скачать Torrent? | Ошибка в торренте? Качайте магнет  
загрузка...


     Отправить личное сообщение
   
Страница 1 из 1
Показать сообщения за:  Поле сортировки  
Начать новую тему Ответить на тему

   Похожие торренты   Автор   Ответы   Просмотры   Последнее сообщение 
В этой теме нет новых непрочитанных сообщений. Скачать торрент Проверен [TR24][OF] Sly & The Family Stone - There's a Riot Goin' On - 1971/2013 (Funk, Soul, Psychedelic)

в форуме Hi-Res stereo (рок), Размер: 2.09 ГБ, Здоровье: 100%

Гость

0
9|3

51
1

21 фев 2016, 09:58

Гость Перейти к последнему сообщению

В этой теме нет новых непрочитанных сообщений. Скачать торрент Проверен (Rock) [CD] The Who - Live At The Fillmore East 1968 (Deluxe Edition) - 2018, FLAC (tracks+.cue), lossless

в форуме Classic Rock & Hard Rock, Размер: 560.58 МБ, Здоровье: 100%

Anonymous

0
32|11

15
0

16 июн 2018, 11:43

Anonymous Перейти к последнему сообщению

В этой теме нет новых непрочитанных сообщений. Скачать торрент Проверен [SACD-R][OF] Sly & The Family Stone - Greatest Hits (Limited Edition, Numbered, Remastered) - 1970/2015 (Psychedelic Rock, Soul, Funk)

в форуме DTS CD / SACD-R, Размер: 2.97 ГБ, Здоровье: 100%

Anonymous

0
60|27

138
12

28 окт 2016, 22:32

Anonymous Перейти к последнему сообщению

В этой теме нет новых непрочитанных сообщений. Скачать торрент Проверен (Psychedelic Funk / Soul) [LP][16/44] Sly & The Family Stone - Stand! - 1969 (Original US pressing), FLAC (tracks)

в форуме Зарубежный рок (оцифровки), Размер: 247.41 МБ, Здоровье: 100%

Anonymous

0
1|0

44
0

26 авг 2016, 08:49

Anonymous Перейти к последнему сообщению

В этой теме нет новых непрочитанных сообщений. Скачать торрент Проверен (Psychedelic Funk / Soul) [LP][16/44] Sly & The Family Stone - A Whole New Thing - 1967 (Original US pressing), FLAC (tracks)

в форуме Зарубежный рок (оцифровки), Размер: 229.02 МБ, Здоровье: 100%

Anonymous

0
1|0

34
0

25 авг 2016, 18:32

Anonymous Перейти к последнему сообщению



Сейчас этот форум просматривают: нет зарегистрированных пользователей и гости: 1


Вы не можете начинать темы
Вы не можете отвечать на сообщения
Вы не можете редактировать свои сообщения
Вы не можете удалять свои сообщения
Вы не можете добавлять вложения

Перейти:  
Ресурс не предоставляет электронные версии произведений, а занимается лишь коллекционированием и каталогизацией ссылок, присылаемых и публикуемых на форуме нашими читателями. Если вы являетесь правообладателем какого-либо представленного материала и не желаете чтобы ссылка на него находилась в нашем каталоге, свяжитесь с нами и мы незамедлительно удалим её. Файлы для обмена на трекере предоставлены пользователями сайта, и администрация не несёт ответственности за их содержание. Просьба не заливать файлы, защищенные авторскими правами, а также файлы нелегального содержания!
cron