На всех торрентах на трекере установлена скидка на скачивание в размере 100 процентов(а).
 Возможность скачивания торрента НЕ зависит от ограничений при низком ратио, низком аплоаде, требуемом ратио или требуемом аплоаде.


Начать новую тему Ответить на тему
Статистика раздачи
Размер: 3.79 ГБ | Добавлен: 08 мар 2018, 09:28 | Скачали: 0
Сидеров: 4  [0 байт/сек]    Личеров: 1  [0 байт/сек]
Пред. тема | След. тема 

Автор
Сообщение

СообщениеДобавлено: 08 мар 2018, 09:28 

Ответить с цитатой 

Синий Экзорцист / Ao no Exorcist
Год выпуска: 2011
Страна: Япония
Жанр: приключения, мистика
Продолжительность: >24 эп. по 25 мин.
Перевод: Любительcкий (одноголосый)
Русские субтитры: нет
Режиссер: Окамура Тэнсай
Перевод: Dreamers Team
Озвучивание: Milirina
Работа со звуком: Arazu
Описание
15-летний Рин Окумура с раннего детства был хулиганом – буйным, вспыльчивым, готовым на все, чтобы отстоять свои «понятия». Парня сдерживало лишь влияние приемного отца-священника, да еще общение с братом-близнецом Юкио. Тем не менее, за стенами монастыря, где жили братья, старшего звали не иначе как «отродьем демона». Увы, звали пророчески – Рин оказался сыном Сатаны, правителя Геенны, который создал сосуд для своего явления в Ассию – материальный мир. Иерархи Церкви хотели уничтожить близнецов Окумура после рождения, но влиятельный отец Фудзимото поклялся воспитать их как людей и не отдавать адским силам. Вот только против Князя Тьмы любая вера бессильна – Сатана, явившийся за сыном, убил его опекуна и удалился, заявив, что никуда парень теперь не денется.
И что теперь? Приемного отца нет, дом в руинах, а за Рином, показавшим свою демоническую природу, явились чистильщики из ордена экзорцистов. Но вместо смертельной битвы сын Сатаны пожелал стать… одним из них! Перед такой шуткой судьбы не смогли устоять даже суровые бойцы с демонами, в итоге Рин отправился в магическую академию Истинного Креста, чтобы поднабраться сил и знаний для серьезного объяснения с «папашей». Путь молодому экзорцисту предстоит долгий, но ведь сказано: «Противитеся же диаволу, и бежит от вас!»© Hollow
01. Demons Live in the Human Heart
02. Gehenna Gate
03. Brothers
04. Garden of Amahara
05. Child of the Cursed Temple
06. The Phantom Cook
07. Flock of Plovers
08. Now a Certain Man was Sick
09. Memories
10. Cat Sith
11. Deep-Sea Demon
12. Tag
13. Proof
14. Fun Camp
15. Act of Kindness
16. The Wager
17. Temptation
18. Gale
19. An Ordinary Day
20. Mask
21. The Secret Garden
22. Demon Hunting
23. Truth
24. Satan`s Spawn
25. Time, Stop
Качество: HDTVRip
Формат: MP4
Видео кодек: XviD
Аудио кодек: AAC
Видео: XviD, 640x360px, 16:9, ~768kbps, ~23.9fps
Аудио: AAC, ~128kbps, 48kHz, 2ch (RUS)
Код:
Общее
Формат                           : MPEG-4
Профиль формата                  : Base Media / Version 2
Идентификатор кодека             : mp42
Размер файла                     : 155 Мбайт
Продолжительность                : 24 м.
Общий поток                      : 895 Кбит/сек
Видео
Идентификатор                    : 201
Формат                           : MPEG-4 Visual
Профиль формата                  : Advanced Simple@L5
Параметр BVOP формата            : Нет
Параметр QPel формата            : Нет
Параметр GMC формата             : Без точки перехода
Параметр матрицы формата         : Default (H.263)
Идентификатор кодека             : 20
Продолжительность                : 24 м.
Вид битрейта                     : Переменный
Битрейт                          : 768 Кбит/сек
Максимальный битрейт             : 7577 Кбит/сек
Ширина                           : 640 пикс.
Высота                           : 360 пикс.
Соотношение сторон               : 16:9
Режим частоты кадров             : Переменный
Частота кадров                   : 23,744 кадр/сек
Частота кадров в оригинале       : 23,976 кадр/сек
Минимальная частота кадров       : 3,425 кадр/сек
Максимальная частота кадров      : 23,976 кадр/сек
Цветовое пространство            : YUV
Подвыборка цветности             : 4:2:0
Битовая глубина                  : 8 бит
Тип развёртки                    : Прогрессивная
Метод сжатия                     : С потерями
Бит/(Пиксели*Кадры)              : 0.140
Размер потока                    : 133 Мбайт (86%)
Библиотека кодирования           : XviD 1.2.1 (UTC 2008-12-04)
Аудио
Идентификатор                    : 101
Формат                           : AAC
Формат/Информация                : Advanced Audio Codec
Профиль формата                  : LC
Идентификатор кодека             : 40
Продолжительность                : 24 м.
Вид битрейта                     : Переменный
Битрейт                          : 124 Кбит/сек
Максимальный битрейт             : 132 Кбит/сек
Каналы                           : 2 канала
Расположение каналов             : Front: L R
Частота                          : 48,0 КГц
Метод сжатия                     : С потерями
Размер потока                    : 21,6 Мбайт (14%)
загрузка...
Правила, инструкции, FAQ!!!
Торрент  Добавлен [08 мар 2018, 09:28] Скачать торрент Магнет ссылка
Скачать торрент
[ Размер 6.94 КБ / Просмотров 103 ]

Статус
Проверен 
 
Размер  3.79 ГБ
Приватный: Нет (DHT включён)
.torrent скачан  0
Как залить торрент? | Как скачать Torrent? | Ошибка в торренте? Качайте магнет  


     Отправить личное сообщение
   
Страница 1 из 1
Показать сообщения за:  Поле сортировки  
Начать новую тему Ответить на тему

   Похожие торренты   Автор   Ответы   Просмотры   Последнее сообщение 
В этой теме нет новых непрочитанных сообщений. Скачать торрент Проверен [ANIME] Блич / Bleach (Абэ Нориюки) [TV + OVA 1,2] [1-366] [2004-2011 г., приключения, комедия, фэнтези, сёнэн, TVRip / HDTVRip][MP4, 640x] [Субтитры]

в форуме Видео для смартфонов и КПК, Размер: 56.31 ГБ, Здоровье: 100%

Anonymous

0
53|17

110
0

02 авг 2014, 17:05

Anonymous Перейти к последнему сообщению

В этой теме нет новых непрочитанных сообщений. Скачать торрент Изгоняющий дьявола: Начало / Exorcist: The Beginning (Ренни Харлин / Renny Harlin) [2004 г., ужасы, триллер, HDTVRip]

в форуме Ужасы, Размер: 1.45 ГБ, Здоровье: 100%

Anonymous

0
15|4

150
1

22 апр 2014, 11:41

Anonymous Перейти к последнему сообщению

В этой теме нет новых непрочитанных сообщений. Скачать торрент Проверен [ANIME] Штурмовые ведьмы / Strike Witches (Такамура Кадзухиро) [TV] [12 из 12] [JAP+SUB] [2008 г., приключения, фантастика, этти, BDRip] [MP4, 800x]

в форуме Видео для смартфонов и КПК, Размер: 2.19 ГБ, Здоровье: 100%

Anonymous

0
2|0

84
0

02 авг 2014, 17:02

Anonymous Перейти к последнему сообщению

В этой теме нет новых непрочитанных сообщений. Скачать торрент Проверен Anime, manga, draw - Japanese Comickers. Draw Anime and Manga Like Japan's Hottest Artists [2003, PDF]

в форуме Рисунок, графический дизайн, Размер: 147.44 МБ, Здоровье: 100%

Anonymous

0
237|10

117
11

27 янв 2016, 22:02

Anonymous Перейти к последнему сообщению

В этой теме нет новых непрочитанных сообщений. Скачать торрент Проверен [ANIME] Патэма наоборот / Sakasama no Patema / Patema Inverted [Movie] (Ёсиура Ясухиро) [2013, приключения, фантастика, BDRip] [MP4, 960x] MVO Anistar, Original Jap, Sub rus

в форуме Видео для смартфонов и КПК, Размер: 886.58 МБ, Здоровье: 100%

Anonymous

0
7|1

68
0

02 авг 2014, 16:51

Anonymous Перейти к последнему сообщению



Сейчас этот форум просматривают: нет зарегистрированных пользователей и гости: 0


Вы не можете начинать темы
Вы не можете отвечать на сообщения
Вы не можете редактировать свои сообщения
Вы не можете удалять свои сообщения
Вы не можете добавлять вложения

Перейти:  
Ресурс не предоставляет электронные версии произведений, а занимается лишь коллекционированием и каталогизацией ссылок, присылаемых и публикуемых на форуме нашими читателями. Если вы являетесь правообладателем какого-либо представленного материала и не желаете чтобы ссылка на него находилась в нашем каталоге, свяжитесь с нами и мы незамедлительно удалим её. Файлы для обмена на трекере предоставлены пользователями сайта, и администрация не несёт ответственности за их содержание. Просьба не заливать файлы, защищенные авторскими правами, а также файлы нелегального содержания!
cron