На всех торрентах на трекере установлена скидка на скачивание в размере 100 процентов(а).
 Возможность скачивания торрента НЕ зависит от ограничений при низком ратио, низком аплоаде, требуемом ратио или требуемом аплоаде.


Начать новую тему Ответить на тему
Статистика раздачи
Размер: 5.77 ГБ | Добавлен: 07 сен 2016, 17:54 | Скачали: 0
Сидеров: 0  [0 байт/сек]    Личеров: 0  [0 байт/сек]
Пред. тема | След. тема 

Автор
Сообщение

СообщениеДобавлено: 07 сен 2016, 17:54 

Ответить с цитатой 

Шевели ластами! / Sammy's avonturen: De geheime doorgang
[Расширенная версия / Extended Cut]

Год выпуска: 2010
Страна: Бельгия
Жанр: мультфильм, приключения
Продолжительность: 01:25:35
Перевод: Профессиональный (дублированный) + многоголосый закадровый (3D-RuGroup) в добавленых сценах
Русские субтитры: нет

Режиссер: Бен Стассен / Ben Stassen

Сценарий: Домоник Парис
Продюсер: Кэролайн Ван Айсегем, Джина Галло, Мими Мэйнард
Композитор: Рамин Джавади
Художник: Джереми Дегрусон

Роли озвучивали:
Мелани Гриффит, Изабелль Фюрман, Юрий Ловенталь, Энтони Андерсон, Сидни Хоуп Баннер, Эд Бегли мл., Даррен Капоцци, Пэт Кэрролл, Крис Эндрю Кулла, Тим Карри и др.

Роли дублировали:
Максим Аверин, Тимур Родригез и др.

Описание:
Для маленькой черепашки подводный мир — самое безопасное место. Здесь акулы, пираньи, змеи, а на берегу поджидают люди. И наш маленький Сэмми хочет узнать весь мир, от полярных льдов до субтропиков. Путешествие продлится ровно полвека, начиная с 1959 года, за это время даже климат успеет измениться.
Формат изображения: 2.35 : 1
Формат копии: D-Cinema
[*]Изображение: цветное
Релиз группы:

Премьера: 4 августа 2010 (19 августа 2010)


Проверено на встроенном плейере ТВ LG 42LW4500



Качество: BDrip by StarStranger
Контейнер: MKV
Формат 3D: Anamorph OverUnder / Вертикальная анаморфная стереопара
Порядок ракурсов: левый ракурс первый
Видео кодек: x264
Аудио кодек: AC3

Видео: AVC / 23,976 fps / 1920х1080p / 8175 Kbps
Аудио:
Русский / AC3 / 48 KHz / 5.1 ch / 640 Kbps
Французский / AC3 / 48 KHz / 5.1 ch / 640 Kbps
Субтитры: отсутствуют

Код:
Код:
Общее
Уникальный идентификатор                 : 172002254210743141855773048767535065134 (0x81666DDF4ED01884A2E4EEA5E317282E)
Полное имя                               : D:\3D-RuGroup\Мультфильмы\Sammy'sAvonturen.DeGeheimeDoorgang.3D.2010.BD3DRip.Half.OU.x264.AC3.Rus.Fra.3D-RuGroup.mkv
Формат                                   : Matroska
Версия формата                           : Version 2
Размер файла                             : 5,77 Гбайт
Продолжительность                        : 1 ч. 25 м.
Общий поток                              : 9647 Кбит/сек
Название фильма                          : Sammy's avonturen: De geheime doorgang rip by StarStranger release 3D-RuGroup
Дата кодирования                         : UTC 2012-11-02 18:41:50
Программа кодирования                    : mkvmerge v3.4.0 ('Rapunzel') сборка от May 15 2010 09:38:20
Библиотека кодирования                   : libebml v0.8.0 + libmatroska v0.9.0

Видео
Идентификатор                            : 1
Формат                                   : AVC
Формат/Информация                        : Advanced Video Codec
Профиль формата                          : High@L4.1
Параметр CABAC формата                   : Да
Параметр ReFrames формата                : 4 кадра
Идентификатор кодека                     : V_MPEG4/ISO/AVC
Продолжительность                        : 1 ч. 25 м.
Битрейт                                  : 8175 Кбит/сек
Ширина                                   : 1920 пикселей
Высота                                   : 1080 пикселей
Соотношение сторон                       : 16:9
Частота кадров                           : 23,976 кадра/сек
Цветовое пространство                    : YUV
Субдискретизация насыщенности            : 4:2:0
Битовая глубина                          : 8 бит
Тип развёртки                            : Прогрессивная
Бит/(Пиксели*Кадры)                      : 0.164
Размер потока                            : 4,89 Гбайт (85%)
Заголовок                                : rip by StarStranger
Библиотека кодирования                   : x264 core 128 r2216 198a7ea
Настройки программы                      : cabac=1 / ref=4 / deblock=1:-3:-3 / analyse=0x3:0x133 / me=umh / subme=10 / psy=1 / psy_rd=1.00:0.15 / mixed_ref=1 / me_range=48 / chroma_me=1 / trellis=2 / 8x8dct=1 / cqm=0 / deadzone=21,11 / fast_pskip=0 / chroma_qp_offset=-3 / threads=3 / lookahead_threads=1 / sliced_threads=0 / nr=0 / decimate=1 / interlaced=0 / bluray_compat=0 / constrained_intra=0 / bframes=8 / b_pyramid=2 / b_adapt=2 / b_bias=0 / direct=3 / weightb=1 / open_gop=0 / weightp=2 / keyint=250 / keyint_min=23 / scenecut=40 / intra_refresh=0 / rc_lookahead=60 / rc=crf / mbtree=1 / crf=18.0 / qcomp=0.70 / qpmin=0 / qpmax=69 / qpstep=4 / vbv_maxrate=50000 / vbv_bufsize=50000 / crf_max=0.0 / nal_hrd=none / ip_ratio=1.40 / aq=1:0.70
Default                                  : Да
Forced                                   : Нет

Аудио #1
Идентификатор                            : 2
Формат                                   : AC-3
Формат/Информация                        : Audio Coding 3
Расширение режима                        : CM (complete main)
Идентификатор кодека                     : A_AC3
Продолжительность                        : 1 ч. 25 м.
Вид битрейта                             : Постоянный
Битрейт                                  : 640 Кбит/сек
Каналы                                   : 6 каналов
Расположение каналов                     : Front: L C R, Side: L R, LFE
Частота                                  : 48,0 КГц
Битовая глубина                          : 16 бит
Метод сжатия                             : С потерями
Размер потока                            : 392 Мбайт (7%)
Язык                                     : Russian
Default                                  : Да
Forced                                   : Нет

Аудио #2
Идентификатор                            : 3
Формат                                   : AC-3
Формат/Информация                        : Audio Coding 3
Расширение режима                        : CM (complete main)
Идентификатор кодека                     : A_AC3
Продолжительность                        : 1 ч. 25 м.
Вид битрейта                             : Постоянный
Битрейт                                  : 640 Кбит/сек
Каналы                                   : 6 каналов
Расположение каналов                     : Front: L C R, Side: L R, LFE
Частота                                  : 48,0 КГц
Битовая глубина                          : 16 бит
Метод сжатия                             : С потерями
Размер потока                            : 392 Мбайт (7%)
Язык                                     : French
Default                                  : Нет
Forced                                   : Нет

Меню
00:00:00.000                             : :01
00:07:11.598                             : :02
00:13:31.728                             : :03
00:19:45.309                             : :04
00:29:45.325                             : :05
00:36:54.337                             : :06
00:42:37.430                             : :07
00:49:37.975                             : :08
00:56:57.372                             : :09
01:04:37.457                             : :10
01:10:45.241                             : :11
01:18:32.708                             : :12

загрузка...
Правила, инструкции, FAQ!!!
Торрент  Добавлен [07 сен 2016, 17:54] Скачать торрент Магнет ссылка
Скачать торрент
[ Размер 15.04 КБ / Просмотров 6 ]

Статус
Проверен 
 
Размер  5.77 ГБ
Приватный: Нет (DHT включён)
.torrent скачан  0
Как залить торрент? | Как скачать Torrent? | Как смотреть и слушать онлайн?  


     Отправить личное сообщение
   
Страница 1 из 1
Показать сообщения за:  Поле сортировки  
Начать новую тему Ответить на тему

   Похожие торренты   Автор   Ответы   Просмотры   Последнее сообщение 
В этой теме нет новых непрочитанных сообщений. Скачать торрент Проверен Шевели ластами! в 3Д / Sammy's Adventures: The Secret Passage / Sammy's avonturen: De geheime doorgang 3D (Бен Стассен / Ben Stassen) [2010, мультфильм, приключения, BDRip-AVC] Half OverUnder / Вертикальная анаморфная стереопара

в форуме 3D Мультфильмы, Размер: 5.81 ГБ, Здоровье: 0%

Anonymous

0
0|0

28
0

07 сен 2016, 17:32

Anonymous Перейти к последнему сообщению

В этой теме нет новых непрочитанных сообщений. Скачать торрент Проверен Шевели ластами 2 в 3Д / Sammy's avonturen 2 3D (Бен Стассен / Ben Stassen) [2012, мультфильм, приключения, BDrip-avc] Half OverUnder / Вертикальная анаморфная стереопара

в форуме 3D Мультфильмы, Размер: 7.13 ГБ, Здоровье: 0%

Anonymous

0
0|0

41
0

07 сен 2016, 17:39

Anonymous Перейти к последнему сообщению

В этой теме нет новых непрочитанных сообщений. Скачать торрент Проверен Шевели ластами! в 3Д / Sammys avonturen: De geheime doorgang 3D (Бен Стассен / Ben Stassen) [2010 г., Приключения, мультфильм, BDrip, 1080p] OverUnder / Вертикальная стереопара

в форуме 3D Мультфильмы, Размер: 7.58 ГБ, Здоровье: 0%

Anonymous

0
0|0

33
0

07 сен 2016, 17:30

Anonymous Перейти к последнему сообщению

В этой теме нет новых непрочитанных сообщений. Скачать торрент Проверен Шевели ластами 2 в 3Д / Sammy's avonturen 2 3D (Бен Стассен / Ben Stassen) [2012, мультфильм, приключения, BDrip, 1080p] OverUnder / Вертикальная стереопара

в форуме 3D Мультфильмы, Размер: 11.17 ГБ, Здоровье: 0%

Anonymous

0
0|0

31
0

07 сен 2016, 17:47

Anonymous Перейти к последнему сообщению

В этой теме нет новых непрочитанных сообщений. Скачать торрент Проверен Шевели ластами! в 3Д / Sammy's Adventures: The Secret Passage / Sammy's avonturen: De geheime doorgang 3D (Бен Стассен / Ben Stassen) [2010, мультфильм, приключения, Blu-Ray Disc] BD3D

в форуме 3D Мультфильмы, Размер: 18.81 ГБ, Здоровье: 0%

Anonymous

0
0|0

30
0

07 сен 2016, 17:49

Anonymous Перейти к последнему сообщению



Сейчас этот форум просматривают: нет зарегистрированных пользователей и гости: 1


Вы не можете начинать темы
Вы не можете отвечать на сообщения
Вы не можете редактировать свои сообщения
Вы не можете удалять свои сообщения
Вы не можете добавлять вложения


!ВНИМАНИЕ!
 Ресурс не предоставляет электронные версии произведений, а занимается лишь коллекционированием и каталогизацией ссылок, присылаемых и публикуемых на форуме нашими читателями. Если вы являетесь правообладателем какого-либо представленного материала и не желаете чтобы ссылка на него находилась в нашем каталоге, свяжитесь с нами и мы незамедлительно удалим её. Файлы для обмена на трекере предоставлены пользователями сайта, и администрация не несёт ответственности за их содержание. Просьба не заливать файлы, защищенные авторскими правами, а также файлы нелегального содержания!