На всех торрентах на трекере установлена скидка на скачивание в размере 100 процентов(а).
 Возможность скачивания торрента НЕ зависит от ограничений при низком ратио, низком аплоаде, требуемом ратио или требуемом аплоаде.


Начать новую тему Ответить на тему
Статистика раздачи
Размер: 2.18 ГБ | Добавлен: 18 дек 2012, 06:45 | Скачали: 0
Сидеров: 0  [0 байт/сек]    Личеров: 0  [0 байт/сек]
Пред. тема | След. тема 

Автор
Сообщение

СообщениеДобавлено: 18 дек 2012, 06:46 

Ответить с цитатой 

Сюжет фильма: Продолжение сумасшедших приключений медведя-гризли Буга и его верного друга, оленя Элиота. На этот раз Буг пускается на поиски личного счастья и попадает… в бродячий цирк, где знакомится с очаровательной русской медведицей.

Название: Сезон охоты 3
Год выхода: 2011
Жанр: мультфильм
Режиссер: Коуди Камерон

В ролях: Кьяра Браво, Карли Скотт Коллинз, Шон Маллен, Мэттью Дж. Мунн, Стив Ширрипа, Дэна Снайдер, Мелисса Штурм, Мэттью В. Тейлор

Продолжительность: 01:14:35
Перевод: Профессиональный (полное дублирование) [Лицензия]
Выпущено: США


Формат: mkv
Качество: BDRip [720p]
Видео: 1280x720, 3559 Кбит/сек, 23,976 кадр/сек, AVC, x264,16:9, 0.161 Бит/[Пиксели*Кадры], 2pass
Аудио: AC-3, 640 Кбит/сек, 6 канала(ов), 48,0 КГц





Формат : Matroska
Версия формата : Version 2
Размер файла : 2,18 Гбайт
Продолжительность : 1 ч. 14 м.
Общий поток : 4189 Кбит/сек
Дата кодирования : UTC 2012-12-17 19:18:41
Программа кодирования : mkvmerge v3.2.0 ('Beginnings') built on Feb 12 2010 16:46:17
Библиотека кодирования : libebml v0.7.9 + libmatroska v0.8.1

Видео
Идентификатор : 1
Формат : AVC
Формат/Информация : Advanced Video Codec
Профиль формата : High@L3.1
Параметр CABAC формата : Да
Параметр ReFrames формата : 4 кадра
Идентификатор кодека : V_MPEG4/ISO/AVC
Продолжительность : 1 ч. 14 м.
Битрейт : 3559 Кбит/сек
Ширина : 1280 пикселей
Высота : 720 пикселей
Соотношение сторон : 16:9
Частота кадров : 23,976 кадра/сек
Цветовое пространство : YUV
Субдискретизация насыщенности : 4:2:0
Битовая глубина : 8 бит
Тип развёртки : Прогрессивная
Бит/(Пиксели*Кадры) : 0.161
Размер потока : 1,81 Гбайт (83%)
Заголовок : Open Season 3
Библиотека кодирования : x264 core 129 r2230 1cffe9f
Настройки программы : cabac=1 / ref=3 / deblock=1:0:0 / analyse=0x3:0x133 / me=hex / subme=7 / psy=1 / psy_rd=1.00:0.00 / mixed_ref=1 / me_range=16 / chroma_me=1 / trellis=1 / 8x8dct=1 / cqm=0 / deadzone=21,11 / fast_pskip=1 / chroma_qp_offset=-2 / threads=6 / lookahead_threads=1 / sliced_threads=0 / nr=0 / decimate=1 / interlaced=0 / bluray_compat=0 / constrained_intra=0 / bframes=3 / b_pyramid=2 / b_adapt=1 / b_bias=0 / direct=1 / weightb=1 / open_gop=0 / weightp=2 / keyint=240 / keyint_min=23 / scenecut=40 / intra_refresh=0 / rc_lookahead=40 / rc=2pass / mbtree=1 / bitrate=3559 / ratetol=1.0 / qcomp=0.60 / qpmin=10 / qpmax=51 / qpstep=4 / cplxblur=20.0 / qblur=0.5 / ip_ratio=1.40 / aq=1:1.00
Язык : English
Default : Да
Forced : Нет

Аудио
Идентификатор : 2
Формат : AC-3
Формат/Информация : Audio Coding 3
Расширение режима : CM (complete main)
Параметр Endianness формата : Big
Идентификатор кодека : A_AC3
Продолжительность : 1 ч. 14 м.
Вид битрейта : Постоянный
Битрейт : 640 Кбит/сек
Каналы : 6 каналов
Расположение каналов : Front: L C R, Side: L R, LFE
Частота : 48,0 КГц
Битовая глубина : 16 бит
Метод сжатия : С потерями
Размер потока : 341 Мбайт (15%)
Заголовок : Профессиональный (дубляж)
Язык : Russian
Default : Да
Forced : Нет


Правила, инструкции, FAQ!!!
Торрент  Добавлен [18 дек 2012, 06:45] Скачать торрент Магнет ссылка
Скачать торрент
[ Размер 11.33 КБ / Просмотров 24 ]

Статус
Проверен 
 
Размер  2.18 ГБ
Приватный: Нет (DHT включён)
.torrent скачан  0
Как залить торрент? | Как скачать Torrent? | Ошибка в торренте? Качайте магнет  
загрузка...


     Отправить личное сообщение
   
Страница 1 из 1
Показать сообщения за:  Поле сортировки  
Начать новую тему Ответить на тему

   Похожие торренты   Автор   Ответы   Просмотры   Последнее сообщение 
В этой теме нет новых непрочитанных сообщений. Скачать торрент Сезон охоты 3 / Open Season 3 (Коуди Камерон / Cody Cameron) [2010, мультфильм, BDRip] DUB

в форуме Зарубежные мультфильмы, Размер: 743.39 МБ, Здоровье: 100%

Anonymous

0
30|10

88
0

30 сен 2013, 00:49

Anonymous Перейти к последнему сообщению

В этой теме нет новых непрочитанных сообщений. Скачать торрент Проверен Сезон охоты 3Д / Open Season 3D (Роджер Аллерс, Джилл Калтон, Энтони Стаччи / Roger Allers, Jill Culton, Anthony Stacchi) [2006, комедия, приключения, семейный, BDrip 720p] OverUnder / Вертикальная стереопара

в форуме 3D Мультфильмы, Размер: 5.91 ГБ, Здоровье: 0%

Anonymous

0
0|0

40
0

07 сен 2016, 17:48

Anonymous Перейти к последнему сообщению

В этой теме нет новых непрочитанных сообщений. Скачать торрент Open Season / Сезон Охоты [L] [RUS / RUS] (2006)

в форуме Детские, Размер: 1.18 ГБ, Здоровье: 100%

Anonymous

0
118|15

98
2

20 апр 2014, 10:10

Anonymous Перейти к последнему сообщению

В этой теме нет новых непрочитанных сообщений. Скачать торрент Проверен Open Season / Сезон охоты [P] [RUS] (2006)

в форуме Детские, Размер: 611.21 МБ, Здоровье: 100%

Anonymous

0
4|1

400
2

31 янв 2015, 20:34

Anonymous Перейти к последнему сообщению

В этой теме нет новых непрочитанных сообщений. Скачать торрент Проверен [XBOX360] Сезон Охоты / Open Season [FREEBOOT / RUSSOUND]

в форуме XBOX 360, Размер: 3.88 ГБ, Здоровье: 100%

Anonymous

0
8|6

169
2

05 мар 2017, 12:40

Anonymous Перейти к последнему сообщению



Сейчас этот форум просматривают: нет зарегистрированных пользователей и гости: 0


Вы не можете начинать темы
Вы не можете отвечать на сообщения
Вы не можете редактировать свои сообщения
Вы не можете удалять свои сообщения
Вы не можете добавлять вложения

Перейти:  
Ресурс не предоставляет электронные версии произведений, а занимается лишь коллекционированием и каталогизацией ссылок, присылаемых и публикуемых на форуме нашими читателями. Если вы являетесь правообладателем какого-либо представленного материала и не желаете чтобы ссылка на него находилась в нашем каталоге, свяжитесь с нами и мы незамедлительно удалим её. Файлы для обмена на трекере предоставлены пользователями сайта, и администрация не несёт ответственности за их содержание. Просьба не заливать файлы, защищенные авторскими правами, а также файлы нелегального содержания!
cron