На всех торрентах на трекере установлена скидка на скачивание в размере 100 процентов(а).
 Возможность скачивания торрента НЕ зависит от ограничений при низком ратио, низком аплоаде, требуемом ратио или требуемом аплоаде.


Начать новую тему Ответить на тему
Статистика раздачи
Размер: 1.78 ГБ | Добавлен: 13 фев 2016, 22:07 | Скачали: 74
Сидеров: 95  [0 байт/сек]    Личеров: 37  [0 байт/сек]
Пред. тема | След. тема 

Автор
Сообщение

СообщениеДобавлено: 13 фев 2016, 22:07 

Ответить с цитатой 

Название: Семь стариков и одна девушка
Год выхода: 1968
Жанр: комедия
Режиссер: Евгений Карелов
В ролях: Светлана Савёлова, Валентин Смирнитский, Борис Чирков, Борис Новиков, Николай Парфёнов, Алексей Смирнов (I), Анатолий Адоскин, Александр Бениаминов, Евгений Весник, Георгий Вицин, Юрий Никулин, Евгений Моргунов, Анатолий Папанов, Георгий Тусузов, Анатолий Обухов, Виктор Филиппов, Нина Агапова, Татьяна Бестаева, Пётр Савин, Людмила Цветкова

О фильме:
Молодой тренер Лена Величко, девушка симпатичная и честолюбивая, мечтает о блестящей карьере, о воспитанниках-чемпионах. Однако для начала ее определяют методистом в оздоровительную группу для пожилых мужчин. Досаде и разочарованию тренера нет предела. Впрочем, впереди ее ждут приятные неожиданности...

Страна: СССР, Мосфильм
Продолжительность: 01:17:55
Перевод: не требуется


Кодек: x264
Качество: SATRip-AVC
Видео: MPEG-4 AVC, 3003 Кбит/с, 708x572@756x572
Звук: AC3, 2 ch, 256 Кбит/с


raw [info]: 708x572p 16:15 @ 25/1 fps (cfr)
x264 [info]: using SAR=16/15
x264 [info]: using cpu capabilities: MMX2 SSE2Fast SSSE3 SSE4.2 AVX
x264 [info]: profile High, level 4.1
x264 [info]: frame I:596 Avg QP:16.34 size: 67670
x264 [info]: frame P:26025 Avg QP:19.67 size: 30339
x264 [info]: frame B:90266 Avg QP:22.35 size: 10252
===========================================================================================================
Общее
Уникальный идентификатор : 228659007421367037653171535749546056564 (0xAC061F794D3DAFF2945DC3EF382D1B74)
Полное имя : D:Семь стариков и одна девушка_1968-SATRip-AVC.mkv
Формат : Matroska
Версия формата : Version 2
Размер файла : 1,78 Гбайт
Продолжительность : 1 ч. 17 м.
Общий поток : 3261 Кбит/сек
Дата кодирования : UTC 2015-05-15 12:44:23
Программа кодирования : mkvmerge v5.8.0 ('No Sleep / Pillow') built on Sep 2 2012 15:37:04
Библиотека кодирования : libebml v1.2.3 + libmatroska v1.3.0

Видео
Идентификатор : 1
Формат : AVC
Формат/Информация : Advanced Video Codec
Профиль формата : High@L4.1
Параметр CABAC формата : Да
Параметр ReFrames формата : 15 кадров
Идентификатор кодека : V_MPEG4/ISO/AVC
Продолжительность : 1 ч. 17 м.
Битрейт : 3003 Кбит/сек
Ширина : 708 пикселей
Высота : 572 пикселя
Соотношение сторон : 4:3
Соотношение сторон в оригинале : 4:3
Режим частоты кадров : Постоянный
Частота кадров : 25,000 кадров/сек
Цветовое пространство : YUV
Субдискретизация насыщенности : 4:2:0
Битовая глубина : 8 бит
Тип развёртки : Прогрессивная
Бит/(Пиксели*Кадры) : 0.297
Размер потока : 1,60 Гбайт (90%)
Библиотека кодирования : x264 core 146 r2538 121396c
Настройки программы : cabac=1 / ref=15 / deblock=1:-2:-2 / analyse=0x3:0x133 / me=umh / subme=10 / psy=1 / psy_rd=1.05:0.05 / mixed_ref=1 / me_range=32 / chroma_me=1 / trellis=2 / 8x8dct=1 / cqm=0 / deadzone=21,11 / fast_pskip=0 / chroma_qp_offset=-3 / threads=12 / lookahead_threads=2 / sliced_threads=0 / nr=0 / decimate=0 / interlaced=0 / bluray_compat=0 / constrained_intra=0 / bframes=8 / b_pyramid=2 / b_adapt=2 / b_bias=0 / direct=3 / weightb=1 / open_gop=0 / weightp=2 / keyint=250 / keyint_min=25 / scenecut=40 / intra_refresh=0 / rc_lookahead=60 / rc=2pass / mbtree=1 / bitrate=3003 / ratetol=1.0 / qcomp=0.65 / qpmin=0 / qpmax=39 / qpstep=4 / cplxblur=20.0 / qblur=0.5 / ip_ratio=1.40 / aq=1:1.00
Язык : English
Default : Да
Forced : Нет
Основные цвета : BT.601 PAL
Характеристики трансфера : BT.470 System B, BT.470 System G
Коэффициенты матрицы : BT.601

Аудио
Идентификатор : 2
Формат : AC-3
Формат/Информация : Audio Coding 3
Расширение режима : CM (complete main)
Параметр Endianness формата : Big
Идентификатор кодека : A_AC3
Продолжительность : 1 ч. 17 м.
Вид битрейта : Постоянный
Битрейт : 256 Кбит/сек
Каналы : 2 канала
Расположение каналов : Front: L R
Частота : 48,0 КГц
Битовая глубина : 16 бит
Метод сжатия : С потерями
Размер потока : 143 Мбайт (8%)
Язык : Russian
Default : Да
Forced : Нет

Релиз от:
Автор релиза:
загрузка...
Правила, инструкции, FAQ!!!
Торрент  Добавлен [13 фев 2016, 22:07] Скачать торрент Магнет ссылка
Скачать торрент
[ Размер 18.43 КБ / Просмотров 54 ]

Статус
Проверен 
 
Размер  1.78 ГБ
Приватный: Нет (DHT включён)
.torrent скачан  74
Как залить торрент? | Как скачать Torrent? | Ошибка в торренте? Качайте магнет  


     Отправить личное сообщение
   
Страница 1 из 1
Показать сообщения за:  Поле сортировки  
Начать новую тему Ответить на тему

   Похожие торренты   Автор   Ответы   Просмотры   Последнее сообщение 
В этой теме нет новых непрочитанных сообщений. Скачать торрент Девушка, разрезанная надвое / Одна девушка на двоих / La fille coupée en deux (2007) DVDRip

в форуме Драмы, Мелодрамы, Размер: 1.37 ГБ, Здоровье: 0%

Anonymous

0
0|0

123
0

30 дек 2013, 10:37

Anonymous Перейти к последнему сообщению

В этой теме нет новых непрочитанных сообщений. Скачать торрент Стариков Николай - Кто финансирует развал России? От декабристов до моджахедов [Николай Стариков (ЛИ), 2010 г., VBR 96 kbps, MP3]

в форуме Историческая, Размер: 455.34 МБ, Здоровье: 100%

Anonymous

0
1|1

68
1

19 мар 2014, 11:42

Anonymous Перейти к последнему сообщению

В этой теме нет новых непрочитанных сообщений. Скачать торрент Проверен Стариков Николай - Власть [Николай Стариков, 2015 г., 56 kbps, MP3]

в форуме Российская фантастика, фэнтези, мистика, ужасы, фанфики, Размер: 170.71 МБ, Здоровье: 100%

Anonymous

0
47|13

238
6

10 дек 2016, 16:56

Anonymous Перейти к последнему сообщению

В этой теме нет новых непрочитанных сообщений. Скачать торрент Проверен Семь английских пьес [1968, DjVu, RUS]

в форуме Зарубежная литература (XX и XXI век), Размер: 12.75 МБ, Здоровье: 100%

Anonymous

0
4|1

12
1

08 сен 2016, 19:42

Anonymous Перейти к последнему сообщению

В этой теме нет новых непрочитанных сообщений. Скачать торрент Проверен Семь криков в океане (Владимир Басов) [1986, притча, фантасмагория, экранизация, SATRip]

в форуме Кино СССР, Размер: 1.41 ГБ, Здоровье: 100%

Anonymous

0
43|16

517
17

21 окт 2014, 21:01

Anonymous Перейти к последнему сообщению



Сейчас этот форум просматривают: нет зарегистрированных пользователей и гости: 0


Вы не можете начинать темы
Вы не можете отвечать на сообщения
Вы не можете редактировать свои сообщения
Вы не можете удалять свои сообщения
Вы не можете добавлять вложения

Перейти:  
Ресурс не предоставляет электронные версии произведений, а занимается лишь коллекционированием и каталогизацией ссылок, присылаемых и публикуемых на форуме нашими читателями. Если вы являетесь правообладателем какого-либо представленного материала и не желаете чтобы ссылка на него находилась в нашем каталоге, свяжитесь с нами и мы незамедлительно удалим её. Файлы для обмена на трекере предоставлены пользователями сайта, и администрация не несёт ответственности за их содержание. Просьба не заливать файлы, защищенные авторскими правами, а также файлы нелегального содержания!
cron