На всех торрентах на трекере установлена скидка на скачивание в размере 100 процентов(а).
 Возможность скачивания торрента НЕ зависит от ограничений при низком ратио, низком аплоаде, требуемом ратио или требуемом аплоаде.


Начать новую тему Ответить на тему
Статистика раздачи
Размер: 4.55 ГБ | Добавлен: 30 мар 2018, 20:15 | Скачали: 0
Сидеров: 1  [0 байт/сек]    Личеров: 0  [0 байт/сек]
Пред. тема | След. тема 

Автор
Сообщение

СообщениеДобавлено: 30 мар 2018, 20:15 

Ответить с цитатой 

С Богами: Два мира / Singwa Hamgge (Along with the Gods: The Two Worlds) (2017) BDRip

Производство: Корея Южная, Dexter Studios
Жанр: Драма, Фэнтези, Приключения

Режиссер: Ён Хва Ким
Актеры: Чон У Ха, Тхэ Хён Чха, Джи Хун Чжу, Хян Ги Ким, Дон Ук Ким, Кён Су До, Чжун Хёк Ли (I), Су Чжон Е, Ю Бин Сон, Чжон Чжэ Ли, Даль Су О, Вон Хи Им, Гван Чан, Су Ан Ким, Хэ Сук Ким, Ха Ныль Ким, Су Ро Ким, Чжун Сан Ю, Чжи Хун Чон, Дон Сок Ма, Мин Чон Ким, Кён Ён Ли, Сын Хён Гу

Описание:
Спасая ребёнка из горящего здания, пожарный Ким Джа-хон погибает героической смертью. И тут же три ангела смерти сопровождают его в мир мёртвых, где смертному предстоит пройти 7 судов и держать ответ перед 7-ю Богами. Ангелы будут его защитниками, и если Джа-хона признают безгрешным, он получит возможность реинкарнироваться и начать новую жизнь.


Дата мировой премьеры: 20 декабря 2017

Релиз от: NNMClub
Продолжительность: 02:19:58
Качество видео: BDRip (MTeam) Семпл
Перевод: Двуголосый закадровый, любительский
Озвучка / Автор перевода: Ворон и Wenlana / "Zipper"
Субтитры: Русский (форс., полные)

Видео: AVC/H.264, 1280x536, ~3804 kbps
Аудио 1: AC3, 6 ch, 224 kbps | Русский
Аудио 2: AC3, 6 ch, 640 kbps | Корейский
x264 [info]: frame I:2396 Avg QP:12.60 size:100816
x264 [info]: frame P:51236 Avg QP:15.38 size: 36341
x264 [info]: frame B:147294 Avg QP:17.44 size: 12740
Код:
Общее
Полное имя                               : \С Богами-Два мира_Along with the Gods-The Two Worlds.2017.BDRip.720p.NNMClub.mkv
Формат                                   : Matroska
Версия формата                           : Version 4 / Version 2
Размер файла                             : 4,55 Гбайт
Продолжительность                        : 2 ч. 19 м.
Общий поток                              : 4657 Кбит/сек
Название фильма                          : С Богами-Два мира_Along with the Gods-The Two Worlds.2017.BDRip.720p.NNMClub
Дата кодирования                         : UTC 2018-03-30 10:40:04
Программа кодирования                    : mkvmerge v21.0.0 ('Tardigrades Will Inherit The Earth') 64-bit
Библиотека кодирования                   : libebml v1.3.5 + libmatroska v1.4.8

Видео
Идентификатор                            : 1
Формат                                   : AVC
Формат/Информация                        : Advanced Video Codec
Профиль формата                          : [url=http://nnm-club.me/mailto:High@L4.1]High@L4.1[/url]
Настройки формата                        : CABAC / 12 Ref Frames
Параметр CABAC формата                   : Да
Параметр RefFrames формата               : 12 кадров
Идентификатор кодека                     : V_MPEG4/ISO/AVC
Продолжительность                        : 2 ч. 19 м.
Битрейт                                  : 3804 Кбит/сек
Ширина                                   : 1280 пикселей
Высота                                   : 536 пикселей
Соотношение сторон                       : 2,40:1
Режим частоты кадров                     : Постоянный
Частота кадров                           : 24,000 кадра/сек
Цветовое пространство                    : YUV
Субдискретизация насыщенности            : 4:2:0
Битовая глубина                          : 8 бит
Тип развёртки                            : Прогрессивная
Бит/(Пиксели*Кадры)                      : 0.231
Размер потока                            : 3,71 Гбайт (81%)
Заголовок                                : С Богами-Два мира_Along with the Gods-The Two Worlds.2017.BDRip.720p.NNMClub
Библиотека кодирования                   : x264 core 155 r2901 7d0ff22
Настройки программы                      : cabac=1 / ref=12 / deblock=1:0:0 / analyse=0x3:0x113 / me=umh / subme=10 / psy=1 / psy_rd=1.05:0.10 / mixed_ref=1 / me_range=32 / chroma_me=1 / trellis=2 / 8x8dct=1 / cqm=0 / deadzone=21,11 / fast_pskip=0 / chroma_qp_offset=-2 / threads=12 / lookahead_threads=1 / sliced_threads=0 / nr=0 / decimate=1 / interlaced=0 / bluray_compat=0 / constrained_intra=0 / bframes=6 / b_pyramid=2 / b_adapt=2 / b_bias=0 / direct=3 / weightb=1 / open_gop=0 / weightp=2 / keyint=250 / keyint_min=24 / scenecut=40 / intra_refresh=0 / rc=2pass / mbtree=0 / bitrate=3804 / ratetol=1.0 / qcomp=0.70 / qpmin=0 / qpmax=69 / qpstep=4 / cplxblur=20.0 / qblur=0.5 / ip_ratio=1.40 / pb_ratio=1.30 / aq=2:1.00
Язык                                     : Korean
Default                                  : Да
Forced                                   : Нет

Аудио #1
Идентификатор                            : 2
Формат                                   : AC-3
Формат/Информация                        : Audio Coding 3
Идентификатор кодека                     : A_AC3
Продолжительность                        : 2 ч. 19 м.
Вид битрейта                             : Постоянный
Битрейт                                  : 224 Кбит/сек
Каналы                                   : 2 канала
Расположение каналов                     : Front: L R
Частота                                  : 48,0 КГц
Частота кадров                           : 31,250 кадров/сек (1536 SPF)
Битовая глубина                          : 16 бит
Метод сжатия                             : С потерями
Размер потока                            : 224 Мбайт (5%)
Заголовок                                : DVO [Ворон и Wenlana]
Язык                                     : Russian
ServiceKind/String                       : Complete Main
Default                                  : Нет
Forced                                   : Нет

Аудио #2
Идентификатор                            : 3
Формат                                   : AC-3
Формат/Информация                        : Audio Coding 3
Идентификатор кодека                     : A_AC3
Продолжительность                        : 2 ч. 19 м.
Вид битрейта                             : Постоянный
Битрейт                                  : 640 Кбит/сек
Каналы                                   : 6 каналов
Расположение каналов                     : Front: L C R, Side: L R, LFE
Частота                                  : 48,0 КГц
Частота кадров                           : 31,250 кадров/сек (1536 SPF)
Битовая глубина                          : 16 бит
Метод сжатия                             : С потерями
Размер потока                            : 641 Мбайт (14%)
Язык                                     : Korean
ServiceKind/String                       : Complete Main
Default                                  : Нет
Forced                                   : Нет

Текст #1
Идентификатор                            : 4
Формат                                   : UTF-8
Идентификатор кодека                     : S_TEXT/UTF8
Идентификатор кодека/Информация          : UTF-8 Plain Text
Продолжительность                        : 2 ч. 11 м.
Битрейт                                  : 1 бит/сек
ElementCount                             : 38
Размер потока                            : 1,61 Кбайт (0%)
Язык                                     : Russian
Default                                  : Да
Forced                                   : Нет

Текст #2
Идентификатор                            : 5
Формат                                   : UTF-8
Идентификатор кодека                     : S_TEXT/UTF8
Идентификатор кодека/Информация          : UTF-8 Plain Text
Продолжительность                        : 2 ч. 12 м.
Битрейт                                  : 79 бит/сек
ElementCount                             : 1483
Размер потока                            : 76,6 Кбайт (0%)
Язык                                     : Russian
Default                                  : Нет
Forced                                   : Нет

Меню
00:00:00.000                             : ko:Chapter 01
00:08:21.416                             : ko:Chapter 02
00:21:58.208                             : ko:Chapter 03
00:37:18.875                             : ko:Chapter 04
00:49:27.083                             : ko:Chapter 05
01:03:01.041                             : ko:Chapter 06
01:18:03.375                             : ko:Chapter 07
01:34:49.041                             : ko:Chapter 08
01:45:32.916                             : ko:Chapter 09
01:58:46.750                             : ko:Chapter 10

Скриншоты:

Правила, инструкции, FAQ!!!
Торрент  Добавлен [30 мар 2018, 20:15] Скачать торрент Магнет ссылка
Скачать торрент
[ Размер 23.68 КБ / Просмотров 68 ]

Статус
Проверен 
 
Размер  4.55 ГБ
Приватный: Нет (DHT включён)
.torrent скачан  0
Как залить торрент? | Как скачать Torrent? | Ошибка в торренте? Качайте магнет  


     Отправить личное сообщение
   
Страница 1 из 1
Показать сообщения за:  Поле сортировки  
Начать новую тему Ответить на тему

   Похожие торренты   Автор   Ответы   Просмотры   Последнее сообщение 
В этой теме нет новых непрочитанных сообщений. Скачать торрент Проверен Черный квадрат / Дайана Джессап / Diane Jessup - Пёс, который говорил с богами / The Dog Who Spoke With Gods [2005, rtf]

в форуме Зарубежная литература (XX и XXI век), Размер: 2.89 МБ, Здоровье: 100%

Anonymous

0
255|0

24
1

08 сен 2016, 18:55

Anonymous Перейти к последнему сообщению

В этой теме нет новых непрочитанных сообщений. Скачать торрент Два мира / Les Deux mondes (2007) BDRip 720p

в форуме 720p | 1080p, Размер: 2.18 ГБ, Здоровье: 100%

Anonymous

0
17|0

33
10

22 фев 2014, 08:13

Anonymous Перейти к последнему сообщению

В этой теме нет новых непрочитанных сообщений. Скачать торрент Проверен Все деньги мира / All the Money in the World (2017) BDRip 1080p | iTunes

в форуме 720p | 1080p, Размер: 7.71 ГБ, Здоровье: 100%

Гость

0
3630|803

86
5303

30 мар 2018, 17:49

Гость Перейти к последнему сообщению

В этой теме нет новых непрочитанных сообщений. Скачать торрент Проверен Maywood - Different Worlds (1981) [LPCM 2.0 192/24 |Matroska (VinylRip)] <Euro-Pop> [720p]

в форуме Vinyl-Rip и Hand-Made, Размер: 4.14 ГБ, Здоровье: 16%

Гость

0
6|36

99
5

08 фев 2015, 00:33

Гость Перейти к последнему сообщению

В этой теме нет новых непрочитанных сообщений. Скачать торрент Проверен Оно / It (2017) BDRip 720p | D, A, L | iTunes

в форуме 720p | 1080p, Размер: 5.62 ГБ, Здоровье: 1%

Гость

0
12|680

276
2

20 дек 2017, 00:05

Гость Перейти к последнему сообщению



Сейчас этот форум просматривают: нет зарегистрированных пользователей и гости: 1


Вы не можете начинать темы
Вы не можете отвечать на сообщения
Вы не можете редактировать свои сообщения
Вы не можете удалять свои сообщения
Вы не можете добавлять вложения

Перейти:  
Ресурс не предоставляет электронные версии произведений, а занимается лишь коллекционированием и каталогизацией ссылок, присылаемых и публикуемых на форуме нашими читателями. Если вы являетесь правообладателем какого-либо представленного материала и не желаете чтобы ссылка на него находилась в нашем каталоге, свяжитесь с нами и мы незамедлительно удалим её. Файлы для обмена на трекере предоставлены пользователями сайта, и администрация не несёт ответственности за их содержание. Просьба не заливать файлы, защищенные авторскими правами, а также файлы нелегального содержания!
cron