На всех торрентах на трекере установлена скидка на скачивание в размере 100 процентов(а).
 Возможность скачивания торрента НЕ зависит от ограничений при низком ратио, низком аплоаде, требуемом ратио или требуемом аплоаде.


Начать новую тему Ответить на тему
Статистика раздачи
Размер: 521.6 МБ | Добавлен: 04 янв 2018, 12:41 | Скачали: 3
Сидеров: 3  [0 байт/сек]    Личеров: 1  [0 байт/сек]
Пред. тема | След. тема 

Автор
Сообщение

СообщениеДобавлено: 04 янв 2018, 12:41 

Ответить с цитатой 

Рок-группа - Попса (2003) переиздание 2004

Страна: Россия
Год Выпуска: 2004
Лейбл: Фирама граммзаписи "Никитин"
Номер по каталогу: ТФН-CD 157/04
Жанр: Rock
Продолжительность: 00:47:01

Кодек: FLAC
Битрейт: Lossless
Тип рипа: image + .cue

Треклист:
01. ДДТ - Фонограммщик (05:38)
02. Рок-группа - Попса (03:11)
03. Рок-группа - Куда ты смотришь? (03:06)
04. Рок-группа - Дым (02:35)
05. Рок-группа - Кошка (01:19)
06. Пилот - Бесы (02:43)
07. Рок-группа - Русская тоска (04:30)
08. Рок-группа - Третья беда (02:38)
09. Рок-группа fеаt. Ю. Шевчук - Попса (03:10)
10. Рок-группа fеаt. М. Горшенев и А. Князев - Попса (02:55)
11. Рок-группа fеаt. Алексей «ЯГОДА» Горшенев - Попса (02:56)
12. Рок-группа fеаt. Илья ЧертПопса (02:55)
13. Рок-группа fеаt. А. Чернецкий - Попса (02:57)
14. Бригадный подряд - Попса (02:55)
15. Пилот - Большой питерский блюз (03:25)
Код:
Exact Audio Copy V0.99 prebeta 4 from 23. January 2008

Отчёт EAC об извлечении, выполненном 12. мая 2009, 23:21

Various / Попса

Дисковод: ASUS    DRW-1814BL   Adapter: 1  ID: 0

Режим чтения                 : Достоверность
Использование точного потока : Да
Отключение кэша аудио        : Да
Использование указателей C2  : Нет

Коррекция смещения при чтении                     : 6
Способность читать области Lead-in и Lead-out     : Нет
Заполнение пропущенных сэмплов тишиной            : Да
Удаление блоков с тишиной в начале и конце        : Нет
При вычислениях CRC использовались нулевые сэмплы : Да
Интерфейс                                         : Встроенный Win32-интерфейс для Win NT/2000

Выходной формат : Внутренние WAV-операции
Формат сэмплов  : 44.100 Гц; 16 бит; стерео

TOC извлечённого CD

     Трек |   Старт  | Длительность | Начальный сектор | Конечный сектор
    ---------------------------------------------------------------------
       1  |  0:00.00 |    5:38.70   |           0      |      25419
       2  |  5:38.70 |    3:11.54   |       25420      |      39798
       3  |  8:50.49 |    3:06.30   |       39799      |      53778
       4  | 11:57.04 |    2:35.50   |       53779      |      65453
       5  | 14:32.54 |    1:19.23   |       65454      |      71401
       6  | 15:52.02 |    2:43.38   |       71402      |      83664
       7  | 18:35.40 |    4:30.67   |       83665      |     103981
       8  | 23:06.32 |    2:38.62   |      103982      |     115893
       9  | 25:45.19 |    3:10.68   |      115894      |     130211
      10  | 28:56.12 |    2:55.58   |      130212      |     143394
      11  | 31:51.70 |    2:56.07   |      143395      |     156601
      12  | 34:48.02 |    2:55.33   |      156602      |     169759
      13  | 37:43.35 |    2:57.13   |      169760      |     183047
      14  | 40:40.48 |    2:55.13   |      183048      |     196185
      15  | 43:35.61 |    3:25.73   |      196186      |     211633
      16  | 49:33.59 |   19:30.54   |      223034      |     310837

Характеристики диапазона извлечения и сообщения об ошибках

Выбранный диапазон

     Имя файла E:\МУЗЫКА 2\_lossless в dvd-r\Various - Попса.wav

     Пиковый уровень 95.3 %
     Качество диапазона 100.0 %
     CRC копии AB2CADCB
     Копирование... OK

Ошибок не произошло

AccurateRip: сводка

Трек  1  нет в базе данных
Трек  2  нет в базе данных
Трек  3  нет в базе данных
Трек  4  нет в базе данных
Трек  5  нет в базе данных
Трек  6  нет в базе данных
Трек  7  нет в базе данных
Трек  8  нет в базе данных
Трек  9  нет в базе данных
Трек 10  нет в базе данных
Трек 11  нет в базе данных
Трек 12  нет в базе данных
Трек 13  нет в базе данных
Трек 14  нет в базе данных
Трек 15  нет в базе данных

Ни одного трека нет в базе AccurateRip

Конец отчёта
Код:
REM GENRE Rock
REM DATE 2004
REM DISCID E6103010
REM COMMENT ExactAudioCopy v0.99pb4
PERFORMER "Various Artists"
TITLE "Попса (2003, переиздание 2004)"
FILE "Various Artists - Попса.wav" WAVE
  TRACK 01 AUDIO
    TITLE "Фонограммщик"
    PERFORMER "DDT"
    INDEX 01 00:00:00
  TRACK 02 AUDIO
    TITLE "Попса"
    PERFORMER "Рок-группа"
    INDEX 00 05:36:71
    INDEX 01 05:38:70
  TRACK 03 AUDIO
    TITLE "Куда ты смотришь?"
    PERFORMER "Рок-группа"
    INDEX 00 08:48:50
    INDEX 01 08:50:49
  TRACK 04 AUDIO
    TITLE "Дым"
    PERFORMER "Рок-группа"
    INDEX 00 11:55:05
    INDEX 01 11:57:04
  TRACK 05 AUDIO
    TITLE "Кошка"
    PERFORMER "Рок-группа"
    INDEX 00 14:30:55
    INDEX 01 14:32:54
  TRACK 06 AUDIO
    TITLE "Бесы"
    PERFORMER "Пилот"
    INDEX 00 15:50:03
    INDEX 01 15:52:02
  TRACK 07 AUDIO
    TITLE "Русская тоска"
    PERFORMER "Рок-группа"
    INDEX 00 18:33:41
    INDEX 01 18:35:40
  TRACK 08 AUDIO
    TITLE "Третья беда"
    PERFORMER "Рок-группа"
    INDEX 00 23:04:33
    INDEX 01 23:06:32
  TRACK 09 AUDIO
    TITLE "Попса"
    PERFORMER "Рок-группа feat. Юрий Шевчук"
    INDEX 00 25:43:20
    INDEX 01 25:45:19
  TRACK 10 AUDIO
    TITLE "Попса"
    PERFORMER "Рок-группа feat. М. Горшенёв и А. Князев"
    INDEX 00 28:54:13
    INDEX 01 28:56:12
  TRACK 11 AUDIO
    TITLE "Попса"
    PERFORMER "Рок-группа feat. А. 'Ягода' Горшенёв"
    INDEX 00 31:49:71
    INDEX 01 31:51:70
  TRACK 12 AUDIO
    TITLE "Попса"
    PERFORMER "Рок-группа feat. И. Чёрт"
    INDEX 00 34:46:03
    INDEX 01 34:48:02
  TRACK 13 AUDIO
    TITLE "Попса"
    PERFORMER "Рок-группа feat. А. Чернецкий"
    INDEX 00 37:41:36
    INDEX 01 37:43:35
  TRACK 14 AUDIO
    TITLE "Попса"
    PERFORMER "Бригадный подряд"
    INDEX 00 40:38:49
    INDEX 01 40:40:48
  TRACK 15 AUDIO
    TITLE "Большой питерский блюз"
    PERFORMER "Пилот"
    INDEX 00 43:33:62
    INDEX 01 43:35:61
Код:
-----------------------

DON'T MODIFY THIS FILE

-----------------------

PERFORMER: auCDtect Task Manager, ver. 1.6.0 RC1 build 1.6.0.1
Copyright (c) 2008-2010 y-soft. All rights reserved
[url=http://y-soft.org]http://y-soft.org[/url]

ANALYZER: auCDtect: CD records authenticity detector, version 0.8.2
Copyright (c) 2004 Oleg Berngardt. All rights reserved.
Copyright (c) 2004 Alexander Djourik. All rights reserved.

FILE: Various Artists - Попса.flac
  Size: 352270681 Hash: 525D15079EDC635D106FDF8FA1F20CB4 Accuracy: -m0
  Conclusion: CDDA 100%
  Signature: 9EB5DFCD6A5EACC29A9FD3737D72872CCE495E19


Продолжительность:
00:03:12
Видео: MPEG-4, 720x576 , ~673 Kbps
Аудио: PCM, 2 ch, 44, 1411,2 Kbps, CBR
Код:
Общее
Полное имя                               : D:\РОК-ГРУППА - Попса (2003 год, переиздание) - 2004\Video\Попса (клип).avi
Формат                                   : AVI
Формат/Информация                        : Audio Video Interleave
Размер файла                             : 48,0 Мбайт
Продолжительность                        : 3 м. 12 с.
Общий поток                              : 2089 Кбит/сек

Видео
Идентификатор                            : 0
Формат                                   : MPEG-4 Visual
Идентификатор кодека                     : MP42
Идентификатор кодека/Информация          : Microsoft MPEG-4 v2 (pre-standard)
Идентификатор кодека/Подсказка           : Microsoft
Продолжительность                        : 3 м. 12 с.
Битрейт                                  : 673 Кбит/сек
Ширина                                   : 720 пикселей
Высота                                   : 576 пикселей
Соотношение сторон                       : 5:4
Частота кадров                           : 25,000 кадров/сек
Стандарт вещания                         : PAL
Метод сжатия                             : С потерями
Бит/(Пиксели*Кадры)                      : 0.065
Размер потока                            : 15,5 Мбайт (32%)

Аудио
Идентификатор                            : 1
Формат                                   : PCM
Параметр Endianness формата              : Little
Параметр Sign формата                    : Signed
Идентификатор кодека                     : 1
Продолжительность                        : 3 м. 12 с.
Вид битрейта                             : Постоянный
Битрейт                                  : 1411,2 Кбит/сек
Каналы                                   : 2 канала
Частота                                  : 44,1 КГц
Битовая глубина                          : 16 бит
Размер потока                            : 32,4 Мбайт (68%)
Выравнивание                             : Соединение по промежуткам
Продолжительность промежутка             : 999  мс. (24,98 видеокадров)
Время предзагрузки промежутка            : 1000  мс.

Продолжительность:
00:03:08
Видео: MPEG-4, 720x576 , ~4054 Kbps
Аудио: PCM, 2 ch, 44, 1411,2 Kbps, CBR
Код:
Общее
Полное имя                               : D:\РОК-ГРУППА - Попса (2003 год, переиздание) - 2004\Video\Попса (клип-мульт).avi
Формат                                   : AVI
Формат/Информация                        : Audio Video Interleave
Размер файла                             : 123 Мбайт
Продолжительность                        : 3 м. 8 с.
Общий поток                              : 5471 Кбит/сек

Видео
Идентификатор                            : 0
Формат                                   : MPEG-4 Visual
Профиль формата                          : Simple@L3
Параметр BVOP формата                    : Нет
Параметр QPel формата                    : Нет
Параметр GMC формата                     : Без точки перехода
Параметр матрицы формата                 : Default (H.263)
Идентификатор кодека                     : XVID
Идентификатор кодека/Подсказка           : XviD
Продолжительность                        : 3 м. 8 с.
Битрейт                                  : 4054 Кбит/сек
Ширина                                   : 720 пикселей
Высота                                   : 576 пикселей
Соотношение сторон                       : 5:4
Частота кадров                           : 25,000 кадров/сек
Стандарт вещания                         : PAL
Цветовое пространство                    : YUV
Субдискретизация насыщенности            : 4:2:0
Битовая глубина                          : 8 бит
Тип развёртки                            : Прогрессивная
Метод сжатия                             : С потерями
Бит/(Пиксели*Кадры)                      : 0.391
Размер потока                            : 91,2 Мбайт (74%)
Библиотека кодирования                   : XviD 0.0.12 (UTC 2003-06-11)

Аудио
Идентификатор                            : 1
Формат                                   : PCM
Параметр Endianness формата              : Little
Параметр Sign формата                    : Signed
Идентификатор кодека                     : 1
Продолжительность                        : 3 м. 8 с.
Вид битрейта                             : Постоянный
Битрейт                                  : 1411,2 Кбит/сек
Каналы                                   : 2 канала
Частота                                  : 44,1 КГц
Битовая глубина                          : 16 бит
Размер потока                            : 31,8 Мбайт (26%)
Выравнивание                             : Соединение по промежуткам
Продолжительность промежутка             : 999  мс. (24,97 видеокадров)
Время предзагрузки промежутка            : 1000  мс.

#777
Код:
[b]Поглощение/вытеснение [/b]
[b]Только с согласия релизера[/b]
[b][u][i]Pashketan[/b][/i][/u]

загрузка...
Правила, инструкции, FAQ!!!
Торрент  Добавлен [04 янв 2018, 12:41] Скачать торрент Магнет ссылка
Скачать торрент
[ Размер 11.73 КБ / Просмотров 56 ]

Статус
Проверен 
 
Размер  521.6 МБ
Приватный: Нет (DHT включён)
.torrent скачан  3
Как залить торрент? | Как скачать Torrent? | Ошибка в торренте? Качайте магнет  


     Отправить личное сообщение
   

СообщениеДобавлено: 15 май 2018, 13:12 

Ответить с цитатой 

Зарегистрированные пользователи
Зарегистрированные пользователи

Стаж: 5 месяцев 1 день
Раздал: 0 байт
Скачал: 0 байт
Ратио: Inf.
Торренты: 0
Встаньте на раздачу плиз


Профиль     Отправить личное сообщение
   
Страница 1 из 1
Показать сообщения за:  Поле сортировки  
Начать новую тему Ответить на тему

   Похожие торренты   Автор   Ответы   Просмотры   Последнее сообщение 
В этой теме нет новых непрочитанных сообщений. Скачать торрент Проверен (РОКовая ПОПса) [EP] [24/96] Группа Стаса Намина ''Цветы'' - Миньон - 1982, APE (image+.cue)

в форуме Отечественная поп-музыка (оцифровки), Размер: 240.43 МБ, Здоровье: 100%

Anonymous

0
4|3

23
1

16 апр 2018, 22:12

Anonymous Перейти к последнему сообщению

В этой теме нет новых непрочитанных сообщений. Скачать торрент Проверен (РОКовая ПОПса) [EP] [24/96 mono] Группа Стаса Намина ''Цветы'' - Миньон - 1973, APE (image+.cue)

в форуме Отечественная поп-музыка (оцифровки), Размер: 115.79 МБ, Здоровье: 66%

Anonymous

0
2|3

25
1

16 апр 2018, 22:29

Anonymous Перейти к последнему сообщению

В этой теме нет новых непрочитанных сообщений. Скачать торрент Проверен (Progressive rock) Kalevala - People No Names + Boogie Jungle (1972,75; переиздание 2003 года) - 2003, FLAC (image + .cue + scans), lossless

в форуме Progressive & Art-Rock, Размер: 467.34 МБ, Здоровье: 100%

Anonymous

0
4|1

50
2

31 авг 2016, 21:29

Anonymous Перейти к последнему сообщению

В этой теме нет новых непрочитанных сообщений. Скачать торрент Проверен (Progressive rock) Eyes Of Blue - Crossroads Of Time + In Fields Of Ardath (1968,69; переиздание 2003 года) - 2003, APE (image + .cue + scans), lossless

в форуме Progressive & Art-Rock, Размер: 497.78 МБ, Здоровье: 100%

Anonymous

0
8|0

33
1

31 авг 2016, 21:05

Anonymous Перейти к последнему сообщению

В этой теме нет новых непрочитанных сообщений. Скачать торрент Проверен Сурганова и оркестр - Неужели не я (Переиздание) (2004) [FLAC | Lossless] <Rock>

в форуме Русский рок, Размер: 369.98 МБ, Здоровье: 2%

Anonymous

0
1|37

82
0

11 авг 2014, 08:37

Anonymous Перейти к последнему сообщению



Сейчас этот форум просматривают: нет зарегистрированных пользователей и гости: 0


Вы не можете начинать темы
Вы не можете отвечать на сообщения
Вы не можете редактировать свои сообщения
Вы не можете удалять свои сообщения
Вы не можете добавлять вложения

Перейти:  
Ресурс не предоставляет электронные версии произведений, а занимается лишь коллекционированием и каталогизацией ссылок, присылаемых и публикуемых на форуме нашими читателями. Если вы являетесь правообладателем какого-либо представленного материала и не желаете чтобы ссылка на него находилась в нашем каталоге, свяжитесь с нами и мы незамедлительно удалим её. Файлы для обмена на трекере предоставлены пользователями сайта, и администрация не несёт ответственности за их содержание. Просьба не заливать файлы, защищенные авторскими правами, а также файлы нелегального содержания!
cron