На всех торрентах на трекере установлена скидка на скачивание в размере 100 процентов(а).
 Возможность скачивания торрента НЕ зависит от ограничений при низком ратио, низком аплоаде, требуемом ратио или требуемом аплоаде.


Начать новую тему Ответить на тему
Статистика раздачи
Размер: 560.58 МБ | Добавлен: 16 июн 2018, 11:43 | Скачали: 1
Сидеров: 32  [0 байт/сек]    Личеров: 11  [0 байт/сек]
Пред. тема | След. тема 

Автор
Сообщение

СообщениеДобавлено: 16 июн 2018, 11:43 

Ответить с цитатой 

The Who / Live At The Fillmore East 1968 (Deluxe Edition)
Жанр: Rock
Носитель: CD
Год издания: 2018
Издатель (лейбл): Geffen Records
Номер по каталогу: B0028266-02
Страна исполнителя (группы): UK
Аудиокодек: FLAC (*.flac)
Тип рипа: tracks+.cue
Битрейт аудио: lossless
Продолжительность: 01:32:29
Источник (релизер): hardbodies
Наличие сканов в содержимом раздачи: нет
Треклист:
Код:
[color=blac][b]
01. Summertime Blues (04:14)
02. Fortune Teller (02:38)
03. Tattoo (02:58)
04. Little Billy (03:38)
05. I Can't Explain (02:28)
06. Happy Jack (02:18)
07. Relax (11:57)
08. I'm A Boy (03:23)
09. A Quick One (While He's Away) (11:15)
10. My Way (03:16)
11. C'Mon Everybody (01:55)
12. Shakin' All Over (06:55)
13. Boris The Spider (02:32)[/color][/b]
Код:
[color=blac][b]
01. My Generation (33:02)[/color][/b]
Код:
Exact Audio Copy V1.3 from 2. September 2016
EAC extraction logfile from 8. June 2018, 14:01
The Who / Live at the Fillmore East 1968
Used drive  : TSSTcorpCDDVDW SU-208DB   Adapter: 1  ID: 0
Read mode               : Secure
Utilize accurate stream : Yes
Defeat audio cache      : Yes
Make use of C2 pointers : No
Read offset correction                      : 48
Overread into Lead-In and Lead-Out          : No
Fill up missing offset samples with silence : Yes
Delete leading and trailing silent blocks   : No
Null samples used in CRC calculations       : Yes
Used interface                              : Native Win32 interface for Win NT & 2000
Gap handling                                : Appended to previous track
Used output format              : User Defined Encoder
Selected bitrate                : 128 kBit/s
Quality                         : High
Add ID3 tag                     : No
Command line compressor         : C:\Program Files (x86)\Exact Audio Copy\Flac\flac.exe
Additional command line options : -8 -V -T "ARTIST=%artist%" -T "TITLE=%title%" -T "ALBUM=%albumtitle%" -T "DATE=%year%" -T "TRACKNUMBER=%tracknr%" -T "GENRE=%genre%" -T "PERFORMER=%albuminterpret%" -T "COMPOSER=%composer%" %haslyrics%--tag-from-file=LYRICS="%lyricsfile%"%haslyrics% -T "ALBUMARTIST=%albumartist%" -T "DISCNUMBER=%cdnumber%" -T "TOTALDISCS=%totalcds%" -T "TOTALTRACKS=%numtracks%" -T "COMMENT=%comment%" %source% -o %dest%
TOC of the extracted CD
     Track |   Start  |  Length  | Start sector | End sector
    ---------------------------------------------------------
        1  |  0:00.00 |  4:15.55 |         0    |    19179
        2  |  4:15.55 |  2:38.46 |     19180    |    31075
        3  |  6:54.26 |  2:58.45 |     31076    |    44470
        4  |  9:52.71 |  3:38.23 |     44471    |    60843
        5  | 13:31.19 |  2:28.48 |     60844    |    71991
        6  | 15:59.67 |  2:18.57 |     71992    |    82398
        7  | 18:18.49 | 11:57.02 |     82399    |   136175
        8  | 30:15.51 |  3:23.37 |    136176    |   151437
        9  | 33:39.13 | 11:15.54 |    151438    |   202116
       10  | 44:54.67 |  3:16.66 |    202117    |   216882
       11  | 48:11.58 |  1:55.13 |    216883    |   225520
       12  | 50:06.71 |  6:55.43 |    225521    |   256688
       13  | 57:02.39 |  2:34.66 |    256689    |   268304
Track  1
     Filename C:\EAC Rips\The Who - Live at the Fillmore East 1968 (2018) {Geffen B0028266-02} [FLAC]\CD01\01. Summertime Blues.wav
     Pre-gap length  0:00:02.00
     Peak level 99.8 %
     Extraction speed 1.1 X
     Track quality 100.0 %
     Test CRC CC2ED4EC
     Copy CRC CC2ED4EC
     Track not present in AccurateRip database
     Copy OK
Track  2
     Filename C:\EAC Rips\The Who - Live at the Fillmore East 1968 (2018) {Geffen B0028266-02} [FLAC]\CD01\02. Fortune Teller.wav
     Peak level 99.8 %
     Extraction speed 1.1 X
     Track quality 100.0 %
     Test CRC 9C89E496
     Copy CRC 9C89E496
     Track not present in AccurateRip database
     Copy OK
Track  3
     Filename C:\EAC Rips\The Who - Live at the Fillmore East 1968 (2018) {Geffen B0028266-02} [FLAC]\CD01\03. Tattoo.wav
     Peak level 99.4 %
     Extraction speed 1.1 X
     Track quality 99.9 %
     Test CRC FD1960D7
     Copy CRC FD1960D7
     Track not present in AccurateRip database
     Copy OK
Track  4
     Filename C:\EAC Rips\The Who - Live at the Fillmore East 1968 (2018) {Geffen B0028266-02} [FLAC]\CD01\04. Little Billy.wav
     Peak level 99.7 %
     Extraction speed 1.4 X
     Track quality 100.0 %
     Test CRC 1EC5A97A
     Copy CRC 1EC5A97A
     Track not present in AccurateRip database
     Copy OK
Track  5
     Filename C:\EAC Rips\The Who - Live at the Fillmore East 1968 (2018) {Geffen B0028266-02} [FLAC]\CD01\05. I Can't Explain.wav
     Peak level 99.8 %
     Extraction speed 1.4 X
     Track quality 100.0 %
     Test CRC F2C9CB35
     Copy CRC F2C9CB35
     Track not present in AccurateRip database
     Copy OK
Track  6
     Filename C:\EAC Rips\The Who - Live at the Fillmore East 1968 (2018) {Geffen B0028266-02} [FLAC]\CD01\06. Happy Jack.wav
     Peak level 99.3 %
     Extraction speed 1.2 X
     Track quality 99.9 %
     Test CRC 19064820
     Copy CRC 19064820
     Track not present in AccurateRip database
     Copy OK
Track  7
     Filename C:\EAC Rips\The Who - Live at the Fillmore East 1968 (2018) {Geffen B0028266-02} [FLAC]\CD01\07. Relax.wav
     Peak level 99.8 %
     Extraction speed 1.9 X
     Track quality 100.0 %
     Test CRC B4FF204F
     Copy CRC B4FF204F
     Track not present in AccurateRip database
     Copy OK
Track  8
     Filename C:\EAC Rips\The Who - Live at the Fillmore East 1968 (2018) {Geffen B0028266-02} [FLAC]\CD01\08. I'm a Boy.wav
     Peak level 99.6 %
     Extraction speed 1.6 X
     Track quality 99.9 %
     Test CRC 75C913DA
     Copy CRC 75C913DA
     Track not present in AccurateRip database
     Copy OK
Track  9
     Filename C:\EAC Rips\The Who - Live at the Fillmore East 1968 (2018) {Geffen B0028266-02} [FLAC]\CD01\09. A Quick One (While He's Away).wav
     Peak level 99.7 %
     Extraction speed 2.2 X
     Track quality 100.0 %
     Test CRC B009143F
     Copy CRC B009143F
     Track not present in AccurateRip database
     Copy OK
Track 10
     Filename C:\EAC Rips\The Who - Live at the Fillmore East 1968 (2018) {Geffen B0028266-02} [FLAC]\CD01\10. My Way.wav
     Peak level 99.3 %
     Extraction speed 1.8 X
     Track quality 99.9 %
     Test CRC 56EA507B
     Copy CRC 56EA507B
     Track not present in AccurateRip database
     Copy OK
Track 11
     Filename C:\EAC Rips\The Who - Live at the Fillmore East 1968 (2018) {Geffen B0028266-02} [FLAC]\CD01\11. C'mon Everybody.wav
     Peak level 99.5 %
     Extraction speed 1.5 X
     Track quality 99.9 %
     Test CRC 55A05C47
     Copy CRC 55A05C47
     Track not present in AccurateRip database
     Copy OK
Track 12
     Filename C:\EAC Rips\The Who - Live at the Fillmore East 1968 (2018) {Geffen B0028266-02} [FLAC]\CD01\12. Shakin' All Over.wav
     Peak level 99.7 %
     Extraction speed 2.4 X
     Track quality 100.0 %
     Test CRC 2A65353F
     Copy CRC 2A65353F
     Track not present in AccurateRip database
     Copy OK
Track 13
     Filename C:\EAC Rips\The Who - Live at the Fillmore East 1968 (2018) {Geffen B0028266-02} [FLAC]\CD01\13. Boris the Spider.wav
     Peak level 99.7 %
     Extraction speed 2.2 X
     Track quality 100.0 %
     Test CRC A7F64ECA
     Copy CRC A7F64ECA
     Track not present in AccurateRip database
     Copy OK
None of the tracks are present in the AccurateRip database
No errors occurred
End of status report
---- CUETools DB Plugin V2.1.6
[CTDB TOCID: Me1NIH6M2kK9MqoCT2Nz85DKovk-] found
Submit result: Me1NIH6M2kK9MqoCT2Nz85DKovk- has been confirmed
Track | CTDB Status
  1   | (136/136) Accurately ripped
  2   | (136/136) Accurately ripped
  3   | (136/136) Accurately ripped
  4   | (136/136) Accurately ripped
  5   | (136/136) Accurately ripped
  6   | (136/136) Accurately ripped
  7   | (136/136) Accurately ripped
  8   | (136/136) Accurately ripped
  9   | (136/136) Accurately ripped
 10   | (136/136) Accurately ripped
 11   | (136/136) Accurately ripped
 12   | (136/136) Accurately ripped
 13   | (135/136) Accurately ripped
==== Log checksum 81B55D321A6F9F647A72014090A0B4923B3E65F379D23C89EC66805504BA21CF ====
Код:
Exact Audio Copy V1.3 from 2. September 2016
EAC extraction logfile from 8. June 2018, 14:24
The Who / Live at the Fillmore East 1968
Used drive  : TSSTcorpCDDVDW SU-208DB   Adapter: 1  ID: 0
Read mode               : Secure
Utilize accurate stream : Yes
Defeat audio cache      : Yes
Make use of C2 pointers : No
Read offset correction                      : 48
Overread into Lead-In and Lead-Out          : No
Fill up missing offset samples with silence : Yes
Delete leading and trailing silent blocks   : No
Null samples used in CRC calculations       : Yes
Used interface                              : Native Win32 interface for Win NT & 2000
Gap handling                                : Appended to previous track
Used output format              : User Defined Encoder
Selected bitrate                : 128 kBit/s
Quality                         : High
Add ID3 tag                     : No
Command line compressor         : C:\Program Files (x86)\Exact Audio Copy\Flac\flac.exe
Additional command line options : -8 -V -T "ARTIST=%artist%" -T "TITLE=%title%" -T "ALBUM=%albumtitle%" -T "DATE=%year%" -T "TRACKNUMBER=%tracknr%" -T "GENRE=%genre%" -T "PERFORMER=%albuminterpret%" -T "COMPOSER=%composer%" %haslyrics%--tag-from-file=LYRICS="%lyricsfile%"%haslyrics% -T "ALBUMARTIST=%albumartist%" -T "DISCNUMBER=%cdnumber%" -T "TOTALDISCS=%totalcds%" -T "TOTALTRACKS=%numtracks%" -T "COMMENT=%comment%" %source% -o %dest%
TOC of the extracted CD
     Track |   Start  |  Length  | Start sector | End sector
    ---------------------------------------------------------
        1  |  0:00.00 | 33:05.06 |         0    |   148880
Track  1
     Filename C:\EAC Rips\The Who - Live at the Fillmore East 1968 (2018) {Geffen B0028266-02} [FLAC]\CD02\01. My Generation.wav
     Pre-gap length  0:00:02.00
     Peak level 99.7 %
     Extraction speed 3.3 X
     Track quality 100.0 %
     Test CRC C20D3A36
     Copy CRC C20D3A36
     Track not present in AccurateRip database
     Copy OK
None of the tracks are present in the AccurateRip database
No errors occurred
End of status report
---- CUETools DB Plugin V2.1.6
[CTDB TOCID: s08zEJcw_.0pTcR_zmfdWw9gOG8-] found
Submit result: s08zEJcw_.0pTcR_zmfdWw9gOG8- has been confirmed
Track | CTDB Status
  1   | (136/137) Accurately ripped
==== Log checksum 246B596FD39095DA8C77C08B5D6AEA91547430E4A450E6CAB0D6895D482F368E ====
Код:
REM DISCID A60DF90D
REM COMMENT "ExactAudioCopy v1.3"
CATALOG 0602567444862
PERFORMER "The Who"
TITLE "Live at The Fillmore East - Disc 1"
REM COMPOSER ""
FILE "01. Summertime Blues.wav" WAVE
  TRACK 01 AUDIO
    TITLE "Summertime Blues"
    PERFORMER "The Who"
    REM COMPOSER ""
    ISRC GBUM71800591
    FLAGS DCP
    INDEX 01 00:00:00
FILE "02. Fortune Teller.wav" WAVE
  TRACK 02 AUDIO
    TITLE "Fortune Teller"
    PERFORMER "The Who"
    REM COMPOSER ""
    ISRC GBUM71800592
    FLAGS DCP
    INDEX 01 00:00:00
FILE "03. Tattoo.wav" WAVE
  TRACK 03 AUDIO
    TITLE "Tattoo"
    PERFORMER "The Who"
    REM COMPOSER ""
    ISRC GBUM71800593
    FLAGS DCP
    INDEX 01 00:00:00
FILE "04. Little Billy.wav" WAVE
  TRACK 04 AUDIO
    TITLE "Little Billy"
    PERFORMER "The Who"
    REM COMPOSER ""
    ISRC GBUM71800594
    FLAGS DCP
    INDEX 01 00:00:00
FILE "05. I Can't Explain.wav" WAVE
  TRACK 05 AUDIO
    TITLE "I Can't Explain"
    PERFORMER "The Who"
    REM COMPOSER ""
    ISRC GBUM71800595
    FLAGS DCP
    INDEX 01 00:00:00
FILE "06. Happy Jack.wav" WAVE
  TRACK 06 AUDIO
    TITLE "Happy Jack"
    PERFORMER "The Who"
    REM COMPOSER ""
    ISRC GBUM71800596
    FLAGS DCP
    INDEX 01 00:00:00
FILE "07. Relax.wav" WAVE
  TRACK 07 AUDIO
    TITLE "Relax"
    PERFORMER "The Who"
    REM COMPOSER ""
    ISRC GBUM71800597
    FLAGS DCP
    INDEX 01 00:00:00
FILE "08. I'm A Boy.wav" WAVE
  TRACK 08 AUDIO
    TITLE "I'm A Boy"
    PERFORMER "The Who"
    REM COMPOSER ""
    ISRC GBUM71800598
    FLAGS DCP
    INDEX 01 00:00:00
FILE "09. A Quick One, While He's Away.wav" WAVE
  TRACK 09 AUDIO
    TITLE "A Quick One, While He's Away"
    PERFORMER "The Who"
    REM COMPOSER ""
    ISRC GBUM71800599
    FLAGS DCP
    INDEX 01 00:00:00
FILE "10. My Way.wav" WAVE
  TRACK 10 AUDIO
    TITLE "My Way"
    PERFORMER "The Who"
    REM COMPOSER ""
    ISRC GBUM71800600
    FLAGS DCP
    INDEX 01 00:00:00
FILE "11. C'mon Everybody.wav" WAVE
  TRACK 11 AUDIO
    TITLE "C'mon Everybody"
    PERFORMER "The Who"
    REM COMPOSER ""
    ISRC GBUM71800601
    FLAGS DCP
    INDEX 01 00:00:00
FILE "12. Shakin' All Over.wav" WAVE
  TRACK 12 AUDIO
    TITLE "Shakin' All Over"
    PERFORMER "The Who"
    REM COMPOSER ""
    ISRC GBUM71800602
    FLAGS DCP
    INDEX 01 00:00:00
FILE "13. Boris The Spider.wav" WAVE
  TRACK 13 AUDIO
    TITLE "Boris The Spider"
    PERFORMER "The Who"
    REM COMPOSER ""
    ISRC GBUM71800603
    FLAGS DCP
    INDEX 01 00:00:00
Код:
REM DISCID 0207C101
REM COMMENT "ExactAudioCopy v1.3"
CATALOG 0602567444879
PERFORMER "The Who"
TITLE "Live At the Fillmore East - Disc 2"
REM COMPOSER ""
FILE "01. My Generation.wav" WAVE
  TRACK 01 AUDIO
    TITLE "My Generation"
    PERFORMER "The Who"
    REM COMPOSER ""
    ISRC GBUM71800604
    FLAGS DCP
    INDEX 01 00:00:00
Код:
AUDIOCHECKER v2.0 beta (build 457) - by Dester - opdester@freemail.hu
~~~~~~~~~~~~~~~~~~~~~~~~~~~~~~~~~~
Started at: воскресенье, 10. 06. 2018. - 16:26.49
14 files found
01 -===- G:\Torrent music\The Who - Live At The Fillmore East 1968 (2018)(Geffen Records UMe B0028266-02 CD DLX US)\Disc 1\01. Summertime Blues.flac
  Extracted successfully
  Conclusion: this track is CDDA with probability 100%
  Tempfile successfully deleted.
02 -===- G:\Torrent music\The Who - Live At The Fillmore East 1968 (2018)(Geffen Records UMe B0028266-02 CD DLX US)\Disc 1\02. Fortune Teller.flac
  Extracted successfully
  Conclusion: this track is CDDA with probability 100%
  Tempfile successfully deleted.
03 -===- G:\Torrent music\The Who - Live At The Fillmore East 1968 (2018)(Geffen Records UMe B0028266-02 CD DLX US)\Disc 1\03. Tattoo.flac
  Extracted successfully
  Conclusion: this track is CDDA with probability 100%
  Tempfile successfully deleted.
04 -===- G:\Torrent music\The Who - Live At The Fillmore East 1968 (2018)(Geffen Records UMe B0028266-02 CD DLX US)\Disc 1\04. Little Billy.flac
  Extracted successfully
  Conclusion: this track is CDDA with probability 100%
  Tempfile successfully deleted.
05 -===- G:\Torrent music\The Who - Live At The Fillmore East 1968 (2018)(Geffen Records UMe B0028266-02 CD DLX US)\Disc 1\05. I Can't Explain.flac
  Extracted successfully
  Conclusion: this track is CDDA with probability 99%
  Tempfile successfully deleted.
06 -===- G:\Torrent music\The Who - Live At The Fillmore East 1968 (2018)(Geffen Records UMe B0028266-02 CD DLX US)\Disc 1\06. Happy Jack.flac
  Extracted successfully
  Conclusion: this track is CDDA with probability 99%
  Tempfile successfully deleted.
07 -===- G:\Torrent music\The Who - Live At The Fillmore East 1968 (2018)(Geffen Records UMe B0028266-02 CD DLX US)\Disc 1\07. Relax.flac
  Extracted successfully
  Conclusion: this track is CDDA with probability 100%
  Tempfile successfully deleted.
08 -===- G:\Torrent music\The Who - Live At The Fillmore East 1968 (2018)(Geffen Records UMe B0028266-02 CD DLX US)\Disc 1\08. I'm a Boy.flac
  Extracted successfully
  Conclusion: this track is CDDA with probability 99%
  Tempfile successfully deleted.
09 -===- G:\Torrent music\The Who - Live At The Fillmore East 1968 (2018)(Geffen Records UMe B0028266-02 CD DLX US)\Disc 1\09. A Quick One (While He's Away).flac
  Extracted successfully
  Conclusion: this track is CDDA with probability 100%
  Tempfile successfully deleted.
10 -===- G:\Torrent music\The Who - Live At The Fillmore East 1968 (2018)(Geffen Records UMe B0028266-02 CD DLX US)\Disc 1\10. My Way.flac
  Extracted successfully
  Conclusion: this track is CDDA with probability 99%
  Tempfile successfully deleted.
11 -===- G:\Torrent music\The Who - Live At The Fillmore East 1968 (2018)(Geffen Records UMe B0028266-02 CD DLX US)\Disc 1\11. C'mon Everybody.flac
  Extracted successfully
  Conclusion: this track is CDDA with probability 100%
  Tempfile successfully deleted.
12 -===- G:\Torrent music\The Who - Live At The Fillmore East 1968 (2018)(Geffen Records UMe B0028266-02 CD DLX US)\Disc 1\12. Shakin' All Over.flac
  Extracted successfully
  Conclusion: this track is CDDA with probability 100%
  Tempfile successfully deleted.
13 -===- G:\Torrent music\The Who - Live At The Fillmore East 1968 (2018)(Geffen Records UMe B0028266-02 CD DLX US)\Disc 1\13. Boris the Spider.flac
  Extracted successfully
  Conclusion: this track is CDDA with probability 100%
  Tempfile successfully deleted.
14 -===- G:\Torrent music\The Who - Live At The Fillmore East 1968 (2018)(Geffen Records UMe B0028266-02 CD DLX US)\Disc 2\01. My Generation.flac
  Extracted successfully
  Conclusion: this track is CDDA with probability 100%
  Tempfile successfully deleted.
Finished at: воскресенье, 10. 06. 2018. - 16:31.02 (operation time: 0:04.12)
загрузка...
Правила, инструкции, FAQ!!!
Торрент  Добавлен [16 июн 2018, 11:43] Скачать торрент Магнет ссылка
Скачать торрент
[ Размер 12.7 КБ / Просмотров 67 ]

Статус
Проверен 
 
Размер  560.58 МБ
Приватный: Нет (DHT включён)
.torrent скачан  1
Как залить торрент? | Как скачать Torrent? | Ошибка в торренте? Качайте магнет  


     Отправить личное сообщение
   
Страница 1 из 1
Показать сообщения за:  Поле сортировки  
Начать новую тему Ответить на тему

   Похожие торренты   Автор   Ответы   Просмотры   Последнее сообщение 
В этой теме нет новых непрочитанных сообщений. Скачать торрент Проверен (Blues-Rock) The Allman Brothers Band - At Fillmore East (Deluxe Edition Japan SHM-CD) - 2009, FLAC (tracks+.cue), lossless

в форуме Blues (Texas, Chicago, Modern and Others), Размер: 1.4 ГБ, Здоровье: 100%

Anonymous

0
15|2

7
1

16 окт 2016, 15:11

Anonymous Перейти к последнему сообщению

В этой теме нет новых непрочитанных сообщений. Скачать торрент Проверен The Allman Brothers Band - At Fillmore East (1971) 2SHM-CD Deluxe Edition /2009, Capricorn/ [FLAC|Lossless]<Rock, Boogie Rock>

в форуме Рок, Панк, Метал, Альтернатива, Размер: 1.02 ГБ, Здоровье: 100%

Anonymous

0
2|1

52
0

21 июл 2014, 09:18

Anonymous Перейти к последнему сообщению

В этой теме нет новых непрочитанных сообщений. Скачать торрент Проверен [TR24][OF] Sly & The Family Stone - Live At The Fillmore East October 4th & 5th, 1968 - 2015 (Rock, Funk, Soul)

в форуме Hi-Res stereo (Поп), Размер: 4.39 ГБ, Здоровье: 100%

Anonymous

0
35|7

39
1

03 июл 2018, 22:26

Anonymous Перейти к последнему сообщению

В этой теме нет новых непрочитанных сообщений. Скачать торрент Проверен (Rock) [CD] Santana - Live At The Fillmore 1968 - 1997, FLAC (tracks+.cue), lossless

в форуме Classic Rock & Hard Rock, Размер: 653.9 МБ, Здоровье: 53%

Anonymous

0
7|13

77
0

12 дек 2016, 23:41

Anonymous Перейти к последнему сообщению

В этой теме нет новых непрочитанных сообщений. Скачать торрент Проверен (Classic Rock) [CD] Jimi Hendrix & The Band of Gypsys - Live at the Fillmore East (2CD) - 1999, FLAC (image+.cue), lossless

в форуме Classic Rock & Hard Rock, Размер: 805.75 МБ, Здоровье: 100%

Anonymous

0
21|7

42
0

05 сен 2016, 21:22

Anonymous Перейти к последнему сообщению



Сейчас этот форум просматривают: нет зарегистрированных пользователей и гости: 1


Вы не можете начинать темы
Вы не можете отвечать на сообщения
Вы не можете редактировать свои сообщения
Вы не можете удалять свои сообщения
Вы не можете добавлять вложения

Перейти:  
Ресурс не предоставляет электронные версии произведений, а занимается лишь коллекционированием и каталогизацией ссылок, присылаемых и публикуемых на форуме нашими читателями. Если вы являетесь правообладателем какого-либо представленного материала и не желаете чтобы ссылка на него находилась в нашем каталоге, свяжитесь с нами и мы незамедлительно удалим её. Файлы для обмена на трекере предоставлены пользователями сайта, и администрация не несёт ответственности за их содержание. Просьба не заливать файлы, защищенные авторскими правами, а также файлы нелегального содержания!
cron