На всех торрентах на трекере установлена скидка на скачивание в размере 100 процентов(а).
 Возможность скачивания торрента НЕ зависит от ограничений при низком ратио, низком аплоаде, требуемом ратио или требуемом аплоаде.


Начать новую тему Ответить на тему
Статистика раздачи
Размер: 423.16 МБ | Добавлен: 16 июн 2018, 12:51 | Скачали: 0
Сидеров: 10  [0 байт/сек]    Личеров: 3  [0 байт/сек]
Пред. тема | След. тема 

Автор
Сообщение

СообщениеДобавлено: 16 июн 2018, 12:51 

Ответить с цитатой 

The Nice / The Nice Collection
Жанр: Rock, Prog Rock, Symphonic Rock
Носитель: CD
Страна-производитель диска (релиза): Germany
Год издания: 1989
Издатель (лейбл): Immediate, Line
Номер по каталогу: IDCD 9.00720 O
Страна исполнителя (группы): England
Аудиокодек: FLAC (*.flac)
Тип рипа: image+.cue
Битрейт аудио: lossless
Продолжительность: 1:12:03
Источник (релизер): alexharvey
Наличие сканов в содержимом раздачи: да
Треклист:
01. America
02. Daddy Where Did I Come From?
03. Rondo
04. The Thoughts Of Emerlist Davjack
05. Brandenburger
06. War And Peace
07. Intermezzo From Karelia Suite / Don Edito El Gruva
08. Azrial (Angel Of Death)
09. Hang On To A Dream
10. For Example
11. She Belongs To Me
Код:
Exact Audio Copy V1.3 from 2. September 2016
EAC extraction logfile from 16. June 2018, 0:43
The Nice / The Nice Collection
Used drive  : SONY    DVD RW DRX-S70U   Adapter: 1  ID: 0
Read mode               : Secure
Utilize accurate stream : Yes
Defeat audio cache      : Yes
Make use of C2 pointers : No
Read offset correction                      : 48
Overread into Lead-In and Lead-Out          : No
Fill up missing offset samples with silence : Yes
Delete leading and trailing silent blocks   : No
Null samples used in CRC calculations       : Yes
Used interface                              : Native Win32 interface for Win NT & 2000
Used output format : Internal WAV Routines
Sample format      : 44.100 Hz; 16 Bit; Stereo
TOC of the extracted CD
     Track |   Start  |  Length  | Start sector | End sector
    ---------------------------------------------------------
        1  |  0:00.00 |  6:24.00 |         0    |    28799
        2  |  6:24.00 |  3:43.65 |     28800    |    45589
        3  | 10:07.65 |  8:22.47 |     45590    |    83286
        4  | 18:30.37 |  2:49.00 |     83287    |    95961
        5  | 21:19.37 |  4:43.58 |     95962    |   117244
        6  | 26:03.20 |  5:15.67 |    117245    |   140936
        7  | 31:19.12 |  9:12.13 |    140937    |   182349
        8  | 40:31.25 |  6:01.12 |    182350    |   209436
        9  | 46:32.37 |  4:47.50 |    209437    |   231011
       10  | 51:20.12 |  8:54.38 |    231012    |   271099
       11  | 60:14.50 | 11:48.25 |    271100    |   324224
Range status and errors
Selected range
     Filename F:\Alexharvey\The Nice - The Nice Collection.wav
     Peak level 100.0 %
     Extraction speed 2.2 X
     Range quality 99.9 %
     Test CRC 6FB17B16
     Copy CRC 6FB17B16
     Copy OK
No errors occurred
AccurateRip summary
Track  1  accurately ripped (confidence 2)  [BD99936B]  (AR v1)
Track  2  accurately ripped (confidence 2)  [344E371D]  (AR v2)
Track  3  accurately ripped (confidence 2)  [BE4E00D5]  (AR v2)
Track  4  accurately ripped (confidence 2)  [E972E24E]  (AR v2)
Track  5  accurately ripped (confidence 2)  [40B2F45A]  (AR v2)
Track  6  accurately ripped (confidence 2)  [F3ED4DD7]  (AR v2)
Track  7  accurately ripped (confidence 2)  [C3A3C32A]  (AR v2)
Track  8  accurately ripped (confidence 2)  [EB3DB46A]  (AR v2)
Track  9  accurately ripped (confidence 2)  [6F4178AB]  (AR v2)
Track 10  accurately ripped (confidence 2)  [AC46E6D5]  (AR v2)
Track 11  accurately ripped (confidence 2)  [4BAB8901]  (AR v2)
All tracks accurately ripped
End of status report
---- CUETools DB Plugin V2.1.6
[CTDB TOCID: E.WDKgozcnbyp_ZuXAKAxacGzbc-] found
Submit result: E.WDKgozcnbyp_ZuXAKAxacGzbc- has been confirmed
Track | CTDB Status
  1   | (2/2) Accurately ripped
  2   | (2/2) Accurately ripped
  3   | (2/2) Accurately ripped
  4   | (2/2) Accurately ripped
  5   | (2/2) Accurately ripped
  6   | (2/2) Accurately ripped
  7   | (2/2) Accurately ripped
  8   | (2/2) Accurately ripped
  9   | (2/2) Accurately ripped
 10   | (2/2) Accurately ripped
 11   | (2/2) Accurately ripped
==== Log checksum E5B99DFD7AD8C0E1682832E196FD3A100EA693758705188741A2DEEB35BDAB25 ====
Код:
REM GENRE "Progressive Rock"
REM DATE 1989
REM DISCID 9510E30B
REM COMMENT "ExactAudioCopy v1.3"
PERFORMER "The Nice"
TITLE "The Nice Collection"
REM COMPOSER ""
FILE "The Nice - The Nice Collection.flac" WAVE
  TRACK 01 AUDIO
    TITLE "America"
    PERFORMER "The Nice"
    REM COMPOSER ""
    INDEX 01 00:00:00
  TRACK 02 AUDIO
    TITLE "Daddy Where Did I Come From?"
    PERFORMER "The Nice"
    REM COMPOSER ""
    INDEX 01 06:24:00
  TRACK 03 AUDIO
    TITLE "Rondo"
    PERFORMER "The Nice"
    REM COMPOSER ""
    INDEX 01 10:07:65
  TRACK 04 AUDIO
    TITLE "The Thoughts Of Emerlist Davjack"
    PERFORMER "The Nice"
    REM COMPOSER ""
    INDEX 01 18:30:37
  TRACK 05 AUDIO
    TITLE "Brandenburger"
    PERFORMER "The Nice"
    REM COMPOSER ""
    INDEX 01 21:19:37
  TRACK 06 AUDIO
    TITLE "War And Peace"
    PERFORMER "The Nice"
    REM COMPOSER ""
    INDEX 01 26:03:20
  TRACK 07 AUDIO
    TITLE "Intermezzo From Karelia Suite / Don Edito El Gruva"
    PERFORMER "The Nice"
    REM COMPOSER ""
    INDEX 01 31:19:12
  TRACK 08 AUDIO
    TITLE "Azrial (Angel Of Death)"
    PERFORMER "The Nice"
    REM COMPOSER ""
    INDEX 01 40:31:25
  TRACK 09 AUDIO
    TITLE "Hang On To A Dream"
    PERFORMER "The Nice"
    REM COMPOSER ""
    INDEX 01 46:32:37
  TRACK 10 AUDIO
    TITLE "For Example"
    PERFORMER "The Nice"
    REM COMPOSER ""
    INDEX 01 51:20:12
  TRACK 11 AUDIO
    TITLE "She Belongs To Me"
    PERFORMER "The Nice"
    REM COMPOSER ""
    INDEX 01 60:14:50
Код:
foobar2000 1.3.17 / Dynamic Range Meter 1.1.1
log date: 2018-06-16 01:31:38
--------------------------------------------------------------------------------
Analyzed: The Nice / The Nice Collection
--------------------------------------------------------------------------------
DR         Peak         RMS     Duration Track
--------------------------------------------------------------------------------
DR10      -0.01 dB   -12.13 dB      6:24 01-America
DR11      -4.15 dB   -17.18 dB      3:44 02-Daddy Where Did I Come From?
DR11      -1.16 dB   -14.52 dB      8:23 03-Rondo
DR11      -0.90 dB   -15.93 dB      2:49 04-The Thoughts Of Emerlist Davjack
DR11      -1.42 dB   -14.92 dB      4:44 05-Brandenburger
DR12      -1.42 dB   -16.19 dB      5:16 06-War And Peace
DR13       0.00 dB   -17.10 dB      9:12 07-Intermezzo From Karelia Suite / Don Edito El Gruva
DR12       0.00 dB   -15.78 dB      6:01 08-Azrial (Angel Of Death)
DR13      -2.32 dB   -18.50 dB      4:48 09-Hang On To A Dream
DR14      -1.28 dB   -19.77 dB      8:55 10-For Example
DR12      -0.46 dB   -17.07 dB     11:48 11-She Belongs To Me
--------------------------------------------------------------------------------
Number of tracks:  11
Official DR value: DR12
Samplerate:        44100 Hz
Channels:          2
Bits per sample:   16
Bitrate:           773 kbps
Codec:             FLAC
================================================================================

Раздаю до первых 5-ти скачавших, на раздачи не возвращаюсь...

Правила, инструкции, FAQ!!!
Торрент  Добавлен [16 июн 2018, 12:51] Скачать торрент Магнет ссылка
Скачать торрент
[ Размер 17.72 КБ / Просмотров 22 ]

Статус
Проверен 
 
Размер  423.16 МБ
Приватный: Нет (DHT включён)
.torrent скачан  0
Как залить торрент? | Как скачать Torrent? | Ошибка в торренте? Качайте магнет  
загрузка...


     Отправить личное сообщение
   
Страница 1 из 1
Показать сообщения за:  Поле сортировки  
Начать новую тему Ответить на тему

   Похожие торренты   Автор   Ответы   Просмотры   Последнее сообщение 
В этой теме нет новых непрочитанных сообщений. Скачать торрент Проверен (Prog-Rock/ Art) The Nice - The Nice Collection - 1985, FLAC (image+.cue), lossless

в форуме Progressive & Art-Rock, Размер: 332.34 МБ, Здоровье: 100%

Anonymous

0
3|1

32
0

31 авг 2016, 18:05

Anonymous Перейти к последнему сообщению

В этой теме нет новых непрочитанных сообщений. Скачать торрент Проверен (Symphonic-Rock/Progressive Rock) [LP] [24/96] The Nice - Nice - 1969, FLAC (tracks+.cue)

в форуме Зарубежный рок (оцифровки), Размер: 981.75 МБ, Здоровье: 100%

Anonymous

0
27|2

23
1

26 авг 2016, 08:30

Anonymous Перейти к последнему сообщению

В этой теме нет новых непрочитанных сообщений. Скачать торрент Проверен (Fusion, Jazz-Funk, Disco) [CD] Kangaroo - Nice! Nice!! Nice!!! - 1984 (2014 Japan Edition), FLAC (tracks), lossless

в форуме Jazz Fusion, Размер: 281.2 МБ, Здоровье: 100%

Anonymous

0
8|0

10
1

14 сен 2017, 21:13

Anonymous Перейти к последнему сообщению

В этой теме нет новых непрочитанных сообщений. Скачать торрент Проверен (Prog Rock) The Nice - Intermezzo (1972) - 1989, FLAC (image+.cue), lossless

в форуме Progressive & Art-Rock, Размер: 261.24 МБ, Здоровье: 0%

Anonymous

0
0|0

4
0

30 авг 2016, 19:17

Anonymous Перейти к последнему сообщению

В этой теме нет новых непрочитанных сообщений. Скачать торрент Проверен (art-rock) NICE THE The Nice (covers) george moscow - 1969, APE (image + .cue), lossless

в форуме Progressive & Art-Rock, Размер: 233.18 МБ, Здоровье: 0%

Anonymous

0
0|0

16
0

31 авг 2016, 18:05

Anonymous Перейти к последнему сообщению



Сейчас этот форум просматривают: нет зарегистрированных пользователей и гости: 0


Вы не можете начинать темы
Вы не можете отвечать на сообщения
Вы не можете редактировать свои сообщения
Вы не можете удалять свои сообщения
Вы не можете добавлять вложения

Перейти:  
Ресурс не предоставляет электронные версии произведений, а занимается лишь коллекционированием и каталогизацией ссылок, присылаемых и публикуемых на форуме нашими читателями. Если вы являетесь правообладателем какого-либо представленного материала и не желаете чтобы ссылка на него находилась в нашем каталоге, свяжитесь с нами и мы незамедлительно удалим её. Файлы для обмена на трекере предоставлены пользователями сайта, и администрация не несёт ответственности за их содержание. Просьба не заливать файлы, защищенные авторскими правами, а также файлы нелегального содержания!
cron