На всех торрентах на трекере установлена скидка на скачивание в размере 100 процентов(а).
 Возможность скачивания торрента НЕ зависит от ограничений при низком ратио, низком аплоаде, требуемом ратио или требуемом аплоаде.


Начать новую тему Ответить на тему
Статистика раздачи
Размер: 3.33 ГБ | Добавлен: 15 апр 2018, 18:46 | Скачали: 2
Сидеров: 6  [0 байт/сек]    Личеров: 5  [0 байт/сек]
Пред. тема | След. тема 

Автор
Сообщение

СообщениеДобавлено: 15 апр 2018, 18:46 

Ответить с цитатой 

Don Johnson - 1986 - Heartbeat
Жанр: Rock, Pop-rock
Год выпуска диска: 1986
Производитель диска: US
Релиз: Discogs
Лейбл: Epic
Аудио кодек: DSD
Тип рипа: tracks
Формат записи: 1bit/5,6MHz
Формат раздачи: 1bit/5,6MHz
Продолжительность: 00:42:14
Трэклист:
01. Heartbeat
02. Voice On A Hotline
03. The Last Sound Love Makes
04. Lost In Your Eyes
05. Coco Don't
06. Heartache Away
07. Love Roulette
08. Star Tonight
09. Gotta Get Away
10. Can't Take Your Memory
Источник оцифровки: автором раздачи
Код класса состояния винила: Very Good+
Устройство воспроизведения: JVC QL-A70
Головка звукоснимателя: AT95E
Предварительный усилитель: Korg DS-DAC-10R
АЦП: Korg DS-DAC-10R
Программа-оцифровщик: Korg AudioGate 4
Обработка: Без обработки

foobar2000 1.3.16 / Замер динамического диапазона (DR) 1.1.1
Дата отчёта: 2018-04-13 19:08:45
--------------------------------------------------------------------------------
Анализ: Don Johnson / Heartbeat
--------------------------------------------------------------------------------
DR Пики RMS Продолжительность трека
--------------------------------------------------------------------------------
DR13 -5.56 дБ -20.74 дБ 4:23 01-Heartbeat
DR12 -6.76 дБ -21.47 дБ 4:02 02-Voice On A Hotline
DR13 -6.09 дБ -21.09 дБ 4:31 03-The Last Sound Love Makes
DR13 -7.46 дБ -22.95 дБ 4:33 04-Lost In Your Eyes
DR13 -6.73 дБ -22.28 дБ 3:35 05-Coco Don't
DR13 -6.12 дБ -21.88 дБ 4:53 06-Heartache Away
DR12 -6.21 дБ -20.46 дБ 4:22 07-Love Roulette
DR14 -6.75 дБ -23.16 дБ 2:58 08-Star Tonight
DR14 -6.99 дБ -22.79 дБ 4:28 09-Gotta Get Away
DR11 -11.08 дБ -25.39 дБ 4:29 10-Can't Take Your Memory
--------------------------------------------------------------------------------
Количество треков: 10
Реальные значения DR: DR13
Частота: 5644800 Гц / Частота PCM: 176400 Гц
Каналов: 2
Разрядность: 1
Битрейт: 11290 кбит/с
Кодек: DSD128
================================================================================
загрузка...
Правила, инструкции, FAQ!!!
Торрент  Добавлен [15 апр 2018, 18:46] Скачать торрент Магнет ссылка
Скачать торрент
[ Размер 34.43 КБ / Просмотров 62 ]

Статус
Проверен 
 
Размер  3.33 ГБ
Приватный: Нет (DHT включён)
.torrent скачан  2
Как залить торрент? | Как скачать Torrent? | Ошибка в торренте? Качайте магнет  


     Отправить личное сообщение
   
Страница 1 из 1
Показать сообщения за:  Поле сортировки  
Начать новую тему Ответить на тему

   Похожие торренты   Автор   Ответы   Просмотры   Последнее сообщение 
В этой теме нет новых непрочитанных сообщений. Скачать торрент Проверен (Blues) Jimmy Johnson - Johnson's Whacks - 1979 (1993), FLAC (tracks+.cue), lossless

в форуме Blues (Texas, Chicago, Modern and Others), Размер: 247.72 МБ, Здоровье: ???%

Anonymous

0
0|27

17
1

15 окт 2016, 18:25

Anonymous Перейти к последнему сообщению

В этой теме нет новых непрочитанных сообщений. Скачать торрент Проверен (Indie Rock) [2LP] [1bit / 5,6MHz] Tindersticks – The First Tindersticks Album - 2011/1993, DSD (tracks)

в форуме Зарубежный рок (оцифровки), Размер: 6.05 ГБ, Здоровье: 100%

Anonymous

0
2|0

17
3

26 авг 2016, 16:24

Anonymous Перейти к последнему сообщению

В этой теме нет новых непрочитанных сообщений. Скачать торрент Проверен (Synth-pop) [LP] [1/5,6MHz] Pet Shop Boys - Please - 1986, DSD (tracks)

в форуме Зарубежная поп-музыка (оцифровки), Размер: 3.37 ГБ, Здоровье: 100%

Anonymous

0
79|3

22
4

20 янв 2018, 11:07

Anonymous Перейти к последнему сообщению

В этой теме нет новых непрочитанных сообщений. Скачать торрент Проверен (Disco) [LP] [1bit/5,6MHz] Phyllis Nelson - I Like You - 1986, DSD (tracks)

в форуме Зарубежная поп-музыка (оцифровки), Размер: 3.56 ГБ, Здоровье: 100%

Anonymous

0
2|1

13
1

19 янв 2018, 14:42

Anonymous Перейти к последнему сообщению

В этой теме нет новых непрочитанных сообщений. Скачать торрент Проверен (Euro - Disco) [EP 12"] [24/96] Bad Boys Blue - I Wanna Hear Your Heartbeat (Sunday Girl) - 1986, FLAC (tracks)

в форуме Зарубежная поп-музыка (оцифровки), Размер: 270.54 МБ, Здоровье: 100%

Anonymous

0
5|1

12
0

19 янв 2018, 15:14

Anonymous Перейти к последнему сообщению



Сейчас этот форум просматривают: нет зарегистрированных пользователей и гости: 0


Вы не можете начинать темы
Вы не можете отвечать на сообщения
Вы не можете редактировать свои сообщения
Вы не можете удалять свои сообщения
Вы не можете добавлять вложения

Перейти:  
Ресурс не предоставляет электронные версии произведений, а занимается лишь коллекционированием и каталогизацией ссылок, присылаемых и публикуемых на форуме нашими читателями. Если вы являетесь правообладателем какого-либо представленного материала и не желаете чтобы ссылка на него находилась в нашем каталоге, свяжитесь с нами и мы незамедлительно удалим её. Файлы для обмена на трекере предоставлены пользователями сайта, и администрация не несёт ответственности за их содержание. Просьба не заливать файлы, защищенные авторскими правами, а также файлы нелегального содержания!
cron