На всех торрентах на трекере установлена скидка на скачивание в размере 100 процентов(а).
 Возможность скачивания торрента НЕ зависит от ограничений при низком ратио, низком аплоаде, требуемом ратио или требуемом аплоаде.


Начать новую тему Ответить на тему
Статистика раздачи
Размер: 305.6 МБ | Добавлен: 05 сен 2016, 18:43 | Скачали: 0
Сидеров: 2  [0 байт/сек]    Личеров: 1  [0 байт/сек]
Пред. тема | След. тема 

Автор
Сообщение

СообщениеДобавлено: 05 сен 2016, 18:43 

Ответить с цитатой 

Kingdom Come

Жанр: Rock
Страна-производитель диска: Germany
Год издания диска: 1988 (2002)
Издатель (лейбл): p&c1988 Polygram Records, p2002 Monsters Of Rock
Номер по каталогу: MOFR 0222
Страна: Germany
Аудиокодек: WavPack (*.wv)
Тип рипа: iso.wv
Битрейт аудио: lossless
Продолжительность: 47:38
Источник (релизер): Solistic
Наличие сканов в содержимом раздачи: да

Состав
James Kottak - Drums
Rick Steier - Rhytm Guitar
Lenny Wolf - Vocals
Johnny B. Frank - Bass Guitar
Danny Stag - Lead Guitar

Треклист:
01. Living Out of Touch 4:19
02. Pushin' Hard 4:47
03. What Love Can Be 5:15
04. 17 5:28
05. The Shuffle 3:40
06. Get It On 4:23
07. Now Forever After 5:41
08. Hideaway 5:39
09. Loving You 4:47
10. Shout It Out 3:40
Код:
Exact Audio Copy V1.0 beta 3 from 29. August 2011

Отчёт EAC об извлечении, выполненном 8. января 2012, 15:17

Kingdom Come / Kingdom Come

Дисковод: Optiarc DVD RW AD-7260S   Adapter: 5  ID: 1

Режим чтения                 : Достоверность
Использование точного потока : Да
Отключение кэша аудио        : Да
Использование указателей C2  : Нет

Коррекция смещения при чтении                     : 48
Способность читать области Lead-in и Lead-out     : Нет
Заполнение пропущенных сэмплов тишиной            : Да
Удаление блоков с тишиной в начале и конце        : Нет
При вычислениях CRC использовались нулевые сэмплы : Да
Интерфейс                                         : Встроенный Win32-интерфейс для Win NT/2000

Выходной формат          : Пользовательский кодировщик
Выбранный битрейт        : 768 kBit/s
Качество                 : Высокий
Добавление ID3-тега      : Нет
Утилита сжатия           : C:\Program Files (x86)\Exact Audio Copy\wavpack.exe
Дополнительные параметры : -hm -w "Year=%year%" -w "Genre=%genre%" %source% %dest%

TOC извлечённого CD

     Трек |   Старт  | Длительность | Начальный сектор | Конечный сектор
    ---------------------------------------------------------------------
       1  |  0:00.32 |    4:18.40   |          32      |      19421
       2  |  4:18.72 |    4:47.30   |       19422      |      40976
       3  |  9:06.27 |    5:15.05   |       40977      |      64606
       4  | 14:21.32 |    5:28.00   |       64607      |      89206
       5  | 19:49.32 |    3:39.38   |       89207      |     105669
       6  | 23:28.70 |    4:22.67   |      105670      |     125386
       7  | 27:51.62 |    5:40.45   |      125387      |     150931
       8  | 33:32.32 |    5:39.30   |      150932      |     176386
       9  | 39:11.62 |    4:47.23   |      176387      |     197934
      10  | 43:59.10 |    3:39.55   |      197935      |     214414

Характеристики диапазона извлечения и сообщения об ошибках

Выбранный диапазон

     Имя файла C:\Users\Solistic\Music\Kingdom Come\1988 - Kingdome Come\Kingdom Come - Kingdom Come.wav

     Пиковый уровень 93.3 %
     Скорость извлечения 3.9 X
     Качество диапазона 99.9 %
     CRC теста 88230E19
     CRC копии 88230E19
     Копирование... OK

Ошибок не произошло

AccurateRip: сводка

Трек  1  точность не определена (достоверность 21)  [E34CE6AC], AccurateRip вернул [0B415875]  (AR v2)
Трек  2  точность не определена (достоверность 21)  [A3F2DD22], AccurateRip вернул [74091056]  (AR v2)
Трек  3  точность не определена (достоверность 19)  [FD1B7C11], AccurateRip вернул [8B288E98]  (AR v2)
Трек  4  точность не определена (достоверность 22)  [3AC06A27], AccurateRip вернул [FB99079F]  (AR v2)
Трек  5  точность не определена (достоверность 21)  [DD4863CA], AccurateRip вернул [9EC947DC]  (AR v2)
Трек  6  точность не определена (достоверность 20)  [DF1A77C7], AccurateRip вернул [FFECA07F]  (AR v2)
Трек  7  точность не определена (достоверность 20)  [10F806C9], AccurateRip вернул [98EEF866]  (AR v2)
Трек  8  точность не определена (достоверность 21)  [CBA66E79], AccurateRip вернул [66BDD91A]  (AR v2)
Трек  9  точность не определена (достоверность 20)  [C0B9E1FC], AccurateRip вернул [5D7D672A]  (AR v2)
Трек 10  точность не определена (достоверность 20)  [1F0367F0], AccurateRip вернул [531602DB]  (AR v2)

Ни один трек не прошёл проверки на точность
В вашей базе может быть иной вариант штамповки диска

Конец отчёта

---- CUETools DB Plugin V2.1.3

[CTDB TOCID: BfE9T77NSS6VgUBfqb0Yf6cxNpw-] found, Submit result: BfE9T77NSS6VgUBfqb0Yf6cxNpw- has been confirmed
[020f6323] (32/32) Accurately ripped

==== Контрольная сумма отчёта 88051F584510D478238A54708A6DDB665B19563B98EF75C1305878EC49CAEA7B ====
Код:
REM GENRE "Classic Rock"
REM DATE 1988
REM DISCID 700B2A0A
REM COMMENT "ExactAudioCopy v1.0b3"
CATALOG 0000000000000
PERFORMER "Kingdom Come"
TITLE "Kingdom Come"
FILE "Kingdom Come - 1988 - Kingdom Come.wv" WAVE
  TRACK 01 AUDIO
    TITLE "Living Out of Touch"
    PERFORMER "Kingdom Come"
    INDEX 00 00:00:00
    INDEX 01 00:00:32
  TRACK 02 AUDIO
    TITLE "Pushin' Hard"
    PERFORMER "Kingdom Come"
    INDEX 00 04:18:45
    INDEX 01 04:18:72
  TRACK 03 AUDIO
    TITLE "What Love Can Be"
    PERFORMER "Kingdom Come"
    INDEX 00 09:05:50
    INDEX 01 09:06:27
  TRACK 04 AUDIO
    TITLE "17"
    PERFORMER "Kingdom Come"
    INDEX 01 14:21:32
  TRACK 05 AUDIO
    TITLE "The Shuffle"
    PERFORMER "Kingdom Come"
    INDEX 00 19:49:05
    INDEX 01 19:49:32
  TRACK 06 AUDIO
    TITLE "Get It On"
    PERFORMER "Kingdom Come"
    INDEX 01 23:28:70
  TRACK 07 AUDIO
    TITLE "Now Forever After"
    PERFORMER "Kingdom Come"
    INDEX 00 27:51:15
    INDEX 01 27:51:62
  TRACK 08 AUDIO
    TITLE "Hideaway"
    PERFORMER "Kingdom Come"
    INDEX 00 33:31:20
    INDEX 01 33:32:32
  TRACK 09 AUDIO
    TITLE "Loving You"
    PERFORMER "Kingdom Come"
    INDEX 00 39:10:67
    INDEX 01 39:11:62
  TRACK 10 AUDIO
    TITLE "Shout It Out"
    PERFORMER "Kingdom Come"
    INDEX 00 43:59:02
    INDEX 01 43:59:10
Содержимое папки C:\Users\Solistic\Music\Kingdom Come\1988 - Kingdome Come

08.01.2012 23:23 <DIR> .
08.01.2012 23:23 <DIR> ..
08.01.2012 22:11 <DIR> checkers
08.01.2012 23:31 <DIR> misc
08.01.2012 22:06 <DIR> scans
08.01.2012 22:06 67 266 back.jpg
08.01.2012 22:08 66 859 cd.jpg
08.01.2012 22:07 71 417 front.jpg
08.01.2012 23:29 3 726 info.txt
08.01.2012 15:17 7 716 Kingdom Come - 1988 - Kingdom Come.log
08.01.2012 23:08 310 899 463 Kingdom Come - 1988 - Kingdom Come.wv
08.01.2012 23:08 1 374 Kingdom Come - 1988 - Kingdom Come.wv.cue
08.01.2012 23:08 0 Polygram Records.sig
8 файлов 311 117 821 байт

Содержимое папки C:\Users\Solistic\Music\Kingdom Come\1988 - Kingdome Come\checkers

08.01.2012 22:11 <DIR> .
08.01.2012 22:11 <DIR> ..
08.01.2012 15:17 291 693 eac.png
08.01.2012 23:08 2 994 Kingdom Come - 1988 - Kingdom Come.accurip
08.01.2012 21:49 526 176 matrix.png
08.01.2012 15:19 476 902 spectrum.png
08.01.2012 14:44 120 948 tau.png
08.01.2012 15:19 46 023 wave.png
6 файлов 1 464 736 байт

Содержимое папки C:\Users\Solistic\Music\Kingdom Come\1988 - Kingdome Come\misc

08.01.2012 23:31 <DIR> .
08.01.2012 23:31 <DIR> ..
08.01.2012 23:34 1 514 1.txt
08.01.2012 23:42 2 032 10.txt
08.01.2012 23:35 1 425 2.txt
08.01.2012 23:36 2 510 3.txt
08.01.2012 23:37 1 266 4.txt
08.01.2012 23:37 1 372 5.txt
08.01.2012 23:38 1 648 6.txt
08.01.2012 23:39 1 617 7.txt
08.01.2012 23:40 1 640 8.txt
08.01.2012 23:41 1 881 9.txt
10 файлов 16 905 байт

Содержимое папки C:\Users\Solistic\Music\Kingdom Come\1988 - Kingdome Come\scans

08.01.2012 22:06 <DIR> .
08.01.2012 22:06 <DIR> ..
08.01.2012 22:06 743 129 back.jpg
08.01.2012 21:51 1 422 226 booklet.jpg
08.01.2012 21:55 1 430 950 booklet1.jpg
08.01.2012 21:57 1 385 341 booklet2.jpg
08.01.2012 22:00 1 283 806 booklet3.jpg
08.01.2012 21:46 430 008 cd.jpg
08.01.2012 22:04 806 776 inlay.jpg
7 файлов 7 502 236 байт

Всего файлов:
31 файлов 320 101 698 байт


скан матрицы
Одна из великих старых рок групп сыгравших весомую роль в развитие хард рока.

Несмотря на то, что с самого начала коллектив называли клонами Led Zeppelin, я всегда считал, что это далеко от истины, ведь они имеют свой индивидуальный стиль, намного тяжелее и интереснее в плане мелодичности, разве что вокал слегка похож на Планта, но только слегка, ну и что же в этом такого кошмарного?

Дебютный альбом вызвал положительные оценки у многих критиков в 88 году, да и сейчас у всех ценителей качественного харда высоко оценивается. На диске также заметны блюзовые элементы. Уже здесь присутствует проникновенная и душевная баллада, которыми так славиться Ленни Вольф, и которые не намного уступают медлякам самих Scorpions. Качество звука нормальное, музыканты отлично владеют своими инструментами, даже подумать нельзя, что это первый альбом, настолько он сделан отлично и профессионально.

Явными стопроцентными хитами можно назвать средне темповую «Now Forever After», размеренную «Pushin`Hard», самую тяжёлую «Shout It Out», и, конечно же, медленную «What Love Can Be». Диск обязательно должен быть у фэнов группы.

©Rover
Дебютный альбом Ленни с сотоварищами. Ещё до его выхода на группу поставили клише «клон Led Zeppelin» и во многом это оказалось правдой. Но!!!

1) Клон клону рознь, ведь так можно «склонировать», что уши завянут.

2) А что вообще плохого в клонах, тем более такой ВЕЛИКОЙ группы, как Led Zeppelin (например, в power metal все только и делают, что держат курс на Helloween да на Gamma Ray и в этом, как мне кажется, тоже нет ничего ужасного)?

В данном же случае мы имеем дело с великолепной командой, которая хоть и напоминает «Дирижабль», но всё-таки является чем-то иным. Альбом в целом производит крайне приятное впечатление. Целостный, ничего лишнего, не затянут (чего вообще терпеть не могу). Вокал Фульфа - это вообще отдельная тема для разговора! Конечно, не Тор, как Плант, но, тем не менее, что-то божественное! Любимая вещь на альбоме – «The Shuffle» (крайне драйвовая вещь). Всем любителям хард-рока совершенно необходимо иметь этот альбом (а ещё лучше первые 5!).

©Момус9
Доп. информация: Рип со своего диска в NL+, прошиты теги, в том числе back, front, cd и лирика.
загрузка...
Правила, инструкции, FAQ!!!
Торрент  Добавлен [05 сен 2016, 18:43] Скачать торрент Магнет ссылка
Скачать торрент
[ Размер 12.47 КБ / Просмотров 5 ]

Статус
Проверен 
 
Размер  305.6 МБ
Приватный: Нет (DHT включён)
.torrent скачан  0
Как залить торрент? | Как скачать Torrent? | Как смотреть и слушать онлайн?  


     Отправить личное сообщение
   
Страница 1 из 1
Показать сообщения за:  Поле сортировки  
Начать новую тему Ответить на тему

   Похожие торренты   Автор   Ответы   Просмотры   Последнее сообщение 
В этой теме нет новых непрочитанных сообщений. Скачать торрент Проверен (Hard Rock) [LP] [32/192] Kingdom Come - Kingdom Come [First Press] - 1988, WavPack (image+.cue)

в форуме Зарубежный рок (оцифровки), Размер: 2.46 ГБ, Здоровье: 100%

Anonymous

0
20|6

37
3

27 авг 2016, 09:58

Anonymous Перейти к последнему сообщению

В этой теме нет новых непрочитанных сообщений. Скачать торрент Проверен (Hard Rock) Kingdom Come - Kingdom Come {1-st press P32P 20157} - 1988, APE (image+.cue), lossless

в форуме Classic Rock & Hard Rock, Размер: 302.15 МБ, Здоровье: 100%

Anonymous

0
22|7

24
1

05 сен 2016, 20:38

Anonymous Перейти к последнему сообщению

В этой теме нет новых непрочитанных сообщений. Скачать торрент Проверен (Hard Rock) [LP] [24/192] Kingdom Come - Kingdom Come - 1988, FLAC (image+.cue)

в форуме Зарубежный рок (оцифровки), Размер: 1.96 ГБ, Здоровье: 100%

Anonymous

0
35|4

28
4

26 авг 2016, 09:09

Anonymous Перейти к последнему сообщению

В этой теме нет новых непрочитанных сообщений. Скачать торрент Проверен (Traditional Heavy Metal) The Kingdom - The Kingdom - 1988, MP3, 320 kbps

в форуме Heavy, Power, Progressive (Metal), Размер: 88.11 МБ, Здоровье: 0%

Anonymous

0
0|0

21
0

09 окт 2016, 13:28

Anonymous Перейти к последнему сообщению

В этой теме нет новых непрочитанных сообщений. Скачать торрент Проверен (Heavy Psychedelic rock) Kingdom - Kingdom (1970) - 2006, FLAC (tracks+.cue), lossless

в форуме Progressive & Art-Rock, Размер: 208.13 МБ, Здоровье: ???%

Anonymous

0
0|1

4
1

31 авг 2016, 17:39

Anonymous Перейти к последнему сообщению



Сейчас этот форум просматривают: нет зарегистрированных пользователей и гости: 1


Вы не можете начинать темы
Вы не можете отвечать на сообщения
Вы не можете редактировать свои сообщения
Вы не можете удалять свои сообщения
Вы не можете добавлять вложения

Перейти:  

!ВНИМАНИЕ!
 Ресурс не предоставляет электронные версии произведений, а занимается лишь коллекционированием и каталогизацией ссылок, присылаемых и публикуемых на форуме нашими читателями. Если вы являетесь правообладателем какого-либо представленного материала и не желаете чтобы ссылка на него находилась в нашем каталоге, свяжитесь с нами и мы незамедлительно удалим её. Файлы для обмена на трекере предоставлены пользователями сайта, и администрация не несёт ответственности за их содержание. Просьба не заливать файлы, защищенные авторскими правами, а также файлы нелегального содержания!