На всех торрентах на трекере установлена скидка на скачивание в размере 100 процентов(а).
 Возможность скачивания торрента НЕ зависит от ограничений при низком ратио, низком аплоаде, требуемом ратио или требуемом аплоаде.


Начать новую тему Ответить на тему
Статистика раздачи
Размер: 361.73 МБ | Добавлен: 05 сен 2016, 21:34 | Скачали: 1
Сидеров: 14  [0 байт/сек]    Личеров: 3  [0 байт/сек]
Пред. тема | След. тема 

Автор
Сообщение

СообщениеДобавлено: 05 сен 2016, 21:34 

Ответить с цитатой 

Gamma ( Feat.Ronnie Montrose )
Gamma 4 ( Dream Catcher CRIDE 44 )
Жанр: Rock
Страна-производитель диска: England
Год издания диска: 2001
Аудиокодек: FLAC (*.flac)
Тип рипа: image+.cue
Битрейт аудио: lossless
Источник : оригинальный CD
Наличие сканов в содержимом раздачи: да

01. Darkness To Light
02. Love Will Find You
03. Resurrection Shuffle
04. Oh No You Don't!
05. Bad Reputation
06. Last Man On Earth
07. The Only One
08. Out Of These Hands
09. Prayers
10. The Low Road Home
Exact Audio Copy V0.99 prebeta 5 from 4. May 2009

Отчёт EAC об извлечении, выполненном 5. августа 2011, 14:04

Gamma / Gamma 4

Дисковод: ASUS SDRW-08D2S-U Adapter: 2 ID: 0

Режим чтения : Достоверность
Использование точного потока : Да
Отключение кэша аудио : Да
Использование указателей C2 : Нет

Коррекция смещения при чтении : 103
Способность читать области Lead-in и Lead-out : Нет
Заполнение пропущенных сэмплов тишиной : Да
Удаление блоков с тишиной в начале и конце : Нет
При вычислениях CRC использовались нулевые сэмплы : Да
Интерфейс : Встроенный Win32-интерфейс для Win NT/2000

Выходной формат : Пользовательский кодировщик
Выбранный битрейт : 768 kBit/s
Качество : Высокий
Добавление ID3-тэга : Нет
Утилита сжатия : C:\Program Files\Exact Audio Copy\FLAC\FLAC.EXE
Дополнительные параметры : -8 -V %s

TOC извлечённого CD

Трек | Старт | Длительность | Начальный сектор | Конечный сектор
---------------------------------------------------------------------
1 | 0:00.00 | 5:35.25 | 0 | 25149
2 | 5:35.25 | 4:18.12 | 25150 | 44511
3 | 9:53.37 | 4:36.45 | 44512 | 65256
4 | 14:30.07 | 4:30.48 | 65257 | 85554
5 | 19:00.55 | 4:05.70 | 85555 | 103999
6 | 23:06.50 | 7:55.07 | 104000 | 139631
7 | 31:01.57 | 3:52.25 | 139632 | 157056
8 | 34:54.07 | 5:24.65 | 157057 | 181421
9 | 40:18.72 | 3:36.30 | 181422 | 197651
10 | 43:55.27 | 6:33.50 | 197652 | 227176

Характеристики диапазона извлечения и сообщения об ошибках

Выбранный диапазон

Имя файла D:\uTorrent.compl\Gamma - Gamma 4\Gamma - Gamma 4.wav

Пиковый уровень 97.6 %
Качество диапазона 100.0 %
CRC теста BCDA2E08
CRC копии BCDA2E08
Копирование... OK

Ошибок не произошло

AccurateRip: сводка

Трек 1 точное извлечение (доверие 4) [D1D1A3BB]
Трек 2 точное извлечение (доверие 4) [9B1AB6DC]
Трек 3 точное извлечение (доверие 4) [90DA27ED]
Трек 4 точное извлечение (доверие 4) [70632C49]
Трек 5 точное извлечение (доверие 4) [D59E441C]
Трек 6 точное извлечение (доверие 4) [E8DEA118]
Трек 7 точное извлечение (доверие 4) [D1E546D0]
Трек 8 точное извлечение (доверие 4) [379DB7C6]
Трек 9 точное извлечение (доверие 3) [7679BF25]
Трек 10 точное извлечение (доверие 3) [2E6069EC]

Все треки извлечены точно

Конец отчёта[/pre]
загрузка...
Правила, инструкции, FAQ!!!
Торрент  Добавлен [05 сен 2016, 21:34] Скачать торрент Магнет ссылка
Скачать торрент
[ Размер 15.03 КБ / Просмотров 8 ]

Статус
Проверен 
 
Размер  361.73 МБ
Приватный: Нет (DHT включён)
.torrent скачан  1
Как залить торрент? | Как скачать Torrent? | Как смотреть и слушать онлайн?  


     Отправить личное сообщение
   
Страница 1 из 1
Показать сообщения за:  Поле сортировки  
Начать новую тему Ответить на тему

   Похожие торренты   Автор   Ответы   Просмотры   Последнее сообщение 
В этой теме нет новых непрочитанных сообщений. Скачать торрент Проверен (Rock) (Rock) Gamma - Gamma 2 - 1980 (Ronnie Montrose) APE (image+cue) Lossless

в форуме Classic Rock & Hard Rock, Размер: 263.37 МБ, Здоровье: 100%

Anonymous

0
2|1

15
0

03 сен 2016, 23:43

Anonymous Перейти к последнему сообщению

В этой теме нет новых непрочитанных сообщений. Скачать торрент Проверен (Classic Rock & Hard Rock) Gamma (feat. Ronnie Montrose) - Дискография 1979-2011 (6 Albums, 8CD), MP3, 192-320 kbps

в форуме Classic Rock & Hard Rock, Размер: 945.99 МБ, Здоровье: 100%

Anonymous

0
15|5

30
2

14 ноя 2016, 21:04

Anonymous Перейти к последнему сообщению

В этой теме нет новых непрочитанных сообщений. Скачать торрент Проверен (Rock) [CD] Gamma (Ronnie Montrose) - Gamma2 - 1980 (Mini LP SHM-CD 2014), FLAC (image+.cue), lossless

в форуме Classic Rock & Hard Rock, Размер: 385.13 МБ, Здоровье: 100%

Anonymous

0
17|5

7
0

04 сен 2016, 18:38

Anonymous Перейти к последнему сообщению

В этой теме нет новых непрочитанных сообщений. Скачать торрент Проверен (Rock) [CD] Gamma (Ronnie Montrose) - Gamma1 - 1979 (Mini LP SHM-CD 2014), FLAC (image+.cue), lossless

в форуме Classic Rock & Hard Rock, Размер: 348.36 МБ, Здоровье: 100%

Anonymous

0
14|4

3
1

04 сен 2016, 18:38

Anonymous Перейти к последнему сообщению

В этой теме нет новых непрочитанных сообщений. Скачать торрент Проверен (Rock) [CD] Gamma (Ronnie Montrose) - Gamma3 - 1982 (Mini LP SHM-CD 2014), FLAC (image+.cue), lossless

в форуме Classic Rock & Hard Rock, Размер: 362.58 МБ, Здоровье: 100%

Anonymous

0
9|2

6
1

04 сен 2016, 18:38

Anonymous Перейти к последнему сообщению



Сейчас этот форум просматривают: нет зарегистрированных пользователей и гости: 1


Вы не можете начинать темы
Вы не можете отвечать на сообщения
Вы не можете редактировать свои сообщения
Вы не можете удалять свои сообщения
Вы не можете добавлять вложения

Перейти:  

!ВНИМАНИЕ!
 Ресурс не предоставляет электронные версии произведений, а занимается лишь коллекционированием и каталогизацией ссылок, присылаемых и публикуемых на форуме нашими читателями. Если вы являетесь правообладателем какого-либо представленного материала и не желаете чтобы ссылка на него находилась в нашем каталоге, свяжитесь с нами и мы незамедлительно удалим её. Файлы для обмена на трекере предоставлены пользователями сайта, и администрация не несёт ответственности за их содержание. Просьба не заливать файлы, защищенные авторскими правами, а также файлы нелегального содержания!