На всех торрентах на трекере установлена скидка на скачивание в размере 100 процентов(а).
 Возможность скачивания торрента НЕ зависит от ограничений при низком ратио, низком аплоаде, требуемом ратио или требуемом аплоаде.


Начать новую тему Ответить на тему
Статистика раздачи
Размер: 337.3 МБ | Добавлен: 16 авг 2016, 20:36 | Скачали: 0
Сидеров: 8  [0 байт/сек]    Личеров: 2  [0 байт/сек]
Пред. тема | След. тема 

Автор
Сообщение

СообщениеДобавлено: 16 авг 2016, 20:36 

Ответить с цитатой 

.
TOM JONES

Daughter Of Darkness (Compilation).
Жанр: Rock, Funk, Soul, Pop

Носитель: CD
Страна-производитель диска (релиза): Europe
Год издания: 1999
Издатель (лейбл): Elap Music
Номер по каталогу: 50163352
Страна исполнителя (группы): England
Аудиокодек: FLAC (*.flac)
Тип рипа: tracks+.cue
Битрейт аудио: lossless
Продолжительность: 00:54:23
Источник (релизер): stas64
Наличие сканов в содержимом раздачи: да
#777.
01. Jailhouse Rock.
02. Hound Dog.
03. I Got A Woman.
04. Upside Down.
05. Delilah.
06. Knock On Wood.
07. I'm Walking.
08. She's A Lady.
09. Rock'n roll Music.
10. Such A Night.
11. Lady Madonna.
12. Stager Lee.
13. Don't Be Cruel.
14. Great Balls Of Fire.
15. Roll Over Bethoven.
16. Daughter Of Darkness.
17. Baby Face.
18. In The Midnight Hour.
19. Honky Tonk Women.
20. Proud Mary.
21. Higher And Higher.
22. What's New Pussycat.
23. Memphis, Tennessee.
24. Oh Pretty Woman.
Код:
Exact Audio Copy V1.0 beta 3 from 29. August 2011

Отчёт EAC об извлечении, выполненном 3. мая 2015, 21:24

Tom Jones / Daughter Of Darkness

Дисковод: TEAC    DV-W518GM   Adapter: 1  ID: 2

Режим чтения                 : Достоверность
Использование точного потока : Да
Отключение кэша аудио        : Да
Использование указателей C2  : Нет

Коррекция смещения при чтении                     : 6
Способность читать области Lead-in и Lead-out     : Нет
Заполнение пропущенных сэмплов тишиной            : Да
Удаление блоков с тишиной в начале и конце        : Нет
При вычислениях CRC использовались нулевые сэмплы : Да
Интерфейс                                         : Установленный внешний ASPI-интерфейс
Обработка зазоров                                 : Добавлено к предыдущему треку

Выходной формат          : Пользовательский кодировщик
Выбранный битрейт        : 128 kBit/s
Качество                 : Высокий
Добавление ID3-тега      : Нет
Утилита сжатия           : C:\Program Files\Exact Audio Copy\Flac\flac.exe
Дополнительные параметры : -V -8 -T "Genre=%genre%" -T "Artist=%artist%" -T "Title=%title%" -T "Album=%albumtitle%" -T "Date=%year%" -T "Tracknumber=%tracknr%" -T "Comment=%comment%" %source%

TOC извлечённого CD

     Трек |   Старт  | Длительность | Начальный сектор | Конечный сектор
    ---------------------------------------------------------------------
       1  |  0:00.00 |    1:37.07   |           0      |       7281
       2  |  1:37.07 |    1:49.00   |        7282      |      15456
       3  |  3:26.07 |    2:10.08   |       15457      |      25214
       4  |  5:36.15 |    1:59.27   |       25215      |      34166
       5  |  7:35.42 |    2:41.55   |       34167      |      46296
       6  | 10:17.22 |    2:00.00   |       46297      |      55296
       7  | 12:17.22 |    2:04.50   |       55297      |      64646
       8  | 14:21.72 |    1:59.40   |       64647      |      73611
       9  | 16:21.37 |    3:19.45   |       73612      |      88581
      10  | 19:41.07 |    2:17.00   |       88582      |      98856
      11  | 21:58.07 |    2:38.38   |       98857      |     110744
      12  | 24:36.45 |    2:37.20   |      110745      |     122539
      13  | 27:13.65 |    1:59.00   |      122540      |     131464
      14  | 29:12.65 |    2:07.40   |      131465      |     141029
      15  | 31:20.30 |    1:52.50   |      141030      |     149479
      16  | 33:13.05 |    2:08.02   |      149480      |     159081
      17  | 35:21.07 |    1:54.05   |      159082      |     167636
      18  | 37:15.12 |    2:09.73   |      167637      |     177384
      19  | 39:25.10 |    3:03.65   |      177385      |     191174
      20  | 42:29.00 |    2:20.10   |      191175      |     201684
      21  | 44:49.10 |    2:38.17   |      201685      |     213551
      22  | 47:27.27 |    2:20.50   |      213552      |     224101
      23  | 49:48.02 |    1:56.28   |      224102      |     232829
      24  | 51:44.30 |    2:38.55   |      232830      |     244734

Трек  1

     Имя файла I:\MOI_RAZDACI\Tom Jones – Daughter Of Darkness\Tom.Jones_Daughter.Of.Darkness_1999\01 Jailhouse Rock.wav

     Длина предзазора  0:00:02.00

     Пиковый уровень 99.9 %
     Скорость извлечения 1.4 X
     Качество трека 100.0 %
     CRC теста CFFF63CD
     CRC копии CFFF63CD
     Копирование... OK

Трек  2

     Имя файла I:\MOI_RAZDACI\Tom Jones – Daughter Of Darkness\Tom.Jones_Daughter.Of.Darkness_1999\02 Hound Dog.wav

     Длина предзазора  0:00:01.28

     Пиковый уровень 90.5 %
     Скорость извлечения 1.6 X
     Качество трека 100.0 %
     CRC теста 26FB73EC
     CRC копии 26FB73EC
     Копирование... OK

Трек  3

     Имя файла I:\MOI_RAZDACI\Tom Jones – Daughter Of Darkness\Tom.Jones_Daughter.Of.Darkness_1999\03 I Got A Woman.wav

     Длина предзазора  0:00:01.65

     Пиковый уровень 92.1 %
     Скорость извлечения 1.4 X
     Качество трека 99.9 %
     CRC теста B5F79EE7
     CRC копии B5F79EE7
     Копирование... OK

Трек  4

     Имя файла I:\MOI_RAZDACI\Tom Jones – Daughter Of Darkness\Tom.Jones_Daughter.Of.Darkness_1999\04 Upside Down.wav

     Длина предзазора  0:00:01.43

     Пиковый уровень 98.0 %
     Скорость извлечения 1.8 X
     Качество трека 100.0 %
     CRC теста 5064E49B
     CRC копии 5064E49B
     Копирование... OK

Трек  5

     Имя файла I:\MOI_RAZDACI\Tom Jones – Daughter Of Darkness\Tom.Jones_Daughter.Of.Darkness_1999\05 Delilah.wav

     Длина предзазора  0:00:02.42

     Пиковый уровень 97.9 %
     Скорость извлечения 2.0 X
     Качество трека 100.0 %
     CRC теста BF4D18EA
     CRC копии BF4D18EA
     Копирование... OK

Трек  6

     Имя файла I:\MOI_RAZDACI\Tom Jones – Daughter Of Darkness\Tom.Jones_Daughter.Of.Darkness_1999\06 Knock On Wood.wav

     Длина предзазора  0:00:01.45

     Пиковый уровень 86.9 %
     Скорость извлечения 2.0 X
     Качество трека 100.0 %
     CRC теста B36E6E76
     CRC копии B36E6E76
     Копирование... OK

Трек  7

     Имя файла I:\MOI_RAZDACI\Tom Jones – Daughter Of Darkness\Tom.Jones_Daughter.Of.Darkness_1999\07 I'm Walking.wav

     Длина предзазора  0:00:01.15

     Пиковый уровень 92.8 %
     Скорость извлечения 2.1 X
     Качество трека 100.0 %
     CRC теста 9E9E8124
     CRC копии 9E9E8124
     Копирование... OK

Трек  8

     Имя файла I:\MOI_RAZDACI\Tom Jones – Daughter Of Darkness\Tom.Jones_Daughter.Of.Darkness_1999\08 She's A Lady.wav

     Длина предзазора  0:00:01.52

     Пиковый уровень 96.7 %
     Скорость извлечения 1.7 X
     Качество трека 99.9 %
     CRC теста A1501608
     CRC копии A1501608
     Копирование... OK

Трек  9

     Имя файла I:\MOI_RAZDACI\Tom Jones – Daughter Of Darkness\Tom.Jones_Daughter.Of.Darkness_1999\09 Rock'n roll Music.wav

     Длина предзазора  0:00:02.20

     Пиковый уровень 95.1 %
     Скорость извлечения 2.4 X
     Качество трека 100.0 %
     CRC теста B202BD3F
     CRC копии B202BD3F
     Копирование... OK

Трек 10

     Имя файла I:\MOI_RAZDACI\Tom Jones – Daughter Of Darkness\Tom.Jones_Daughter.Of.Darkness_1999\10 Such A Night.wav

     Длина предзазора  0:00:01.47

     Пиковый уровень 85.2 %
     Скорость извлечения 2.4 X
     Качество трека 100.0 %
     CRC теста C597FE19
     CRC копии C597FE19
     Копирование... OK

Трек 11

     Имя файла I:\MOI_RAZDACI\Tom Jones – Daughter Of Darkness\Tom.Jones_Daughter.Of.Darkness_1999\11 Lady Madonna.wav

     Длина предзазора  0:00:02.12

     Пиковый уровень 83.9 %
     Скорость извлечения 2.5 X
     Качество трека 100.0 %
     CRC теста 57CC41CB
     CRC копии 57CC41CB
     Копирование... OK

Трек 12

     Имя файла I:\MOI_RAZDACI\Tom Jones – Daughter Of Darkness\Tom.Jones_Daughter.Of.Darkness_1999\12 Stager Lee.wav

     Длина предзазора  0:00:02.50

     Пиковый уровень 96.0 %
     Скорость извлечения 2.6 X
     Качество трека 100.0 %
     CRC теста D0A5B2CD
     CRC копии D0A5B2CD
     Копирование... OK

Трек 13

     Имя файла I:\MOI_RAZDACI\Tom Jones – Daughter Of Darkness\Tom.Jones_Daughter.Of.Darkness_1999\13 Don't Be Cruel.wav

     Длина предзазора  0:00:01.40

     Пиковый уровень 95.7 %
     Скорость извлечения 2.5 X
     Качество трека 100.0 %
     CRC теста 5F33B414
     CRC копии 5F33B414
     Копирование... OK

Трек 14

     Имя файла I:\MOI_RAZDACI\Tom Jones – Daughter Of Darkness\Tom.Jones_Daughter.Of.Darkness_1999\14 Great Balls Of Fire.wav

     Длина предзазора  0:00:02.18

     Пиковый уровень 90.8 %
     Скорость извлечения 2.6 X
     Качество трека 100.0 %
     CRC теста 29024E7F
     CRC копии 29024E7F
     Копирование... OK

Трек 15

     Имя файла I:\MOI_RAZDACI\Tom Jones – Daughter Of Darkness\Tom.Jones_Daughter.Of.Darkness_1999\15 Roll Over Bethoven.wav

     Длина предзазора  0:00:02.20

     Пиковый уровень 90.6 %
     Скорость извлечения 2.6 X
     Качество трека 100.0 %
     CRC теста 13313B65
     CRC копии 13313B65
     Копирование... OK

Трек 16

     Имя файла I:\MOI_RAZDACI\Tom Jones – Daughter Of Darkness\Tom.Jones_Daughter.Of.Darkness_1999\16 Daughter Of Darkness.wav

     Длина предзазора  0:00:02.40

     Пиковый уровень 99.9 %
     Скорость извлечения 2.7 X
     Качество трека 100.0 %
     CRC теста 900A1CD9
     CRC копии 900A1CD9
     Копирование... OK

Трек 17

     Имя файла I:\MOI_RAZDACI\Tom Jones – Daughter Of Darkness\Tom.Jones_Daughter.Of.Darkness_1999\17 Baby Face.wav

     Длина предзазора  0:00:02.20

     Пиковый уровень 77.3 %
     Скорость извлечения 2.7 X
     Качество трека 100.0 %
     CRC теста 65A63DA0
     CRC копии 65A63DA0
     Копирование... OK

Трек 18

     Имя файла I:\MOI_RAZDACI\Tom Jones – Daughter Of Darkness\Tom.Jones_Daughter.Of.Darkness_1999\18 In The Midnight Hour.wav

     Длина предзазора  0:00:02.07

     Пиковый уровень 89.5 %
     Скорость извлечения 2.9 X
     Качество трека 100.0 %
     CRC теста 08E9FCD5
     CRC копии 08E9FCD5
     Копирование... OK

Трек 19

     Имя файла I:\MOI_RAZDACI\Tom Jones – Daughter Of Darkness\Tom.Jones_Daughter.Of.Darkness_1999\19 Honky Tonk Women.wav

     Длина предзазора  0:00:01.58

     Пиковый уровень 99.9 %
     Скорость извлечения 3.1 X
     Качество трека 100.0 %
     CRC теста CB103753
     CRC копии CB103753
     Копирование... OK

Трек 20

     Имя файла I:\MOI_RAZDACI\Tom Jones – Daughter Of Darkness\Tom.Jones_Daughter.Of.Darkness_1999\20 Proud Mary.wav

     Длина предзазора  0:00:02.05

     Пиковый уровень 97.1 %
     Скорость извлечения 3.0 X
     Качество трека 100.0 %
     CRC теста 56AC19BB
     CRC копии 56AC19BB
     Копирование... OK

Трек 21

     Имя файла I:\MOI_RAZDACI\Tom Jones – Daughter Of Darkness\Tom.Jones_Daughter.Of.Darkness_1999\21 Higher And Higher.wav

     Длина предзазора  0:00:01.70

     Пиковый уровень 99.9 %
     Скорость извлечения 3.2 X
     Качество трека 100.0 %
     CRC теста CB44F1C8
     CRC копии CB44F1C8
     Копирование... OK

Трек 22

     Имя файла I:\MOI_RAZDACI\Tom Jones – Daughter Of Darkness\Tom.Jones_Daughter.Of.Darkness_1999\22 What's New Pussycat.wav

     Длина предзазора  0:00:02.45

     Пиковый уровень 77.8 %
     Скорость извлечения 3.1 X
     Качество трека 100.0 %
     CRC теста 9A8B343F
     CRC копии 9A8B343F
     Копирование... OK

Трек 23

     Имя файла I:\MOI_RAZDACI\Tom Jones – Daughter Of Darkness\Tom.Jones_Daughter.Of.Darkness_1999\23 Memphis, Tennessee.wav

     Длина предзазора  0:00:02.65

     Пиковый уровень 97.2 %
     Скорость извлечения 3.1 X
     Качество трека 100.0 %
     CRC теста 4A9DFC9A
     CRC копии 4A9DFC9A
     Копирование... OK

Трек 24

     Имя файла I:\MOI_RAZDACI\Tom Jones – Daughter Of Darkness\Tom.Jones_Daughter.Of.Darkness_1999\24 Oh Pretty Woman.wav

     Длина предзазора  0:00:01.18

     Пиковый уровень 99.9 %
     Скорость извлечения 2.8 X
     Качество трека 99.9 %
     CRC теста 1401BC46
     CRC копии 1401BC46
     Копирование... OK

Ошибок не произошло

Конец отчёта

==== Контрольная сумма отчёта 8C5BA80290DAB4DAC61548B2B3BE1DDFBF856FFFAF86405164636824F9B70E31 ====
Код:
REM GENRE Rock
REM DATE 2000
REM DISCID 730CBF18
REM COMMENT "ExactAudioCopy v1.0b3"
PERFORMER "Tom Jones"
TITLE "Daughter Of Darkness"
FILE "01 Jailhouse Rock.wav" WAVE
  TRACK 01 AUDIO
    TITLE "Jailhouse Rock"
    PERFORMER "Tom Jones"
    INDEX 01 00:00:00
  TRACK 02 AUDIO
    TITLE "Hound Dog"
    PERFORMER "Tom Jones"
    INDEX 00 01:35:54
FILE "02 Hound Dog.wav" WAVE
    INDEX 01 00:00:00
  TRACK 03 AUDIO
    TITLE "I Got A Woman"
    PERFORMER "Tom Jones"
    INDEX 00 01:47:10
FILE "03 I Got A Woman.wav" WAVE
    INDEX 01 00:00:00
  TRACK 04 AUDIO
    TITLE "Upside Down"
    PERFORMER "Tom Jones"
    INDEX 00 02:08:40
FILE "04 Upside Down.wav" WAVE
    INDEX 01 00:00:00
  TRACK 05 AUDIO
    TITLE "Delilah"
    PERFORMER "Tom Jones"
    INDEX 00 01:56:60
FILE "05 Delilah.wav" WAVE
    INDEX 01 00:00:00
  TRACK 06 AUDIO
    TITLE "Knock On Wood"
    PERFORMER "Tom Jones"
    INDEX 00 02:40:10
FILE "06 Knock On Wood.wav" WAVE
    INDEX 01 00:00:00
  TRACK 07 AUDIO
    TITLE "I'm Walking"
    PERFORMER "Tom Jones"
    INDEX 00 01:58:60
FILE "07 I'm Walking.wav" WAVE
    INDEX 01 00:00:00
  TRACK 08 AUDIO
    TITLE "She's A Lady"
    PERFORMER "Tom Jones"
    INDEX 00 02:02:73
FILE "08 She's A Lady.wav" WAVE
    INDEX 01 00:00:00
  TRACK 09 AUDIO
    TITLE "Rock'n roll Music"
    PERFORMER "Tom Jones"
    INDEX 00 01:57:20
FILE "09 Rock'n roll Music.wav" WAVE
    INDEX 01 00:00:00
  TRACK 10 AUDIO
    TITLE "Such A Night"
    PERFORMER "Tom Jones"
    INDEX 00 03:17:73
FILE "10 Such A Night.wav" WAVE
    INDEX 01 00:00:00
  TRACK 11 AUDIO
    TITLE "Lady Madonna"
    PERFORMER "Tom Jones"
    INDEX 00 02:14:63
FILE "11 Lady Madonna.wav" WAVE
    INDEX 01 00:00:00
  TRACK 12 AUDIO
    TITLE "Stager Lee"
    PERFORMER "Tom Jones"
    INDEX 00 02:35:63
FILE "12 Stager Lee.wav" WAVE
    INDEX 01 00:00:00
  TRACK 13 AUDIO
    TITLE "Don't Be Cruel"
    PERFORMER "Tom Jones"
    INDEX 00 02:35:55
FILE "13 Don't Be Cruel.wav" WAVE
    INDEX 01 00:00:00
  TRACK 14 AUDIO
    TITLE "Great Balls Of Fire"
    PERFORMER "Tom Jones"
    INDEX 00 01:56:57
FILE "14 Great Balls Of Fire.wav" WAVE
    INDEX 01 00:00:00
  TRACK 15 AUDIO
    TITLE "Roll Over Bethoven"
    PERFORMER "Tom Jones"
    INDEX 00 02:05:20
FILE "15 Roll Over Bethoven.wav" WAVE
    INDEX 01 00:00:00
  TRACK 16 AUDIO
    TITLE "Daughter Of Darkness"
    PERFORMER "Tom Jones"
    INDEX 00 01:50:10
FILE "16 Daughter Of Darkness.wav" WAVE
    INDEX 01 00:00:00
  TRACK 17 AUDIO
    TITLE "Baby Face"
    PERFORMER "Tom Jones"
    INDEX 00 02:05:57
FILE "17 Baby Face.wav" WAVE
    INDEX 01 00:00:00
  TRACK 18 AUDIO
    TITLE "In The Midnight Hour"
    PERFORMER "Tom Jones"
    INDEX 00 01:51:73
FILE "18 In The Midnight Hour.wav" WAVE
    INDEX 01 00:00:00
  TRACK 19 AUDIO
    TITLE "Honky Tonk Women"
    PERFORMER "Tom Jones"
    INDEX 00 02:08:15
FILE "19 Honky Tonk Women.wav" WAVE
    INDEX 01 00:00:00
  TRACK 20 AUDIO
    TITLE "Proud Mary"
    PERFORMER "Tom Jones"
    INDEX 00 03:01:60
FILE "20 Proud Mary.wav" WAVE
    INDEX 01 00:00:00
  TRACK 21 AUDIO
    TITLE "Higher And Higher"
    PERFORMER "Tom Jones"
    INDEX 00 02:18:15
FILE "21 Higher And Higher.wav" WAVE
    INDEX 01 00:00:00
  TRACK 22 AUDIO
    TITLE "What's New Pussycat"
    PERFORMER "Tom Jones"
    INDEX 00 02:35:47
FILE "22 What's New Pussycat.wav" WAVE
    INDEX 01 00:00:00
  TRACK 23 AUDIO
    TITLE "Memphis, Tennessee"
    PERFORMER "Tom Jones"
    INDEX 00 02:17:60
FILE "23 Memphis, Tennessee.wav" WAVE
    INDEX 01 00:00:00
  TRACK 24 AUDIO
    TITLE "Oh Pretty Woman"
    PERFORMER "Tom Jones"
    INDEX 00 01:55:10
FILE "24 Oh Pretty Woman.wav" WAVE
    INDEX 01 00:00:00
.
.
Код:
-----------------------

DON'T MODIFY THIS FILE

-----------------------

PERFORMER: auCDtect Task Manager, ver. 1.5.1RC6 build 1.5.1.7
Copyright (c) 2008-2010 y-soft. All rights reserved
[url=http://y-soft.org]http://y-soft.org[/url]

ANALYZER: auCDtect: CD records authenticity detector, version 0.8.2
Copyright (c) 2004 Oleg Berngardt. All rights reserved.
Copyright (c) 2004 Alexander Djourik. All rights reserved.

FILE: 24 Oh Pretty Woman.flac
  Size: 17343117 Hash: D6A22AB435094BDA90CFFEDF285DEF83 Accuracy: -m0
  Conclusion: CDDA 100%
  Signature: 43A73C66FEEF311EB41EE51342CAD5B1E93BFF9B
FILE: 23 Memphis, Tennessee.flac
  Size: 10728230 Hash: B47F8934E47DD50F23C7A3CEF823A5AE Accuracy: -m0
  Conclusion: CDDA 100%
  Signature: DFC5FDD1709B8BA60A8BCE02350571DFEFB48EE0
FILE: 22 What's New Pussycat.flac
  Size: 14388556 Hash: 0929512FA3414C6280D4F6AB22FAAA77 Accuracy: -m0
  Conclusion: CDDA 100%
  Signature: 5BDB90B313525A38A5B653B6D3D61C09764DBF9D
FILE: 21 Higher And Higher.flac
  Size: 14795688 Hash: 797B0151D65618B7CF79943CABD60747 Accuracy: -m0
  Conclusion: CDDA 100%
  Signature: BE8258A084F5731C2113A57DF13842D6F06A733E
FILE: 20 Proud Mary.flac
  Size: 13165130 Hash: C0033776AF5B443A02C56BBD956DFB75 Accuracy: -m0
  Conclusion: CDDA 100%
  Signature: D2F3B7F28E044E6CD9A713D823D4A8823B04206D
FILE: 19 Honky Tonk Women.flac
  Size: 17466087 Hash: 70416B34BD7BE2EBA756778F8FF6EABD Accuracy: -m0
  Conclusion: CDDA 100%
  Signature: 61C0AA67BF7206E44786D9B7BD6B8405418D0A09
FILE: 18 In The Midnight Hour.flac
  Size: 12152900 Hash: 8AF29B8141C1373DF51396EBAB0732AD Accuracy: -m0
  Conclusion: CDDA 100%
  Signature: F6D1649600FBEDB6BAA4527F1F6CABE57FFD05E2
FILE: 17 Baby Face.flac
  Size: 11557320 Hash: C586052A4B9A147D7D28A5DC315E256E Accuracy: -m0
  Conclusion: CDDA 100%
  Signature: B32BEBD66F303A084058919E063C6952FF0FA638
FILE: 16 Daughter Of Darkness.flac
  Size: 11895931 Hash: 42E8304EB7761B58EDC66EE5B2D1C42C Accuracy: -m0
  Conclusion: CDDA 100%
  Signature: 6FE3ED5D3779165EB429EBB7C1536DA94816CD31
FILE: 15 Roll Over Bethoven.flac
  Size: 10055506 Hash: BCDF9D5E360B9D5B9580FE925F7F99BF Accuracy: -m0
  Conclusion: CDDA 100%
  Signature: BE412694D2B5AEC27ADDA83FE7B3F0C3EB386102
FILE: 14 Great Balls Of Fire.flac
  Size: 11695308 Hash: D5C5DCEA9446A082B556C02D1605A477 Accuracy: -m0
  Conclusion: CDDA 100%
  Signature: 4D22CCE1B75424FF8DAE755FFF3326165FDB25D8
FILE: 13 Don't Be Cruel.flac
  Size: 10784920 Hash: 42D5194ED8B8921AD556BEFE5855FDC8 Accuracy: -m0
  Conclusion: CDDA 100%
  Signature: 5FC0C7853085B233F0E9D1B4DC220287444539DA
FILE: 12 Stager Lee.flac
  Size: 14201636 Hash: C1F8B3BAD4A2263ED4BA27CDD3EF1814 Accuracy: -m0
  Conclusion: CDDA 100%
  Signature: 47C663868A33F5F49F05E273C046BB44C92EDAAB
FILE: 11 Lady Madonna.flac
  Size: 14333964 Hash: 7921E74F5A2CFA138A97A9780B5E777D Accuracy: -m0
  Conclusion: CDDA 100%
  Signature: FD056E62B43A11702F3EE2AED9C817202C4A7E72
FILE: 10 Such A Night.flac
  Size: 11904557 Hash: A4FB045FD41D9CC2B40CFD1288667928 Accuracy: -m0
  Conclusion: CDDA 99%
  Signature: B6279DDBFBA58259B6B21BAA6A744FE5819CA2F4
FILE: 09 Rock'n roll Music.flac
  Size: 18857126 Hash: C2F8C666D9C225B4AF93DB46A8B5274A Accuracy: -m0
  Conclusion: CDDA 100%
  Signature: B330FE0D98CCD5CEA8525DE6C0CD2314C4165DC9
FILE: 08 She's A Lady.flac
  Size: 12870778 Hash: 4037E89C0148355A6E5789FF3FC73F96 Accuracy: -m0
  Conclusion: CDDA 100%
  Signature: AA43742B3501BAB74BA0C54E6AF128D2999B4D82
FILE: 07 I'm Walking.flac
  Size: 11247381 Hash: E8888E281EE1998A86F66F1333653507 Accuracy: -m0
  Conclusion: CDDA 100%
  Signature: 0EEFB33918C021CB262CF92A2C14ABB4C0312F15
FILE: 06 Knock On Wood.flac
  Size: 10888733 Hash: 151D169B290EC22D95818AE074413377 Accuracy: -m0
  Conclusion: CDDA 100%
  Signature: F81E6EAB87E35F91C0C10A6FBD38EC3E592487DA
FILE: 05 Delilah.flac
  Size: 18092141 Hash: 20D8789E7499F4F9D583445278398CDE Accuracy: -m0
  Conclusion: CDDA 100%
  Signature: 7E2598496CCD0617F97D385BE527B9D88277D5BC
FILE: 04 Upside Down.flac
  Size: 12810613 Hash: 173FA82EEBC30B7190E57040997E2CBF Accuracy: -m0
  Conclusion: CDDA 100%
  Signature: CC7C5B537CCA05328CD7DFDC135FA51C0B4B8180
FILE: 03 I Got A Woman.flac
  Size: 13526349 Hash: 106182E9D29F2B60E175A681DA6CEEFF Accuracy: -m0
  Conclusion: CDDA 100%
  Signature: E84CF3AA4F49E2F32E81DA268A4E9064939D3278
FILE: 02 Hound Dog.flac
  Size: 11791288 Hash: 0952C018F37C8DB9C2C4815B6E765D9C Accuracy: -m0
  Conclusion: CDDA 100%
  Signature: 383F8B48FFAF99A9D8399766EE978418F470C4B8
FILE: 01 Jailhouse Rock.flac
  Size: 10181027 Hash: AED87E845F099180E914A40E468B32DF Accuracy: -m0
  Conclusion: CDDA 100%
  Signature: 713374D2163F739EC59FBFF06689764A68D0617F

Прямые кликабельные ссылки на раздачи.
Direct clickable links to hand.












Прямые кликабельные ссылки на раздачи.
Direct clickable links to hand.















Прямые кликабельные ссылки на раздачи.
Direct clickable links to hand.













загрузка...
Правила, инструкции, FAQ!!!
Торрент  Добавлен [16 авг 2016, 20:36] Скачать торрент Магнет ссылка
Скачать торрент
[ Размер 15.37 КБ / Просмотров 3 ]

Статус
Проверен 
 
Размер  337.3 МБ
Приватный: Нет (DHT включён)
.torrent скачан  0
Как залить торрент? | Как скачать Torrent? | Как смотреть и слушать онлайн?  


     Отправить личное сообщение
   
Страница 1 из 1
Показать сообщения за:  Поле сортировки  
Начать новую тему Ответить на тему

   Похожие торренты   Автор   Ответы   Просмотры   Последнее сообщение 
В этой теме нет новых непрочитанных сообщений. Скачать торрент Проверен (Pop/Soul) Tom Jones - The Young New Mexican Puppeteer / The Body & Soul Of Tom Jones - 1999, FLAC (tracks+.cue), lossless

в форуме Зарубежная музыка, Размер: 479.65 МБ, Здоровье: 0%

Anonymous

0
0|0

7
0

16 авг 2016, 20:30

Anonymous Перейти к последнему сообщению

В этой теме нет новых непрочитанных сообщений. Скачать торрент Проверен (Pop, Funk, Soul) [WEB] FL Jones - Love Someone - 2015, FLAC (tracks), lossless

в форуме Зарубежная музыка, Размер: 217.62 МБ, Здоровье: 100%

Anonymous

0
2|2

3
1

12 авг 2016, 18:52

Anonymous Перейти к последнему сообщению

В этой теме нет новых непрочитанных сообщений. Скачать торрент Проверен (Pop, Blues, Soul) Tom Jones - Duets - 1999, FLAC (tracks+.cue), lossless

в форуме Зарубежная музыка, Размер: 284.86 МБ, Здоровье: 100%

Anonymous

0
5|2

4
1

16 авг 2016, 20:39

Anonymous Перейти к последнему сообщению

В этой теме нет новых непрочитанных сообщений. Скачать торрент Проверен (Fusion, Jazz-Pop, Funk) [CD] Phil Upchurch - Darkness, Darkness - 1972 (2001 Japan Edition), FLAC (tracks+.cue), lossless

в форуме Jazz Fusion, Размер: 436.74 МБ, Здоровье: 0%

Anonymous

0
0|0

0
0

13 сен 2017, 22:23

Anonymous Перейти к последнему сообщению

В этой теме нет новых непрочитанных сообщений. Скачать торрент Проверен (Funk/Soul, Jazz, Reggae, Synth-pop) Grace Jones - Island Life - 1985, FLAC (tracks+.cue), lossless

в форуме Зарубежная музыка, Размер: 356.66 МБ, Здоровье: 100%

Anonymous

0
55|4

51
0

15 авг 2016, 17:47

Anonymous Перейти к последнему сообщению



Сейчас этот форум просматривают: нет зарегистрированных пользователей и гости: 1


Вы не можете начинать темы
Вы не можете отвечать на сообщения
Вы не можете редактировать свои сообщения
Вы не можете удалять свои сообщения
Вы не можете добавлять вложения

Перейти:  

!ВНИМАНИЕ!
 Ресурс не предоставляет электронные версии произведений, а занимается лишь коллекционированием и каталогизацией ссылок, присылаемых и публикуемых на форуме нашими читателями. Если вы являетесь правообладателем какого-либо представленного материала и не желаете чтобы ссылка на него находилась в нашем каталоге, свяжитесь с нами и мы незамедлительно удалим её. Файлы для обмена на трекере предоставлены пользователями сайта, и администрация не несёт ответственности за их содержание. Просьба не заливать файлы, защищенные авторскими правами, а также файлы нелегального содержания!