На всех торрентах на трекере установлена скидка на скачивание в размере 100 процентов(а).
 Возможность скачивания торрента НЕ зависит от ограничений при низком ратио, низком аплоаде, требуемом ратио или требуемом аплоаде.


Начать новую тему Ответить на тему
Статистика раздачи
Размер: 629.33 МБ | Добавлен: 03 сен 2016, 16:46 | Скачали: 0
Сидеров: 0  [0 байт/сек]    Личеров: 0  [0 байт/сек]
Пред. тема | След. тема 

Автор
Сообщение

СообщениеДобавлено: 03 сен 2016, 16:46 

Ответить с цитатой 

Dennis Wilson - Pacific Ocean Blue

Жанр: Rock
Год выпуска диска: 2008
Аудио кодек: FLAC
Тип рипа: tracks+.cue
Битрейт аудио: lossless
Продолжительность: 1:53:19
Трэклист:
1. Dennis Wilson - River Song (3:46)
2. Dennis Wilson - What's Wrong (2:25)
3. Dennis Wilson - Moonshine (2:30)
4. Dennis Wilson - Friday Night (3:12)
5. Dennis Wilson - Dreamer (4:24)
6. Dennis Wilson - Thoughts Of You (3:07)
7. Dennis Wilson - Time (3:33)
8. Dennis Wilson - You And I (3:27)
9. Dennis Wilson - Pacific Ocean Blues (2:39)
10. Dennis Wilson - Farewell My Friend (2:27)
11. Dennis Wilson - Rainbows (2:49)
12. Dennis Wilson - End Of The Show (3:03)
13. Dennis Wilson - Tug Of Love [Previously Unreleased] (3:45)
14. Dennis Wilson - Only With You [Previously Unreleased] (4:00)
15. Dennis Wilson - Holy Man [Previously Unreleased] (4:27)
16. Dennis Wilson - Mexico [Previously Unreleased] (5:32)
1. Dennis Wilson - Under the Moonlight (3:57)
2. Dennis Wilson - It's Not Too Late (4:33)
3. Dennis Wilson - School Girl (2:32)
4. Dennis Wilson - Love Remember Me (4:07)
5. Dennis Wilson - Love Surrounds Me (3:41)
6. Dennis Wilson - Wild Situation (2:42)
7. Dennis Wilson - Common (3:35)
8. Dennis Wilson - Are You Real (3:38)
9. Dennis Wilson - He's a Bum (2:51)
10. Dennis Wilson - Cocktails (3:01)
11. Dennis Wilson - I Love You (2:02)
12. Dennis Wilson - Constant Companion (3:22)
13. Dennis Wilson - Time For Bed (3:08)
14. Dennis Wilson - Album Tag Song (3:45)
15. Dennis Wilson - All Alone (3:44)
16. Dennis Wilson - Piano Variations on Thoughts of You (3:10)
17. Dennis Wilson - Holy Man [Taylor Hawkins version] (4:25)
Exact Audio Copy V0.99 prebeta 4 from 23. January 2008

EAC extraction logfile from 7. January 2009, 12:21

Dennis Wilson / Pacific Ocean Blue [Legacy Edition - Disc 1]

Used drive : ASUS CD-S500/A Adapter: 3 ID: 0

Read mode : Secure
Utilize accurate stream : Yes
Defeat audio cache : Yes
Make use of C2 pointers : No

Read offset correction : 1194
Overread into Lead-In and Lead-Out : No
Fill up missing offset samples with silence : Yes
Delete leading and trailing silent blocks : No
Null samples used in CRC calculations : Yes
Used interface : Installed external ASPI interface
Gap handling : Appended to previous track

Used output format : User Defined Encoder
Selected bitrate : 1024 kBit/s
Quality : High
Add ID3 tag : No
Command line compressor : C:\Program Files\Exact Audio Copy\FLAC\FLAC.EXE
Additional command line options : -8 -V -T "ARTIST=%a" -T "TITLE=%t" -T "ALBUM=%g" -T "DATE=%y" -T "TRACKNUMBER=%n" -T "GENRE=%m" -T "COMMENT=%e" %s -o %d

TOC of the extracted CD

Track | Start | Length | Start sector | End sector
---------------------------------------------------------
1 | 0:00.00 | 3:46.72 | 0 | 17021
2 | 3:46.72 | 2:25.20 | 17022 | 27916
3 | 6:12.17 | 2:30.41 | 27917 | 39207
4 | 8:42.58 | 3:12.07 | 39208 | 53614
5 | 11:54.65 | 4:24.29 | 53615 | 73443
6 | 16:19.19 | 3:07.02 | 73444 | 87470
7 | 19:26.21 | 3:33.72 | 87471 | 103517
8 | 23:00.18 | 3:27.45 | 103518 | 119087
9 | 26:27.63 | 2:39.41 | 119088 | 131053
10 | 29:07.29 | 2:27.44 | 131054 | 142122
11 | 31:34.73 | 2:49.62 | 142123 | 154859
12 | 34:24.60 | 3:03.25 | 154860 | 168609
13 | 37:28.10 | 3:45.62 | 168610 | 185546
14 | 41:13.72 | 4:00.38 | 185547 | 203584
15 | 45:14.35 | 4:27.68 | 203585 | 223677
16 | 49:42.28 | 5:32.12 | 223678 | 248589
17 | 57:46.40 | 0:27.38 | 259990 | 262052

Track 1

Filename G:\_Downloads\_Music\_Из дома\Dennis Wilson\2008 - Pacific Ocean Blue\CD1\01 - River Song.wav

Pre-gap length 0:00:02.00

Peak level 97.9 %
Track quality 100.0 %
Test CRC ABADA165
Copy CRC ABADA165
Copy OK

Track 2

Filename G:\_Downloads\_Music\_Из дома\Dennis Wilson\2008 - Pacific Ocean Blue\CD1\02 - What's Wrong.wav

Pre-gap length 0:00:02.49

Peak level 84.8 %
Track quality 100.0 %
Test CRC 6AF774AB
Copy CRC 6AF774AB
Copy OK

Track 3

Filename G:\_Downloads\_Music\_Из дома\Dennis Wilson\2008 - Pacific Ocean Blue\CD1\03 - Moonshine.wav

Pre-gap length 0:00:02.00

Peak level 74.8 %
Track quality 100.0 %
Test CRC F0C8A6D5
Copy CRC F0C8A6D5
Copy OK

Track 4

Filename G:\_Downloads\_Music\_Из дома\Dennis Wilson\2008 - Pacific Ocean Blue\CD1\04 - Friday Night.wav

Pre-gap length 0:00:03.01

Peak level 67.3 %
Track quality 100.0 %
Test CRC 070F7010
Copy CRC 070F7010
Copy OK

Track 5

Filename G:\_Downloads\_Music\_Из дома\Dennis Wilson\2008 - Pacific Ocean Blue\CD1\05 - Dreamer.wav

Pre-gap length 0:00:01.53

Peak level 79.6 %
Track quality 100.0 %
Test CRC 848800BB
Copy CRC 848800BB
Copy OK

Track 6

Filename G:\_Downloads\_Music\_Из дома\Dennis Wilson\2008 - Pacific Ocean Blue\CD1\06 - Thoughts Of You.wav

Pre-gap length 0:00:01.36

Peak level 91.2 %
Track quality 100.0 %
Test CRC 4B14455A
Copy CRC 4B14455A
Copy OK

Track 7

Filename G:\_Downloads\_Music\_Из дома\Dennis Wilson\2008 - Pacific Ocean Blue\CD1\07 - Time.wav

Pre-gap length 0:00:02.56

Peak level 100.0 %
Track quality 100.0 %
Test CRC 2AE1B87D
Copy CRC 2AE1B87D
Copy OK

Track 8

Filename G:\_Downloads\_Music\_Из дома\Dennis Wilson\2008 - Pacific Ocean Blue\CD1\08 - You And I.wav

Pre-gap length 0:00:01.39

Peak level 61.1 %
Track quality 100.0 %
Test CRC F4C58B73
Copy CRC F4C58B73
Copy OK

Track 9

Filename G:\_Downloads\_Music\_Из дома\Dennis Wilson\2008 - Pacific Ocean Blue\CD1\09 - Pacific Ocean Blues.wav

Pre-gap length 0:00:02.25

Peak level 66.3 %
Track quality 100.0 %
Test CRC 8B3B7B01
Copy CRC 8B3B7B01
Copy OK

Track 10

Filename G:\_Downloads\_Music\_Из дома\Dennis Wilson\2008 - Pacific Ocean Blue\CD1\10 - Farewell My Friend.wav

Pre-gap length 0:00:02.12

Peak level 84.9 %
Track quality 100.0 %
Test CRC 8B3E4E6C
Copy CRC 8B3E4E6C
Copy OK

Track 11

Filename G:\_Downloads\_Music\_Из дома\Dennis Wilson\2008 - Pacific Ocean Blue\CD1\11 - Rainbows.wav

Pre-gap length 0:00:01.62

Peak level 100.0 %
Track quality 100.0 %
Test CRC 0FC1B12E
Copy CRC 0FC1B12E
Copy OK

Track 12

Filename G:\_Downloads\_Music\_Из дома\Dennis Wilson\2008 - Pacific Ocean Blue\CD1\12 - End Of The Show.wav

Pre-gap length 0:00:01.73

Peak level 100.0 %
Track quality 100.0 %
Test CRC F40CC743
Copy CRC F40CC743
Copy OK

Track 13

Filename G:\_Downloads\_Music\_Из дома\Dennis Wilson\2008 - Pacific Ocean Blue\CD1\13 - Tug Of Love [Previously Unreleased].wav

Pre-gap length 0:00:05.57

Peak level 97.6 %
Track quality 100.0 %
Test CRC 5893B053
Copy CRC 5893B053
Copy OK

Track 14

Filename G:\_Downloads\_Music\_Из дома\Dennis Wilson\2008 - Pacific Ocean Blue\CD1\14 - Only With You [Previously Unreleased].wav

Pre-gap length 0:00:01.42

Peak level 89.6 %
Track quality 100.0 %
Test CRC 62517B40
Copy CRC 62517B40
Copy OK

Track 15

Filename G:\_Downloads\_Music\_Из дома\Dennis Wilson\2008 - Pacific Ocean Blue\CD1\15 - Holy Man [Previously Unreleased].wav

Pre-gap length 0:00:02.71

Peak level 77.6 %
Track quality 100.0 %
Test CRC B88F72C5
Copy CRC B88F72C5
Copy OK

Track 16

Filename G:\_Downloads\_Music\_Из дома\Dennis Wilson\2008 - Pacific Ocean Blue\CD1\16 - Mexico [Previously Unreleased].wav

Pre-gap length 0:00:03.08

Peak level 77.1 %
Track quality 100.0 %
Test CRC C7DC7B75
Copy CRC C7DC7B75
Copy OK

No errors occurred

End of status report
Exact Audio Copy V0.99 prebeta 4 from 23. January 2008

EAC extraction logfile from 7. January 2009, 16:40

Dennis Wilson / Pacific Ocean Blue [R2 Bambu (The Caribou Sessions)]

Used drive : ASUS CD-S500/A Adapter: 3 ID: 0

Read mode : Secure
Utilize accurate stream : Yes
Defeat audio cache : Yes
Make use of C2 pointers : No

Read offset correction : 1194
Overread into Lead-In and Lead-Out : No
Fill up missing offset samples with silence : Yes
Delete leading and trailing silent blocks : No
Null samples used in CRC calculations : Yes
Used interface : Installed external ASPI interface
Gap handling : Appended to previous track

Used output format : User Defined Encoder
Selected bitrate : 1024 kBit/s
Quality : High
Add ID3 tag : No
Command line compressor : C:\Program Files\Exact Audio Copy\FLAC\FLAC.EXE
Additional command line options : -8 -V -T "ARTIST=%a" -T "TITLE=%t" -T "ALBUM=%g" -T "DATE=%y" -T "TRACKNUMBER=%n" -T "GENRE=%m" -T "COMMENT=%e" %s -o %d

TOC of the extracted CD

Track | Start | Length | Start sector | End sector
---------------------------------------------------------
1 | 0:00.00 | 3:57.43 | 0 | 17817
2 | 3:57.43 | 4:33.50 | 17818 | 38342
3 | 8:31.18 | 2:32.35 | 38343 | 49777
4 | 11:03.53 | 4:07.02 | 49778 | 68304
5 | 15:10.55 | 3:41.03 | 68305 | 84882
6 | 18:51.58 | 2:42.60 | 84883 | 97092
7 | 21:34.43 | 3:35.01 | 97093 | 113218
8 | 25:09.44 | 3:38.74 | 113219 | 129642
9 | 28:48.43 | 2:51.74 | 129643 | 142541
10 | 31:40.42 | 3:01.54 | 142542 | 156170
11 | 34:42.21 | 2:02.40 | 156171 | 165360
12 | 36:44.61 | 3:22.72 | 165361 | 180582
13 | 40:07.58 | 3:08.51 | 180583 | 194733
14 | 43:16.34 | 3:45.70 | 194734 | 211678
15 | 47:02.29 | 3:44.27 | 211679 | 228505
16 | 50:46.56 | 3:10.67 | 228506 | 242822
17 | 53:57.48 | 4:25.38 | 242823 | 262735

Track 1

Filename G:\_Downloads\_Music\_Из дома\Dennis Wilson\2008 - Pacific Ocean Blue\CD2 - Bambu (The Caribou Sessions)\01 - Under the Moonlight.wav

Pre-gap length 0:00:02.00

Peak level 100.0 %
Track quality 100.0 %
Test CRC 9A88532C
Copy CRC 9A88532C
Copy OK

Track 2

Filename G:\_Downloads\_Music\_Из дома\Dennis Wilson\2008 - Pacific Ocean Blue\CD2 - Bambu (The Caribou Sessions)\02 - It's Not Too Late.wav

Pre-gap length 0:00:01.48

Peak level 100.0 %
Track quality 100.0 %
Test CRC FED83984
Copy CRC FED83984
Copy OK

Track 3

Filename G:\_Downloads\_Music\_Из дома\Dennis Wilson\2008 - Pacific Ocean Blue\CD2 - Bambu (The Caribou Sessions)\03 - School Girl.wav

Pre-gap length 0:00:00.68

Peak level 100.0 %
Track quality 100.0 %
Test CRC 3E02C05C
Copy CRC 3E02C05C
Copy OK

Track 4

Filename G:\_Downloads\_Music\_Из дома\Dennis Wilson\2008 - Pacific Ocean Blue\CD2 - Bambu (The Caribou Sessions)\04 - Love Remember Me.wav

Pre-gap length 0:00:01.40

Peak level 100.0 %
Track quality 99.9 %
Test CRC AB9378EB
Copy CRC AB9378EB
Copy OK

Track 5

Filename G:\_Downloads\_Music\_Из дома\Dennis Wilson\2008 - Pacific Ocean Blue\CD2 - Bambu (The Caribou Sessions)\05 - Love Surrounds Me.wav

Pre-gap length 0:00:02.63

Peak level 100.0 %
Track quality 100.0 %
Test CRC 3DB9CD04
Copy CRC 3DB9CD04
Copy OK

Track 6

Filename G:\_Downloads\_Music\_Из дома\Dennis Wilson\2008 - Pacific Ocean Blue\CD2 - Bambu (The Caribou Sessions)\06 - Wild Situation.wav

Pre-gap length 0:00:01.15

Peak level 100.0 %
Track quality 100.0 %
Test CRC 5F667D23
Copy CRC 5F667D23
Copy OK

Track 7

Filename G:\_Downloads\_Music\_Из дома\Dennis Wilson\2008 - Pacific Ocean Blue\CD2 - Bambu (The Caribou Sessions)\07 - Common.wav

Pre-gap length 0:00:01.08

Peak level 100.0 %
Track quality 100.0 %
Test CRC 42000C12
Copy CRC 42000C12
Copy OK

Track 8

Filename G:\_Downloads\_Music\_Из дома\Dennis Wilson\2008 - Pacific Ocean Blue\CD2 - Bambu (The Caribou Sessions)\08 - Are You Real.wav

Pre-gap length 0:00:00.53

Peak level 100.0 %
Track quality 100.0 %
Test CRC 984393F3
Copy CRC 984393F3
Copy OK

Track 9

Filename G:\_Downloads\_Music\_Из дома\Dennis Wilson\2008 - Pacific Ocean Blue\CD2 - Bambu (The Caribou Sessions)\09 - He's a Bum.wav

Pre-gap length 0:00:00.64

Peak level 100.0 %
Track quality 99.9 %
Test CRC C7F94B3C
Copy CRC C7F94B3C
Copy OK

Track 10

Filename G:\_Downloads\_Music\_Из дома\Dennis Wilson\2008 - Pacific Ocean Blue\CD2 - Bambu (The Caribou Sessions)\10 - Cocktails.wav

Pre-gap length 0:00:02.06

Peak level 91.6 %
Track quality 100.0 %
Test CRC 65B8C155
Copy CRC 65B8C155
Copy OK

Track 11

Filename G:\_Downloads\_Music\_Из дома\Dennis Wilson\2008 - Pacific Ocean Blue\CD2 - Bambu (The Caribou Sessions)\11 - I Love You.wav

Pre-gap length 0:00:01.26

Peak level 100.0 %
Track quality 99.9 %
Test CRC A03E4DD1
Copy CRC A03E4DD1
Copy OK

Track 12

Filename G:\_Downloads\_Music\_Из дома\Dennis Wilson\2008 - Pacific Ocean Blue\CD2 - Bambu (The Caribou Sessions)\12 - Constant Companion.wav

Pre-gap length 0:00:00.16

Peak level 90.2 %
Track quality 100.0 %
Test CRC 4983B920
Copy CRC 4983B920
Copy OK

Track 13

Filename G:\_Downloads\_Music\_Из дома\Dennis Wilson\2008 - Pacific Ocean Blue\CD2 - Bambu (The Caribou Sessions)\13 - Time For Bed.wav

Pre-gap length 0:00:00.56

Peak level 100.0 %
Track quality 100.0 %
Test CRC CD98CF7B
Copy CRC CD98CF7B
Copy OK

Track 14

Filename G:\_Downloads\_Music\_Из дома\Dennis Wilson\2008 - Pacific Ocean Blue\CD2 - Bambu (The Caribou Sessions)\14 - Album Tag Song.wav

Pre-gap length 0:00:00.68

Suspicious position 0:03:43

Peak level 100.0 %
Track quality 99.3 %
Test CRC 26AF2A07
Copy CRC 62AA3951
Copy finished

Track 15

Filename G:\_Downloads\_Music\_Из дома\Dennis Wilson\2008 - Pacific Ocean Blue\CD2 - Bambu (The Caribou Sessions)\15 - All Alone.wav

Pre-gap length 0:00:00.62

Suspicious position 0:00:00 - 0:00:01

Copy aborted

Track 16

Filename G:\_Downloads\_Music\_Из дома\Dennis Wilson\2008 - Pacific Ocean Blue\CD2 - Bambu (The Caribou Sessions)\16 - Piano Variations on Thoughts of You.wav

Pre-gap length 0:00:00.23

Suspicious position 0:03:10

Peak level 66.7 %
Track quality 99.7 %
Test CRC D1E613C8
Copy CRC D1E613C8
Copy finished

Track 17

Filename G:\_Downloads\_Music\_Из дома\Dennis Wilson\2008 - Pacific Ocean Blue\CD2 - Bambu (The Caribou Sessions)\17 - Holy Man [Taylor Hawkins version].wav

Pre-gap length 0:00:07.58

Peak level 97.6 %
Track quality 100.0 %
Test CRC F9EC0E5A
Copy CRC F9EC0E5A
Copy OK

There were errors

End of status report

------------------------------------------------------------

Exact Audio Copy V0.99 prebeta 4 from 23. January 2008

EAC extraction logfile from 7. January 2009, 22:26

Dennis Wilson / Pacific Ocean Blue [R2 Bambu (The Caribou Sessions)]

Used drive : MATSHITADVD-RAM UJ-841S Adapter: 0 ID: 0

Read mode : Secure
Utilize accurate stream : Yes
Defeat audio cache : Yes
Make use of C2 pointers : No

Read offset correction : 102
Overread into Lead-In and Lead-Out : No
Fill up missing offset samples with silence : Yes
Delete leading and trailing silent blocks : No
Null samples used in CRC calculations : Yes
Used interface : Installed external ASPI interface
Gap handling : Appended to previous track

Used output format : User Defined Encoder
Selected bitrate : 1024 kBit/s
Quality : High
Add ID3 tag : No
Command line compressor : C:\Program Files\Exact Audio Copy\FLAC\FLAC.EXE
Additional command line options : -8 -V -T "ARTIST=%a" -T "TITLE=%t" -T "ALBUM=%g" -T "DATE=%y" -T "TRACKNUMBER=%n" -T "GENRE=%m" -T "COMMENT=%e" %s -o %d

TOC of the extracted CD

Track | Start | Length | Start sector | End sector
---------------------------------------------------------
1 | 0:00.00 | 3:57.43 | 0 | 17817
2 | 3:57.43 | 4:33.50 | 17818 | 38342
3 | 8:31.18 | 2:32.35 | 38343 | 49777
4 | 11:03.53 | 4:07.02 | 49778 | 68304
5 | 15:10.55 | 3:41.03 | 68305 | 84882
6 | 18:51.58 | 2:42.60 | 84883 | 97092
7 | 21:34.43 | 3:35.01 | 97093 | 113218
8 | 25:09.44 | 3:38.74 | 113219 | 129642
9 | 28:48.43 | 2:51.74 | 129643 | 142541
10 | 31:40.42 | 3:01.54 | 142542 | 156170
11 | 34:42.21 | 2:02.40 | 156171 | 165360
12 | 36:44.61 | 3:22.72 | 165361 | 180582
13 | 40:07.58 | 3:08.51 | 180583 | 194733
14 | 43:16.34 | 3:45.70 | 194734 | 211678
15 | 47:02.29 | 3:44.27 | 211679 | 228505
16 | 50:46.56 | 3:10.67 | 228506 | 242822
17 | 53:57.48 | 4:25.38 | 242823 | 262735

Track 15

Filename G:\_Downloads\_Music\_Из дома\Dennis Wilson\2008 - Pacific Ocean Blue\CD2 - Bambu (The Caribou Sessions)\15 - All Alone.wav

Pre-gap length 0:00:00.62

Peak level 94.4 %
Track quality 99.9 %
Test CRC E9505174
Copy CRC E9505174
Copy OK

No errors occurred

End of status report
загрузка...
Правила, инструкции, FAQ!!!
Торрент  Добавлен [03 сен 2016, 16:46] Скачать торрент Магнет ссылка
Скачать торрент
[ Размер 17.22 КБ / Просмотров 8 ]

Статус
Проверен 
 
Размер  629.33 МБ
Приватный: Нет (DHT включён)
.torrent скачан  0
Как залить торрент? | Как скачать Torrent? | Ошибка в торренте? Качайте магнет  


     Отправить личное сообщение
   
Страница 1 из 1
Показать сообщения за:  Поле сортировки  
Начать новую тему Ответить на тему

   Похожие торренты   Автор   Ответы   Просмотры   Последнее сообщение 
В этой теме нет новых непрочитанных сообщений. Скачать торрент Проверен (Progrock, Blues Rock) Pacific Gas & Electric - Pacific Gas & Electric - 1971 (2007), FLAC (tracks+.cue), lossless

в форуме Progressive & Art-Rock, Размер: 259.34 МБ, Здоровье: 100%

Anonymous

0
3|1

19
1

30 авг 2016, 18:59

Anonymous Перейти к последнему сообщению

В этой теме нет новых непрочитанных сообщений. Скачать торрент Проверен (Jazz-Funk, Soul Jazz) [CD] Reuben Wilson - Blue Mode (1969) - 2014 {Japan SHM-CD Blue Note 24-192 Remaster}, FLAC (tracks+.cue), lossless

в форуме Jazz Fusion, Размер: 540.24 МБ, Здоровье: ???%

Anonymous

0
0|1

5
0

16 сен 2017, 10:57

Anonymous Перейти к последнему сообщению

В этой теме нет новых непрочитанных сообщений. Скачать торрент Проверен (Blues) J.J. Milteau. Manu Galvin. Demi Evans - Pacific Blue - 2005, FLAC (tracks)

в форуме Blues (Texas, Chicago, Modern and Others), Размер: 332.14 МБ, Здоровье: 33%

Anonymous

0
2|6

29
0

16 окт 2016, 12:18

Anonymous Перейти к последнему сообщению

В этой теме нет новых непрочитанных сообщений. Скачать торрент Проверен (R&B, Blues-Rock, Soul, Funk, Psychedelic) Pacific Gas & Electric - Get It On 1968 - 2008 , FLAC (tracks), lossless

в форуме Blues (Texas, Chicago, Modern and Others), Размер: 493.82 МБ, Здоровье: 0%

Anonymous

0
0|0

32
1

16 окт 2016, 09:50

Anonymous Перейти к последнему сообщению

В этой теме нет новых непрочитанных сообщений. Скачать торрент Лорелея: ведьма Тихого океана / Lorelei: The Witch of the Pacific Ocean (2005) DVDRip

в форуме Фантастика, Фэнтези, Размер: 1.37 ГБ, Здоровье: 100%

Anonymous

0
1|1

149
25

01 июл 2013, 23:05

Anonymous Перейти к последнему сообщению



Сейчас этот форум просматривают: нет зарегистрированных пользователей и гости: 0


Вы не можете начинать темы
Вы не можете отвечать на сообщения
Вы не можете редактировать свои сообщения
Вы не можете удалять свои сообщения
Вы не можете добавлять вложения

Перейти:  
Ресурс не предоставляет электронные версии произведений, а занимается лишь коллекционированием и каталогизацией ссылок, присылаемых и публикуемых на форуме нашими читателями. Если вы являетесь правообладателем какого-либо представленного материала и не желаете чтобы ссылка на него находилась в нашем каталоге, свяжитесь с нами и мы незамедлительно удалим её. Файлы для обмена на трекере предоставлены пользователями сайта, и администрация не несёт ответственности за их содержание. Просьба не заливать файлы, защищенные авторскими правами, а также файлы нелегального содержания!
cron