На всех торрентах на трекере установлена скидка на скачивание в размере 100 процентов(а).
 Возможность скачивания торрента НЕ зависит от ограничений при низком ратио, низком аплоаде, требуемом ратио или требуемом аплоаде.


Начать новую тему Ответить на тему
Статистика раздачи
Размер: 7.92 ГБ | Добавлен: 23 авг 2017, 22:28 | Скачали: 0
Сидеров: 8  [0 байт/сек]    Личеров: 3  [0 байт/сек]
Пред. тема | След. тема 

Автор
Сообщение

СообщениеДобавлено: 03 дек 2012, 20:44 

Ответить с цитатой 

Название: Римские приключения
Оригинальное название: To Rome with Love
Год выхода: 2012
Жанр: Мелодрама, комедия
Режиссер: Вуди Аллен
В ролях: Вуди Аллен, Алек Болдуин, Роберто Бениньи, Пенелопа Крус, Джуди Дэвис, Джесси Айзенберг, Грета Гервиг, Эллен Пейдж, Флавио Паренти, Элисон Пилл

О фильме:
Комедия, действие которой происходит в одном из самых прекрасных городов мира. Мы встретим известного американского архитектора, переживающего вторую юность, простого обывателя, неожиданно проснувшегося знаменитым, молодоженов из провинции, каждого из которых ждут романтические открытия, и американского оперного постановщика, задумавшего вывести на сцену поющего работника похоронного бюро…



Страна: США, Италия, Испания
Студия: Gravier Productions
Продолжительность: 01:51:38
Перевод: Профессиональный дублированный


Качество: BDRip
Контейнер: MKV
Видео: AVC, 1920x1040 (16:9), 9324 kbps, 23,976 fps, 0,195 bpp
Аудио №1: русский /; AC3 /; 5.1 /; 48 kHz /; 448 kbps /; 16 bit; ||
Аудио №2: английский /; AC3 /; 5.1 /; 48 kHz /; 384 kbps /; 16 bit
Субтитры: английские
Навигация по главам: есть

General
Unique ID : 231564808705542484861037336022480774084 (0xAE35C289CDF74EE38FE6B4E4CD1EE3C4)
Complete name : E:TorrentTo Rome with Love (2012) BDRip-F.HD.mkv
Format : Matroska
Format version : Version 4 / Version 2
File size : 7.92 GiB
Duration : 1h 51mn
Overall bit rate : 10.2 Mbps
Encoded date : UTC 2010-02-22 21:41:31
Writing application : mkvmerge v5.9.0 ('On The Loose') built on Dec 9 2012 15:37:01
Writing library : libebml v1.3.0 + libmatroska v1.4.0

Video
ID : 1
Format : AVC
Format/Info : Advanced Video Codec
Format profile : High@L4.1
Format settings, CABAC : Yes
Format settings, ReFrames : 4 frames
Codec ID : V_MPEG4/ISO/AVC
Duration : 1h 51mn
Bit rate : 9 324 Kbps
Width : 1 920 pixels
Height : 1 040 pixels
Display aspect ratio : 16:9
Frame rate : 23.976 fps
Color space : YUV
Chroma subsampling : 4:2:0
Bit depth : 8 bits
Scan type : Progressive
Bits/(Pixel*Frame) : 0.195
Stream size : 7.12 GiB (90%)
Writing library : x264 core 129 r2230+696+36 4446aa2 tMod+MixAQ [8-bit@4:2:0 X86_64]
Encoding settings : cabac=1 / ref=4 / deblock=1:-3:-3 / analyse=0x3:0x113 / me=umh / subme=10 / psy=1 / fade_compensate=0.00 / psy_rd=0.80:0.06 / mixed_ref=1 / me_range=32 / chroma_me=1 / trellis=2 / 8x8dct=1 / cqm=0 / deadzone=21,11 / fast_pskip=0 / chroma_qp_offset=-3 / threads=6 / lookahead_threads=1 / sliced_threads=0 / nr=0 / decimate=0 / interlaced=0 / bluray_compat=0 / constrained_intra=0 / fgo=0 / bframes=9 / b_pyramid=2 / b_adapt=2 / b_bias=0 / direct=3 / weightb=1 / open_gop=0 / weightp=2 / keyint=240 / keyint_min=23 / scenecut=40 / intra_refresh=0 / rc=2pass / mbtree=0 / bitrate=9324 / ratetol=1.0 / qcomp=0.70 / qpmin=0 / qpmax=69 / qpstep=4 / cplxblur=20.0 / qblur=0.5 / ip_ratio=1.40 / pb_ratio=1.30 / aq=3 / aq-strength=0.70 / aq-sensitivity=10.00 / aq-ifactor=1.00 / aq-pfactor=1.00 / aq-bfactor=1.00 / aq2=0
Language : English
Default : Yes
Forced : No
Color primaries : BT.709-5, BT.1361, IEC 61966-2-4, SMPTE RP177
Transfer characteristics : BT.709-5, BT.1361
Matrix coefficients : BT.709-5, BT.1361, IEC 61966-2-4 709, SMPTE RP177

Audio #1
ID : 2
Format : AC-3
Format/Info : Audio Coding 3
Mode extension : CM (complete main)
Codec ID : A_AC3
Duration : 1h 51mn
Bit rate mode : Constant
Bit rate : 448 Kbps
Channel(s) : 6 channels
Channel positions : Front: L C R, Side: L R, LFE
Sampling rate : 48.0 KHz
Bit depth : 16 bits
Compression mode : Lossy
Stream size : 358 MiB (4%)
Language : Russian
Default : Yes
Forced : No

Audio #2
ID : 3
Format : AC-3
Format/Info : Audio Coding 3
Mode extension : CM (complete main)
Codec ID : A_AC3
Duration : 1h 51mn
Bit rate mode : Constant
Bit rate : 384 Kbps
Channel(s) : 6 channels
Channel positions : Front: L C R, Side: L R, LFE
Sampling rate : 48.0 KHz
Bit depth : 16 bits
Compression mode : Lossy
Stream size : 307 MiB (4%)
Language : English
Default : No
Forced : No

Text
ID : 4
Format : UTF-8
Codec ID : S_TEXT/UTF8
Codec ID/Info : UTF-8 Plain Text
Language : English
Default : No
Forced : No

Menu
00:00:00.000 : en:00:00:00.000
00:06:27.178 : en:00:06:27.178
00:12:23.868 : en:00:12:23.868
00:17:45.314 : en:00:17:45.314
00:23:07.261 : en:00:23:07.261
00:28:49.937 : en:00:28:49.937
00:38:38.274 : en:00:38:38.274
00:49:23.544 : en:00:49:23.544
00:59:22.100 : en:00:59:22.100
01:09:03.097 : en:01:09:03.097
01:17:56.338 : en:01:17:56.338
01:21:31.345 : en:01:21:31.345
01:27:12.686 : en:01:27:12.686
01:35:49.911 : en:01:35:49.911
01:40:45.248 : en:01:40:45.248

загрузка...
Правила, инструкции, FAQ!!!
Торрент  Добавлен [23 авг 2017, 22:28] Скачать торрент
Скачать торрент
[ Размер 40.67 КБ / Просмотров 0 ]

Статус
Обновлён Bionik (23 авг 2017, 22:30)
 
Размер  7.92 ГБ
Приватный: Нет (DHT включён)
.torrent скачан  0
Как залить торрент? | Как скачать Torrent? | Как смотреть и слушать онлайн?  


     Отправить личное сообщение
   
Страница 1 из 1
Показать сообщения за:  Поле сортировки  
Начать новую тему Ответить на тему

   Похожие торренты   Автор   Ответы   Просмотры   Последнее сообщение 
В этой теме нет новых непрочитанных сообщений. Скачать торрент Проверен Римские приключения / To Rome with Love (2012) BDRip | Лицензия

в форуме Комедии, Размер: 2.18 ГБ, Здоровье: 100%

Гость

0
24|11

24
46

23 авг 2017, 22:36

Гость Перейти к последнему сообщению

В этой теме нет новых непрочитанных сообщений. Скачать торрент Проверен Muse - Live At Rome Olympic Stadium [2013, Alternative Rock, BDRip 1080p]

в форуме Концерты (HD-Video), Размер: 6.56 ГБ, Здоровье: 100%

Гость

0
227|28

144
13

03 май 2015, 22:09

Гость Перейти к последнему сообщению

В этой теме нет новых непрочитанных сообщений. Скачать торрент Проверен От винта в 3Д / 3D (Ольга Лопато) [2012, Мультфильм, Комедия, Приключения, BDrip, 1080p] OverUnder / Вертикальная стереопара

в форуме 3D Мультфильмы, Размер: 7.17 ГБ, Здоровье: 0%

Anonymous

0
0|0

31
0

07 сен 2016, 18:18

Anonymous Перейти к последнему сообщению

В этой теме нет новых непрочитанных сообщений. Скачать торрент Проверен Кавказская пленница, или Новые приключения Шурика (Леонид Гайдай) [1967, СССР, комедия, приключения, семейный, BDRip 1080p]

в форуме Наше кино (HD Video), Размер: 7.95 ГБ, Здоровье: 100%

Гость

0
79|28

167
2

12 апр 2015, 10:59

Гость Перейти к последнему сообщению

В этой теме нет новых непрочитанных сообщений. Скачать торрент Проверен Шевели ластами 2 в 3Д / Sammy's avonturen 2 3D (Бен Стассен / Ben Stassen) [2012, мультфильм, приключения, BDrip, 1080p] OverUnder / Вертикальная стереопара

в форуме 3D Мультфильмы, Размер: 11.17 ГБ, Здоровье: 0%

Anonymous

0
0|0

30
0

07 сен 2016, 17:47

Anonymous Перейти к последнему сообщению



Сейчас этот форум просматривают: нет зарегистрированных пользователей и гости: 1


Вы не можете начинать темы
Вы не можете отвечать на сообщения
Вы не можете редактировать свои сообщения
Вы не можете удалять свои сообщения
Вы не можете добавлять вложения

Перейти:  

!ВНИМАНИЕ!
 Ресурс не предоставляет электронные версии произведений, а занимается лишь коллекционированием и каталогизацией ссылок, присылаемых и публикуемых на форуме нашими читателями. Если вы являетесь правообладателем какого-либо представленного материала и не желаете чтобы ссылка на него находилась в нашем каталоге, свяжитесь с нами и мы незамедлительно удалим её. Файлы для обмена на трекере предоставлены пользователями сайта, и администрация не несёт ответственности за их содержание. Просьба не заливать файлы, защищенные авторскими правами, а также файлы нелегального содержания!