На всех торрентах на трекере установлена скидка на скачивание в размере 100 процентов(а).
 Возможность скачивания торрента НЕ зависит от ограничений при низком ратио, низком аплоаде, требуемом ратио или требуемом аплоаде.


Начать новую тему Ответить на тему
Статистика раздачи
Размер: 3.19 ГБ | Добавлен: 01 июл 2017, 08:49 | Скачали: 17
Сидеров: 52  [0 байт/сек]    Личеров: 10  [0 байт/сек]
Пред. тема | След. тема 

Автор
Сообщение

СообщениеДобавлено: 01 июл 2017, 08:49 

Ответить с цитатой 

Richard Clayderman
Super Best

Год издания: 2015
Жанр: Easy Listening, Instrumental Pop, Piano
Издатель (лейбл): Victor
Продолжительность: 00:49:07
Наличие сканов: Sleeve


01. Concerto pour une jeune fille nommée je t'aime (3:45)
02. Ballade Pour Adeline (2:38)
03. Couleur Tendresse (3:41)
04. Concerto Des Etoiles (3:52)
05. Serenade de l'Etoile (2:58)
06. Les Derniers Jours D'Anastasia Kemsky (3:20)
07. Lady Di (2:36)
08. Un blanc jour d'un chaton (1:51)
09. Cavatina (3:36)
10. Triste Cœur (2:49)
11. Murmures (2:32)
12. Les Premiers Sourires De Vanessa (2:20)
13. Souvenirs D'Enfance (2:51)
14. A Comme Amour (3:20)
15. Rondo Pour Un Tout Petit Enfant (1:35)
16. Nostalgy (2:39)
17. Lettre A Ma Mère (2:46)


Контейнер: FLAC (*.flac)
Тип рипа: tracks
Разрядность: 24bit / 192kHz
Количество каналов: 2.0

With his lush and sophisticated instrumental approach to pop music, Richard Clayderman (born Philippe Pagès) is, according to The Guinness Book of World Records, "the most successful pianist in the world." Clayderman's albums routinely sell millions of copies and his concerts are quickly sold out. In a review of his 1985 Carnegie Hall concert, Variety wrote, "(Clayderman's) main appeal lies in his youth and boyish good looks...coupled with his gentlemanly charm and his thick French accent, they promise to rope in the romantically inclined middle-aged Yank ladies who cotton to this ilk of soothing entertainment." Nancy Reagan referred to Clayderman as "the prince of romance." Instructed in classical piano by his father, Clayderman enrolled in the Paris Conservatory of Music at the age of 12. Four years later, he placed first in a piano competition at the school. Despite his classical background, Clayderman opted for popular music when he launched his professional career. A tour as opening act for French rock musician Johnny Hallyday introduced him to an international following. Clayderman's debut album, Ballade Pour Adeline, recorded at the urging of producers and composers Oliver Toussaint and Paul de Senneville in 1977, sold more than 20 million copies and was distributed in 38 countries. Clayderman, who took his stage name from his Swedish grandmother, has continued to tour throughout the world to enthusiastic audiences. A live concert broadcast on Chinese television in 1987 attracted more than 800 million viewers.
His vast discography of well over 200 albums, released on and licensed to many different labels worldwide, has seen him record everything from light classics to Andrew Lloyd Webber love songs, Bollywood movie soundtracks, and the folk music of Germany, Turkey, and Japan. While this willingness to turn his hand to anything fueled his worldwide popularity, it is the unthreatening homogeneity of his output that won him a loyal, late-middle-aged fanbase similar to that of another European titan of light classical music, André Rieu. In the early 2010s, Clayderman enjoyed an upsurge in mainstream popularity, perhaps partly as a kitsch nostalgia act, but also on the part of canny marketing men who positioned him as part of that era’s classical crossover explosion. His 2013 album for Decca, Romantique — arguably his highest-profile release ever — featured a mélange of film music, pop and light classical standards, and a re-recording of his best-known tune, "Ballade pour Adeline". ~ Craig Harris & John D. Buchanan, Rovi
Код:
foobar2000 1.2.2 / Dynamic Range Meter 1.1.1
log date: 2015-06-01 19:52:38
--------------------------------------------------------------------------------
Analyzed: Richard Clayderman / Super Best
--------------------------------------------------------------------------------
DR         Peak         RMS     Duration Track
--------------------------------------------------------------------------------
DR13      -2.12 dB   -18.91 dB      3:45 ?-Concerto pour une jeune fille nommée je t'aime
DR12      -1.07 dB   -18.06 dB      2:38 ?-Ballade Pour Adeline
DR14      -4.86 dB   -23.72 dB      3:41 ?-Couleur Tendresse
DR14      -3.50 dB   -19.91 dB      3:52 ?-Concerto Des Etoiles
DR12      -4.33 dB   -19.70 dB      2:58 ?-Serenade de l'Etoile
DR12      -4.15 dB   -18.39 dB      3:20 ?-Les Derniers Jours D'Anastasia Kemsky
DR13      -3.19 dB   -18.50 dB      2:36 ?-Lady Di
DR13      -4.15 dB   -20.94 dB      1:51 ?-Un blanc jour d'un chaton
DR11      -5.04 dB   -20.08 dB      3:36 ?-Cavatina
DR14      -4.93 dB   -21.40 dB      2:49 ?-Triste Cœur
DR15      -2.55 dB   -20.85 dB      2:32 ?-Murmures
DR13      -3.39 dB   -19.13 dB      2:20 ?-Les Premiers Sourires De Vanessa
DR12      -2.73 dB   -17.35 dB      2:51 ?-Souvenirs D'Enfance
DR13      -2.27 dB   -19.38 dB      3:20 ?-A Comme Amour
DR13      -5.35 dB   -21.45 dB      1:35 ?-Rondo Pour Un Tout Petit Enfant
DR13      -2.65 dB   -21.47 dB      2:39 ?-Nostalgy
DR14      -1.03 dB   -19.49 dB      2:46 ?-Lettre A Ma Mère
--------------------------------------------------------------------------------
Number of tracks:  17
Official DR value: DR13
Samplerate:        192000 Hz
Channels:          2
Bits per sample:   24
Bitrate:           9232 kbps
Codec:             FLAC
================================================================================
При скачивании, если необходимо, переименуйте папку, в которой будет находиться альбом
Большая просьба к скачавшим поддерживать раздачу! Помогайте другим, ведь вам тоже может понадобиться помощь!
Не забываем говорить "Спасибо"!
Комментарии приветствуются!
[/spoiler]
загрузка...
Правила, инструкции, FAQ!!!
Торрент  Добавлен [01 июл 2017, 08:49] Скачать торрент Магнет ссылка
Скачать торрент
[ Размер 17.55 КБ / Просмотров 70 ]

Статус
Проверен 
 
Размер  3.19 ГБ
Приватный: Нет (DHT включён)
.torrent скачан  17
Как залить торрент? | Как скачать Torrent? | Ошибка в торренте? Качайте магнет  


     Отправить личное сообщение
   
Страница 1 из 1
Показать сообщения за:  Поле сортировки  
Начать новую тему Ответить на тему

   Похожие торренты   Автор   Ответы   Просмотры   Последнее сообщение 
В этой теме нет новых непрочитанных сообщений. Скачать торрент Проверен [TR24][OF] Richard Clayderman - Hi-Res Best - 2016 (Easy Listening, Instrumental Pop, Piano)

в форуме Hi-Res stereo (Поп), Размер: 3.35 ГБ, Здоровье: 100%

Anonymous

0
226|27

242
43

01 июл 2017, 08:49

Anonymous Перейти к последнему сообщению

В этой теме нет новых непрочитанных сообщений. Скачать торрент Проверен Julesanger - Julestemning Pa Piano (2017) [MP3|320 Kbps] <Instrumental, Piano, Easy Listening>

в форуме Easy listening, Размер: 130.16 МБ, Здоровье: 100%

Anonymous

0
1|0

17
0

14 янв 2018, 21:26

Anonymous Перейти к последнему сообщению

В этой теме нет новых непрочитанных сообщений. Скачать торрент Проверен (New Age, Instrumental, Easy Listening, Piano) Gao An - Ultimate King Of Piano - Ocean Of Maldives (2013), MP3, 320 kbps

в форуме Instrumental/New Age/Meditative/Relax, Размер: 123.89 МБ, Здоровье: 0%

Anonymous

0
0|0

17
0

19 фев 2018, 22:51

Anonymous Перейти к последнему сообщению

В этой теме нет новых непрочитанных сообщений. Скачать торрент Проверен (New Age, Instrumental, Easy Listening, Piano) Martin Ermen (Kuschelklassik) - Piano Dreams - Vol.1-3 (2002-2011), MP3, 320 kbps

в форуме Instrumental/New Age/Meditative/Relax, Размер: 427.72 МБ, Здоровье: 0%

Anonymous

0
0|0

46
0

20 фев 2018, 23:09

Anonymous Перейти к последнему сообщению

В этой теме нет новых непрочитанных сообщений. Скачать торрент Проверен [TR24][OF] Floyd Cramer - Class Of '65 - 1965/2015 (Pop, Instrumental, Easy Listening)

в форуме Hi-Res stereo (Поп), Размер: 683.11 МБ, Здоровье: 100%

Anonymous

0
6|3

12
0

03 июл 2018, 22:25

Anonymous Перейти к последнему сообщению



Сейчас этот форум просматривают: нет зарегистрированных пользователей и гости: 0


Вы не можете начинать темы
Вы не можете отвечать на сообщения
Вы не можете редактировать свои сообщения
Вы не можете удалять свои сообщения
Вы не можете добавлять вложения

Перейти:  
Ресурс не предоставляет электронные версии произведений, а занимается лишь коллекционированием и каталогизацией ссылок, присылаемых и публикуемых на форуме нашими читателями. Если вы являетесь правообладателем какого-либо представленного материала и не желаете чтобы ссылка на него находилась в нашем каталоге, свяжитесь с нами и мы незамедлительно удалим её. Файлы для обмена на трекере предоставлены пользователями сайта, и администрация не несёт ответственности за их содержание. Просьба не заливать файлы, защищенные авторскими правами, а также файлы нелегального содержания!
cron