На всех торрентах на трекере установлена скидка на скачивание в размере 100 процентов(а).
 Возможность скачивания торрента НЕ зависит от ограничений при низком ратио, низком аплоаде, требуемом ратио или требуемом аплоаде.


Начать новую тему Ответить на тему
Статистика раздачи
Размер: 3.35 ГБ | Добавлен: 01 июл 2017, 08:49 | Скачали: 18
Сидеров: 112  [0 байт/сек]    Личеров: 23  [0 байт/сек]
Пред. тема | След. тема 

Автор
Сообщение

СообщениеДобавлено: 01 июл 2017, 08:49 

Ответить с цитатой 

Richard Clayderman / Hi-Res Best
Формат записи/Источник записи: [TR24][OF]
Наличие водяных знаков: Нет
Год издания/переиздания диска: 2016
Жанр: Easy Listening, Instrumental Pop, Piano
Издатель(лейбл): Victor
Продолжительность: 48:08
Наличие сканов в содержимом раздачи: Только обложка альбома
Треклист:
01. Ballade Pour Adeline
02. Lyphard Melodie
03. Ping Pong Sous Les Arbres
04. L'Echoppe Aux Souvenirs
05. Mariage D'Amour
06. Voyage A Venise
07. Dolannes Melody
08. Give a little time to your love
09. Liebrstraum
10. Barcarole
11. Love Is Blue
12. Love Me Tender
13. Yesterday
14. Michelle
15. Love Is A Many Splendored Thing
16. Memory
17. Lara's Theme
Контейнер: FLAC (*.flac)
Тип рипа: tracks
Разрядность: 24/192
Формат: PCM
Количество каналов: 2.0
Код:
foobar2000 1.3.13 / Замер динамического диапазона (DR) 1.1.1
Дата отчёта:  2017-01-26 15:49:42
--------------------------------------------------------------------------------
Анализ:   リチャード・クレイダーマン(ピアノ) / リチャード・クレイダーマン ◎ ハイレゾ・ベスト
--------------------------------------------------------------------------------
DR         Пики         RMS           Продолжительность трека
--------------------------------------------------------------------------------
DR14      -1.58 дБ   -19.33 дБ      2:42 01-渚のアデリーヌ (Paul de Senneville)
DR15       0.00 дБ   -18.54 дБ      4:47 02-星空のピアニスト (P.de Senneville - O. Toussaint)
DR13      -4.65 дБ   -19.91 дБ      3:21 03-恋はピンポン (O.Toussaint)
DR14      -0.86 дБ   -17.92 дБ      2:27 04-想い出を売る店 (P. de Senneville - J. Baudlot - P. de Senneville)
DR13      -2.48 дБ   -18.29 дБ      2:45 05-夢の中のウェディング (P. de Senneville - O. Toussaint)
DR12      -2.21 дБ   -18.54 дБ      2:58 06-パンドラの旅 (O.Toussaint)
DR13      -4.72 дБ   -20.26 дБ      3:32 07-ドランの微笑 (P.de Senneville - O. Toussaint)
DR14      -1.71 дБ   -18.25 дБ      3:36 08-運命 '80 (Beethoven - Mozart - P. de Senneville - Slade - Arr. O.Toussaint - G. Salesses)
DR14      -1.29 дБ   -18.69 дБ      3:17 09-リストの愛の夢 (Liszt - Arr. O.Toussaint - G. Salesses)
DR14      -3.36 дБ   -20.53 дБ      3:05 10-ホフマンの舟歌 (Offenbach - Arr. O.Toussaint - G.Salesses)
DR13      -1.23 дБ   -17.43 дБ      1:50 11-恋はみずいろ (A. Popp - P. Cour - B. Blackburn)
DR14      -3.15 дБ   -20.29 дБ      2:25 12-ラヴ・ミー・テンダー (V. Matson)
DR16       0.00 дБ   -18.97 дБ      2:30 13-イエスタデイ (J.Lennon - P. McCartney)
DR13      -1.03 дБ   -19.68 дБ      3:34 14-ミッシェル (J.Lennon - P. McCartney)
DR12      -3.13 дБ   -17.95 дБ      3:00 15-慕情 (S.Fain - P.F. Webster)
DR14      -2.12 дБ   -20.56 дБ      3:08 16-メモリー ~ミュージカル「キャッツ」より (A.L.Webber - T. Nunn - T.S. Eliot)
DR13      -2.26 дБ   -17.82 дБ      2:38 17-ララのテーマ ~映画「ドクトル・ジバゴ」より (M. Jarre - P.F. Webster - H. Ithier)
--------------------------------------------------------------------------------
Количество треков: 17
Реальные значения DR: DR14
Частота:   192000 Гц
Каналов:   2
Разрядность:   24
Битрейт:   9232 кбит/с
Кодек:   FLAC
================================================================================


Источник (релизер):
загрузка...
Правила, инструкции, FAQ!!!
Торрент  Добавлен [01 июл 2017, 08:49] Скачать торрент Магнет ссылка
Скачать торрент
[ Размер 18.22 КБ / Просмотров 55 ]

Статус
Проверен 
 
Размер  3.35 ГБ
Приватный: Нет (DHT включён)
.torrent скачан  18
Как залить торрент? | Как скачать Torrent? | Ошибка в торренте? Качайте магнет  


     Отправить личное сообщение
   
Страница 1 из 1
Показать сообщения за:  Поле сортировки  
Начать новую тему Ответить на тему

   Похожие торренты   Автор   Ответы   Просмотры   Последнее сообщение 
В этой теме нет новых непрочитанных сообщений. Скачать торрент Проверен [TR24][OF] Richard Clayderman - Super Best - 2015 (Easy Listening, Instrumental Pop, Piano)

в форуме Hi-Res stereo (Поп), Размер: 3.19 ГБ, Здоровье: 100%

Anonymous

0
38|10

116
13

01 июл 2017, 08:49

Anonymous Перейти к последнему сообщению

В этой теме нет новых непрочитанных сообщений. Скачать торрент Проверен VA - Cafe Del Mar Piano Works - Chapter II (2016) [MP3|320 Kbps] <Chillout, Instrumental, Easy Listening>

в форуме Easy listening, Размер: 113.45 МБ, Здоровье: 0%

Anonymous

0
0|0

0
0

14 янв 2018, 19:15

Anonymous Перейти к последнему сообщению

В этой теме нет новых непрочитанных сообщений. Скачать торрент Проверен Julesanger - Julestemning Pa Piano (2017) [MP3|320 Kbps] <Instrumental, Piano, Easy Listening>

в форуме Easy listening, Размер: 130.16 МБ, Здоровье: 0%

Anonymous

0
0|0

2
0

14 янв 2018, 21:26

Anonymous Перейти к последнему сообщению

В этой теме нет новых непрочитанных сообщений. Скачать торрент Проверен (New Age, Instrumental, Easy Listening, Piano) Gao An - Ultimate King Of Piano - Ocean Of Maldives (2013), MP3, 320 kbps

в форуме Instrumental/New Age/Meditative/Relax, Размер: 123.89 МБ, Здоровье: 0%

Anonymous

0
0|0

0
0

Вчера, 22:51

Anonymous Перейти к последнему сообщению

В этой теме нет новых непрочитанных сообщений. Скачать торрент Проверен (New Age, Piano, Easy Listening, Instrumental) Gao An - Ultimate King Of Piano - Ocean Of Maldives - 2013, FLAC (image+.cue), lossless

в форуме Instrumental/New Age/Meditative/Relax, Размер: 258.33 МБ, Здоровье: 100%

Anonymous

0
68|10

30
3

06 янв 2017, 13:34

Anonymous Перейти к последнему сообщению



Сейчас этот форум просматривают: нет зарегистрированных пользователей и гости: 1


Вы не можете начинать темы
Вы не можете отвечать на сообщения
Вы не можете редактировать свои сообщения
Вы не можете удалять свои сообщения
Вы не можете добавлять вложения

Перейти:  
Ресурс не предоставляет электронные версии произведений, а занимается лишь коллекционированием и каталогизацией ссылок, присылаемых и публикуемых на форуме нашими читателями. Если вы являетесь правообладателем какого-либо представленного материала и не желаете чтобы ссылка на него находилась в нашем каталоге, свяжитесь с нами и мы незамедлительно удалим её. Файлы для обмена на трекере предоставлены пользователями сайта, и администрация не несёт ответственности за их содержание. Просьба не заливать файлы, защищенные авторскими правами, а также файлы нелегального содержания!
cron