На всех торрентах на трекере установлена скидка на скачивание в размере 100 процентов(а).
 Возможность скачивания торрента НЕ зависит от ограничений при низком ратио, низком аплоаде, требуемом ратио или требуемом аплоаде.


Начать новую тему Ответить на тему
Статистика раздачи
Размер: 1.46 ГБ | Добавлен: 05 окт 2018, 20:52 | Скачали: 0
Сидеров: 69  [0 байт/сек]    Личеров: 22  [0 байт/сек]
Пред. тема | След. тема 

Автор
Сообщение

СообщениеДобавлено: 05 окт 2018, 20:52 

Ответить с цитатой 

Раздражительность / Acrimony
Страна: США
Жанр: триллер
Год выпуска: 2018
Продолжительность: 02:00:28
Перевод: Профессиональный (многоголосый закадровый) | Jaskier
Субтитры: нет
Оригинальная аудиодорожка: нет
Режиссер: Тайлер Перри / Tyler Perry
В ролях: Тараджи П. Хенсон, Лайрик Бент, Кристл Стюарт, Жасмин Саймон, Даниэль Николет, Нельсон Эстевез, Кендрик Кросс, Джей Хантер, Аджиона Алексус
Описание: Верная и любящая жена однажды узнаёт, что её муж давно ведёт двойную жизнь. Обезумевшая от ярости женщина разрабатывает план мести.

Качество видео: HDRip
Формат видео: AVI
Видео: 720x304 (2.37:1), 23.976 fps, XviD build 73 ~1343 kbps avg, 0.26 bit/pixel
Аудио: 48 kHz, AC3 Dolby Digital, 3/2 (L,C,R,l,r) + LFE ch, ~384 kbps
Сэмпл[/spoiler]
Код:
Код:
Код:
Формат                                   : AVI
Формат/Информация                        : Audio Video Interleave
Размер файла                             : 1,46 Гбайт
Продолжительность                        : 2 ч. 0 м.
Общий поток                              : 1737 Кбит/сек
Программа кодирования                    : VirtualDubMod 1.5.10.2 (build 2542/release)
Библиотека кодирования                   : VirtualDubMod build 2542/release
Видео
Идентификатор                            : 0
Формат                                   : MPEG-4 Visual
Профиль формата                          : Advanced Simple@L5
Настройки формата                        : BVOP1 / Custom Matrix
Параметр BVOP формата                    : 1
Параметр QPel формата                    : Нет
Параметр GMC формата                     : Без точки перехода
Параметр матрицы формата                 : Выборочная
Идентификатор кодека                     : XVID
Идентификатор кодека/Подсказка           : XviD
Продолжительность                        : 2 ч. 0 м.
Битрейт                                  : 1344 Кбит/сек
Ширина                                   : 720 пикселей
Высота                                   : 304 пикселя
Соотношение сторон                       : 2,35:1
Частота кадров                           : 23,976 (24000/1001) кадра/сек
Цветовое пространство                    : YUV
Субдискретизация насыщенности            : 4:2:0
Битовая глубина                          : 8 бит
Тип развёртки                            : Прогрессивная
Метод сжатия                             : С потерями
Бит/(Пиксели*Кадры)                      : 0.256
Размер потока                            : 1,13 Гбайт (77%)
Библиотека кодирования                   : XviD 73
Аудио
Идентификатор                            : 1
Формат                                   : AC-3
Формат/Информация                        : Audio Coding 3
Коммерческое название                    : Dolby Digital
Идентификатор кодека                     : 2000
Продолжительность                        : 2 ч. 0 м.
Вид битрейта                             : Постоянный
Битрейт                                  : 384 Кбит/сек
Каналы                                   : 6 каналов
Channel layout                           : L R C LFE Ls Rs
Частота                                  : 48,0 КГц
Частота кадров                           : 31,250 кадров/сек (1536 SPF)
Битовая глубина                          : 16 бит
Метод сжатия                             : С потерями
Размер потока                            : 331 Мбайт (22%)
Выравнивание                             : Разделение по промежуткам
Продолжительность промежутка             : 42  мс. (1,00 видеокадр)
Время предзагрузки промежутка            : 500  мс.
ServiceKind/String                       : Complete Main


Замена озвучки на проф.
загрузка...
Правила, инструкции, FAQ!!!
Торрент  Добавлен [05 окт 2018, 20:52] Скачать торрент Магнет ссылка
Скачать торрент
[ Размер 15.09 КБ / Просмотров 4 ]

Статус
Проверен 
 
Размер  1.46 ГБ
Приватный: Нет (DHT включён)
.torrent скачан  0
Как залить торрент? | Как скачать Torrent? | Ошибка в торренте? Качайте магнет  


     Отправить личное сообщение
   
Страница 1 из 1
Показать сообщения за:  Поле сортировки  
Начать новую тему Ответить на тему

   Похожие торренты   Автор   Ответы   Просмотры   Последнее сообщение 
В этой теме нет новых непрочитанных сообщений. Скачать торрент Проверен Раздражительность / Acrimony (Тайлер Перри / Tyler Perry) [2018, США, триллер, BDRip-AVC] MVO

в форуме Триллеры, Размер: 1.39 ГБ, Здоровье: 100%

Anonymous

0
1|0

3
0

05 окт 2018, 20:44

Anonymous Перейти к последнему сообщению

В этой теме нет новых непрочитанных сообщений. Скачать торрент Проверен Отец года / Father of the Year (Тайлер Спиндел / Tyler Spindel) [2018, США, комедия, WEB-DLRip] MVO (HDRezka Studio)

в форуме Комедии, Размер: 1.45 ГБ, Здоровье: 100%

Anonymous

0
39|11

8
1

05 окт 2018, 20:06

Anonymous Перейти к последнему сообщению

В этой теме нет новых непрочитанных сообщений. Скачать торрент Проверен Tyler Florence / Тайлер Флоренс - Tyler Florence's Real Kitchen / Реальная кухня [2003, ePub, ENG]

в форуме Кулинария, Размер: 14.19 МБ, Здоровье: 100%

Anonymous

0
1|0

8
1

18 окт 2016, 23:57

Anonymous Перейти к последнему сообщению

В этой теме нет новых непрочитанных сообщений. Скачать торрент Проверен Энн Перри/Anne Perry - Сборник произведений [1979-1998, RTF, RUS]

в форуме Детективы и Боевики, Размер: 88.16 МБ, Здоровье: 100%

Anonymous

0
188|37

415
16

08 сен 2016, 21:57

Anonymous Перейти к последнему сообщению

В этой теме нет новых непрочитанных сообщений. Скачать торрент Проверен Апгрейд / Upgrade (Ли Уоннелл / Leigh Whannell) [2018, Австралия, фантастика, боевик, триллер, BDRip] MVO (Jaskier)

в форуме Фантастика, Фэнтези, Размер: 745.49 МБ, Здоровье: 100%

Гость

0
35|11

6
0

05 окт 2018, 20:41

Гость Перейти к последнему сообщению



Сейчас этот форум просматривают: нет зарегистрированных пользователей и гости: 0


Вы не можете начинать темы
Вы не можете отвечать на сообщения
Вы не можете редактировать свои сообщения
Вы не можете удалять свои сообщения
Вы не можете добавлять вложения

Перейти:  
Ресурс не предоставляет электронные версии произведений, а занимается лишь коллекционированием и каталогизацией ссылок, присылаемых и публикуемых на форуме нашими читателями. Если вы являетесь правообладателем какого-либо представленного материала и не желаете чтобы ссылка на него находилась в нашем каталоге, свяжитесь с нами и мы незамедлительно удалим её. Файлы для обмена на трекере предоставлены пользователями сайта, и администрация не несёт ответственности за их содержание. Просьба не заливать файлы, защищенные авторскими правами, а также файлы нелегального содержания!
cron