На всех торрентах на трекере установлена скидка на скачивание в размере 100 процентов(а).
 Возможность скачивания торрента НЕ зависит от ограничений при низком ратио, низком аплоаде, требуемом ратио или требуемом аплоаде.


Начать новую тему Ответить на тему
Статистика раздачи
Размер: 10.04 ГБ | Добавлен: 15 апр 2018, 18:46 | Скачали: 2
Сидеров: 2  [0 байт/сек]    Личеров: 4  [0 байт/сек]
Пред. тема | След. тема 

Автор
Сообщение

СообщениеДобавлено: 15 апр 2018, 18:46 

Ответить с цитатой 

Billy Joel - Collection
Жанр: Psychedelic Rock, Rock, Pop, Folk Rock, Soft Rock
Носитель: LP
Год выпуска: 1971/1974/1976/980/1981/1982/1983/1985/1987/1989
Лейбл: CBS, Showcase
Страна-производитель: Netherlands, Holland, UK, Spain
Аудио кодек: FLAC
Тип рипа: tracks
Формат записи: 24/96
Формат раздачи: 24/96
Продолжительность: 07:58:24
Источник оцифровки: alexpika
Код класса состояния винила: VG
Устройство воспроизведения: Profi HiFi Sound
Головка звукоснимателя: Audio Technica
Предварительный усилитель: Marantz
АЦП: Realtek HD
Программа-оцифровщик: WaveEditor
Обработка: регулировка уровня громкости программой iZotope RX3
#777Год выпуска: 1983
Лейбл: CBS – CBS 32400, PC 38984
Страна-производитель: Netherlands
Продолжительность: 00:30:06
A1. She's Got A Way - 2.50
A2. You Can Make Me Free - 2.57
A3. Everybody Loves You Now - 2.48
A4. Why Judy Why - 2.55
A5. Falling Of The Rain - 2.41
B1. Turn Around - 3.07
B2. You Look So Good To Me - 2.27
B3. Tomorrow Is Today - 4.39
B4. Nocturne - 2.50
B5. Got To Begin Again - 2.51
foobar2000 1.1.10 / Dynamic Range Meter 1.1.1
log date: 2018-04-04 08:04:56
--------------------------------------------------------------------------------
Analyzed: Billy Joel / Cold Spring Harbor
--------------------------------------------------------------------------------
DR Peak RMS Duration Track
--------------------------------------------------------------------------------
DR13 -0.26 dB -17.87 dB 2:50 ?-A1. She's Got A Way
DR13 -0.26 dB -16.34 dB 3:08 ?-B1. Turn Around
DR13 -0.26 dB -16.25 dB 2:57 ?-A2. You Can Make Me Free
DR12 -0.26 dB -14.75 dB 2:28 ?-B2. You Look So Good To Me
DR14 -0.26 dB -17.48 dB 2:49 ?-A3. Everybody Loves You Now
DR12 -0.26 dB -18.26 dB 4:38 ?-B3. Tomorrow Is Today
DR12 -0.26 dB -15.55 dB 2:57 ?-A4. Why Judy Why
DR15 -0.26 dB -20.78 dB 2:49 ?-B4. Nocturne
DR12 -0.26 dB -15.59 dB 2:41 ?-A5. Falling Of The Rain
DR11 -0.26 dB -16.98 dB 2:49 ?-B5. Got To Begin Again
--------------------------------------------------------------------------------
Number of tracks: 10
Official DR value: DR13
Samplerate: 96000 Hz
Channels: 2
Bits per sample: 24
Bitrate: 2634 kbps
Codec: FLAC
================================================================================
Arranged By, Conductor – Artie Ripp, Jimmie Haskell
Bass – Joe Osborn, Larry Knechtel
Drums – Denny Siewell (tracks: A1, A2, A4, A5, B2 to B5), Mike McGee (tracks: A3, B1), Rhys Clark (tracks: A1, A2, A4, A5, B2 to B5)
Electric Piano [Fender Rhodes] – L.D. Dixon (tracks: B1)
Engineer – John Bradley
Engineer [Assistant] – Gordon Watanabe
Engineer [Second] – Michael Stone
Executive-Producer, Other [Artist Direction (1971)] – Irwin Mazur
Guitar – Don Evans, Sal De Troia
Guitar [Steel] – Sneaky Pete
Keyboards [Not Piano] – Al Campbell (tracks: B1)
Mastered By – Doug Sax
Piano, Organ, Harpsichord, Harmonica – Billy Joel
Producer, Other [Directed By] – Artie Ripp
Recorded By [Original] – Bob Hughes
Recorded By [Re-recording], Mixed By, Edited By, Engineer – Artie Ripp, Larry Elliott
Songwriter [Words & Music] – Billy Joel
Notes
Sunburst labels carrying the catalogue number PC 38984 in brackets underneath the main catalogue number
© 1983 appears on labels and on rear sleeve.
01-032400-20 appears on labels and on rear sleeve.
Barcode and Other Identifiers
Rights Society: BIEM/STEMRA
Matrix / Runout (Side A): 01_32400_2A.1
Matrix / Runout (Side B): 01_32400_1B.1
Label Code: LC 0149
Other (Distribution Code): CB 231
Other (Price Code): 53
Other: 01-032400-20
Other (Side A): AL 38984
Other (Side B): BL 38984
#777Год выпуска: 1975
Лейбл: CBS – CBS 32035
Страна-производитель: Holland
Продолжительность: 00:37:48
A1. Streetlife Serenader - 5.18
A2. Los Angelenos - 3.41
A3. The Great Suburban Showdown - 3.46
A4. Root Beer Rag - 3.00
A5. Roberta - 4.28
B1. The Entertainer - 3.39
B2. Last Of The Big Time Spenders - 4.36
B3. Weekend Song - 3.31
B4. Souvenir - 2.01
B5. The Mexican Connection - 3.38
foobar2000 1.1.10 / Dynamic Range Meter 1.1.1
log date: 2018-04-04 13:37:06
--------------------------------------------------------------------------------
Analyzed: Billy Joel / Streetlife Serenade
--------------------------------------------------------------------------------
DR Peak RMS Duration Track
--------------------------------------------------------------------------------
DR13 -0.26 dB -18.66 dB 5:17 ?-A1. Streetlife Serenader
DR14 -0.26 dB -17.68 dB 3:42 ?-B1. The Entertainer
DR14 -0.26 dB -17.38 dB 3:45 ?-A2. Los Angelenos
DR13 -0.26 dB -18.59 dB 4:38 ?-B2. Last Of The Big Time Spenders
DR13 -0.26 dB -17.33 dB 3:48 ?-A3. The Great Suburban Showdown
DR14 -0.26 dB -16.70 dB 3:32 ?-B3. Weekend Song
DR14 -0.26 dB -17.18 dB 3:03 ?-A4. Root Beer Rag
DR11 -0.26 dB -16.13 dB 2:00 ?-B4. Souvenir
DR12 -0.26 dB -16.18 dB 4:29 ?-A5. Roberta
DR14 -0.26 dB -18.42 dB 3:36 ?-B5. The Mexican Connection
--------------------------------------------------------------------------------
Number of tracks: 10
Official DR value: DR13
Samplerate: 96000 Hz
Channels: 2
Bits per sample: 24
Bitrate: 2648 kbps
Codec: FLAC
================================================================================
Phonographic Copyright (p) – CBS Inc.
Copyright (c) – CBS Inc.
Recorded At – Devonshire Studios
Mastered At – Artisan Sound Recorders
Pressed By – CBS, Haarlem
Published By – Home Grown Music, Inc.
Published By – Tinker Street Tunes, Inc.
Credits
Art Direction, Design – Ron Coro
Bass – Emory Gordy, Larry Knechtel, Wilton Felder
Congas – Joe Clayton
Drums – Ron Tutt
Guitar – Al Hertzberg, Art Munson, Don Evans, Gary Dalton, Mike Deasy, Richard Bennett, Roj Rathor
Guitar, Arranged By – Michael Stewart
Music By, Lyrics By, Keyboards, Synthesizer [Moogs], Arranged By – Billy Joel
Organ – William Smith
Painting [Front Cover] – Brian Hagiwara
Pedal Steel Guitar, Banjo – Tom Whitehorse
Photography By [Back Cover] – Jim Marshall
Producer – Michael Stewart
Technician [Sound] – Ron Malo
Notes
Recorded at Devonshire Sound, North Hollywood
Mastered at Artisan
©1975 CBS Inc. / ℗1974 CBS Inc.
On center labels: Made in Holland
On back cover: Printed in Holland
Note: same matrix as Streetlife Serenade (but different label).
Barcode and Other Identifiers
Matrix / Runout (Label side A): CBS 32035-1
Matrix / Runout (Label side A): CBS 80766-1
Matrix / Runout (Label side B): CBS 32035-2
Matrix / Runout (Label side B): CBS 80766-2
Matrix / Runout (Runout side A (stamped) variant 1): CBS 01-80766-1A-1
Matrix / Runout (Runout side A (etched) variant 1): 01-32035-A
Matrix / Runout (Runout side B (stamped) variant 1): B NL CBS 01-80766-1B-1
Matrix / Runout (Runout side B (etched) variant 1): 01-32035-B
Matrix / Runout (Side A runout stamped variant 2): CBS 01-87066-1A-1
Matrix / Runout (Side B runout stamped variant 2): 01-87066-1B-1 B NL
Label Code (Labels): LC-0149
Label Code (Rear cover): LC 0149
Rights Society: BIEM/STEMRA
Other (Distribution code): CB 231
Other (Circled on rear cover): 53
#777Год выпуска: 1985
Лейбл: CBS – CBS 32035
Страна-производитель: Holland
Продолжительность: 00:36:33
A1. Say Goodbye To Hollywood - 4.36
A2. Summer, Highland Falls - 3.17
A3. All You Wanna Do Is Dance - 3.39
A4. New York State Of Mind - 6.00
B1. James - 3.53
B2. Prelude / Angry Young Man - 5.13
B3. I've Loved These Days - 4.33
B4. Miami 2017 (Seen The Lights Go Out On Broadway) - 5.12
foobar2000 1.1.10 / Dynamic Range Meter 1.1.1
log date: 2018-04-05 09:59:49
--------------------------------------------------------------------------------
Analyzed: Billy Joel / Turnstiles
--------------------------------------------------------------------------------
DR Peak RMS Duration Track
--------------------------------------------------------------------------------
DR14 -0.26 dB -17.18 dB 4:38 ?-A1. Say Goodbye To Hollywood
DR12 -0.26 dB -17.54 dB 3:55 ?-B1. James
DR15 -0.26 dB -19.28 dB 3:16 ?-A2. Summer, Highland Falls
DR15 -0.26 dB -18.76 dB 5:16 ?-B2. Prelude; Angry Young Man
DR15 -0.26 dB -17.67 dB 3:44 ?-A3. All You Wanna Do Is Dance
DR14 -0.26 dB -18.86 dB 4:32 ?-B3. I've Loved These Days
DR16 -0.26 dB -21.88 dB 6:01 ?-A4. New York State Of Mind
DR13 -0.26 dB -18.00 dB 5:12 ?-B4. Miami 2017 (Seen The Lights Go Out On Broadway)
--------------------------------------------------------------------------------
Number of tracks: 8
Official DR value: DR14
Samplerate: 96000 Hz
Channels: 2
Bits per sample: 24
Bitrate: 2670 kbps
Codec: FLAC
================================================================================
Phonographic Copyright (p) – CBS Inc.
Copyright (c) – CBS Inc.
Recorded At – Ultra-Sonic Recording Studios
Recorded At – Columbia 30th Street Studio
Overdubbed At – Caribou Ranch
Mixed At – Caribou Ranch
Credits
Acoustic Guitar – Howie Emerson, James Smith, Russell Javors
Arranged By [Orchestra] – Ken Ascher
Bass – Doug Stegmeyer
Coordinator [Project Coordinated By] – Jo Buckley
Design [Cover Design] – John Berg
Drums – Liberty DeVitto
Engineer – Don Puluse
Engineer [Basic Track Consultant] – Brian Ruggles
Engineer [Tape] – Lou Waxman
Engineer, Supervised By [Production Supervisor] – John Bradley
Guitar – Howie Emerson, Russell Javors
Mixed By – Bruce Botnick
Percussion – Mingo Lewis
Photography By [Cover] – Jerry Abramowitz
Producer, Keyboards, Vocals, Words By, Music By – Billy Joel
Saxophone – Richie Cannata
Notes
Recorded at Ultra-Sonic Studios, Hempstead, New York
Orchestral arrangements (...) recorded at Columbia Recording Studios, 30th Street, New York
Overdubs at Caribou Recording Studios, Nederland, Colorado
Mixed at Caribou Recording Studios
© 1976 CBS Inc. / ℗1976 CBS Inc.
On center labels: Made in Holland
On back cover: Printed in Holland
CBS Nice Price reissue with plain red center label used by CBS from 1985.
Barcode and Other Identifiers
Other (On Back Cover): CB 231
Other (On Back Cover): 53 [In A Circle]
Label Code: LC 0149
Rights Society: BIEM/STEMRA
Matrix / Runout (Label Side A): CBS 32057-1
Matrix / Runout (Label Side A): CBS 81195-1
Matrix / Runout (Label Side B): CBS 32057-2
Matrix / Runout (Label Side B): CBS 81195-2
Matrix / Runout (Runout Side A (Stamped)): B NL 01-81195-1A-1
Matrix / Runout (Runout Side A (Etched)): 01-32057-1A-1
Matrix / Runout (Runout Side B, Stamped): B 01-81195-1B-1
Matrix / Runout (Runout Side B (Etched)): 01-32057-B
#777Год выпуска: 1980
Лейбл: CBS – CBS 450087 1
Страна-производитель: Holland
Продолжительность: 00:34:49
A1. You May Be Right - 4.07
A2. Sometimes A Fantasy - 3.39
A3. Don't Ask Me Why - 2.56
A4. It's Still Rock And Roll To Me - 2.55
A5. All For Leyna - 4.10
B1. I Don't Want To Be Alone - 3.34
B2. Sleeping With The Television On - 2.59
B3. C'Etait Toi (You Were The One) - 3.45
B4. Close To The Borderline - 3.45
B5. Through The Long Night - 2.45
foobar2000 1.1.10 / Dynamic Range Meter 1.1.1
log date: 2018-04-06 20:20:33
--------------------------------------------------------------------------------
Analyzed: Billy Joel / Glass Houses
--------------------------------------------------------------------------------
DR Peak RMS Duration Track
--------------------------------------------------------------------------------
DR14 -0.26 dB -16.37 dB 4:12 ?-A1. You May Be Right
DR14 -0.26 dB -17.05 dB 3:58 ?-B1. I Don't Want To Be Alone
DR14 -0.26 dB -16.94 dB 3:40 ?-A2. Sometimes A Fantasy
DR14 -0.26 dB -16.29 dB 3:03 ?-B2. Sleeping With The Television On
DR15 -0.26 dB -18.08 dB 2:59 ?-A3. Don't Ask Me Why
DR15 -0.26 dB -18.40 dB 3:22 ?-B3. C'Etait Toi (You Were The One)
DR15 -0.26 dB -16.67 dB 2:57 ?-A4. It's Still Rock And Roll To Me
DR15 -0.26 dB -17.16 dB 3:44 ?-B4. Close To The Borderline
DR13 -0.26 dB -16.24 dB 4:11 ?-A5. All For Leyna
DR13 -0.26 dB -16.46 dB 2:41 ?-B5. Through The Long Night
--------------------------------------------------------------------------------
Number of tracks: 10
Official DR value: DR14
Samplerate: 96000 Hz
Channels: 2
Bits per sample: 24
Bitrate: 2667 kbps
Codec: FLAC
================================================================================
Published By – Impulse Music
Published By – April Music Inc.
Phonographic Copyright (p) – CBS Inc.
Copyright (c) – CBS Inc.
Credits
Bass – Doug Stegmeyer
Drums, Percussion – Liberty DeVitto
Engineer – Jim Boyer
Engineer [Assistant] – Bradshaw Leigh
Lead Guitar [Acoustic & Electric] – David Brown
Lighting [Dr. Lights] – Steve Cohen
Management [Product Management] – Jeff Schock
Mastered By – Ted Jensen
Photography By – Jim Houghton
Producer – Phil Ramone
Producer [Assistant] – Michele Slagter
Rhythm Guitar [Acoustic & Electric] – Russell Javors
Saxophone, Organ – Richie Cannata
Technician [Dr. Sound] – Brian Ruggles
Vocals, Piano, Synthesizer, Harmonica, Accordion, Words By, Music By – Billy Joel
Notes
Produced in association with Home Run
Published by Impulse Music/April Music Inc. (ASCAP)
Made in Holland (Label)
Printed in Holland (Sleeve)
℗ 1980 CBS Inc. / © 1980 CBS Inc.
Barcode and Other Identifiers
Barcode: 5 099745 008711
Rights Society: BIEM/STEMRA
Matrix / Runout (Side A Label): 01-450087-1
Matrix / Runout (Side A Label): 01-086108-1
Matrix / Runout (Side B Label): 01-450087-2
Matrix / Runout (Side B Label): 01-086108-2
Label Code: LC 0149
Other (On Back Cover): CB 231
Other (On Back Cover): 52 [In A Circle]
Other (On Back Cover): 01-450087-20
#777Год выпуска: 1985
Лейбл: CBS – 32364
Страна-производитель: Holland
Продолжительность: 000:48:23
A1. Miami 2017 (Seen The Lights Go Out On Broadway) - 5.05
A2. Summer, Highland Falls - 3.03
A3. Streetlife Serenader - 5.17
A4. Los Angelenos - 3.48
A5. She's Got A Way - 2.44
A6. Everybody Loves You Now - 3.10
B1. Say Goodbye To Hollywood - 4.25
B2. Captain Jack - 7.16
B3. You're My Home - 3.07
B4. The Ballad Of Billy The Kid - 5.28
B5. I've Loved These Days - 4.35
foobar2000 1.1.10 / Dynamic Range Meter 1.1.1
log date: 2018-04-07 14:15:04
--------------------------------------------------------------------------------
Analyzed: Billy Joel / Songs In The Attic
--------------------------------------------------------------------------------
DR Peak RMS Duration Track
--------------------------------------------------------------------------------
DR12 -0.26 dB -16.20 dB 5:05 ?-A1. Miami 2017 (Seen The Lights Go Out On Broadway)
DR13 -0.26 dB -15.66 dB 4:25 ?-B1. Say Goodbye To Hollywood
DR13 -0.26 dB -16.50 dB 3:05 ?-A2. Summer, Highland Falls
DR13 -0.26 dB -17.20 dB 7:18 ?-B2. Captain Jack
DR13 -0.26 dB -17.89 dB 5:21 ?-A3. Streetlife Serenader
DR13 -0.26 dB -16.92 dB 3:07 ?-B3. You're My Home
DR13 -0.26 dB -16.38 dB 3:47 ?-A4. Los Angelenos
DR13 -0.26 dB -17.05 dB 5:29 ?-B4. The Ballad Of Billy The Kid
DR14 -0.26 dB -19.03 dB 3:04 ?-A5. She's Got A Way
DR14 -0.26 dB -18.24 dB 4:33 ?-B5. I've Loved These Days
DR13 -0.26 dB -16.56 dB 3:08 ?-A6. Everybody Loves You Now
--------------------------------------------------------------------------------
Number of tracks: 11
Official DR value: DR13
Samplerate: 96000 Hz
Channels: 2
Bits per sample: 24
Bitrate: 2883 kbps
Codec: FLAC
================================================================================
Bass – Doug Stegmeyer
Drums – Liberty DeVitto
Guitar – David Brown
Guitar, Acoustic Guitar – Russell Javors
Organ, Saxophone – Richie Cannata
Producer – Phil Ramone
Written-By, Vocals, Piano, Keyboards – Billy Joel
The record contains live recordings from June and July 1980.
Version with non-gatefold cover and plain red center label used by CBS from 1985.
Barcode und andere Identifikationsmerkmale
Matrix / Runout (Side A): 01-032364-1
Matrix / Runout (Side B): 01-032364-2
Matrix / Runout: AL 37461
Matrix / Runout: BL 37461
Other (Catalog# of US Release): TC 37461
Other (Catalog# of original non-US release): CBS 85273
#777Год выпуска: 1982
Лейбл: CBS – CBS 460186 1
Страна-производитель: Holland
Продолжительность: 00:41:35
A1. Allentown - 3.50
A2. Laura - 5.02
A3. Pressure - 4.38
A4. Goodnight Saigon - 6.58
B1. She's Right On Time - 4.11
B2. A Room Of Our Own - 4.00
B3. Surprises - 3.28
B4. Scandinavian Skies - 5.59
B5. Where's The Orchestra ? - 3.16
foobar2000 1.1.10 / Dynamic Range Meter 1.1.1
log date: 2018-04-08 16:25:45
--------------------------------------------------------------------------------
Analyzed: Billy Joel / The Nylon Curtain
--------------------------------------------------------------------------------
DR Peak RMS Duration Track
--------------------------------------------------------------------------------
DR14 -0.26 dB -16.35 dB 3:52 ?-A1. Allentown
DR13 -0.26 dB -16.40 dB 4:14 ?-B1. She's Right On Time
DR12 -0.26 dB -14.94 dB 5:04 ?-A2. Laura
DR15 -0.26 dB -17.20 dB 4:02 ?-B2. A Room Of Our Own
DR13 -0.26 dB -14.20 dB 4:42 ?-A3. Pressure
DR13 -0.26 dB -15.39 dB 3:27 ?-B3. Surprises
DR13 -0.26 dB -18.31 dB 7:00 ?-A4. Goodnight Saigon
DR13 -0.26 dB -16.37 dB 5:58 ?-B4. Scandinavian Skies
DR13 -0.26 dB -18.21 dB 3:16 ?-B5. Where's The Orchestra
--------------------------------------------------------------------------------
Number of tracks: 9
Official DR value: DR13
Samplerate: 96000 Hz
Channels: 2
Bits per sample: 24
Bitrate: 2657 kbps
Codec: FLAC
================================================================================
Arranged By [Horns & Strings] – Dave Grusin
Artwork By [Album Art Coordination] – Paula Scher
Bass – Doug Stegmeyer
Design [Front Cover Design] – Chris Austopchuk
Design [Inner Sleeve Design] – John Berg
Drums, Percussion – Liberty DeVitto
Engineer [Assistant] – Andy Hoffman, Larry Franke, Michael Christopher
Engineer [Associate] – Bradshaw Leigh
Engineer, Remix – Jim Boyer
Lead Guitar, Acoustic Guitar [Lead] – David Brown
Mastered By – Ted Jensen
Other [Production Manager] – Kenneth Topolsky
Photography [Back Cover] – Benno Friedman
Producer – Phil Ramone
Producer [Assistant] – Laura Loncteaux
Rhythm Guitar, Acoustic Guitar [Rhythm] – Russell Javors
Violin [Concertmaster] – David Nadien (tracks: A1, A3 to B3, B5)
Vocals, Piano, Synthesizer, Organ [Hammond], Melodica, Songwriter [Words & Music] – Billy Joel
Recorded at A&R Recording and Media Sound Studios, New York.
LC 0149
CB 231
Barcode und andere Identifikationsmerkmale
Barcode: 5 099746 018610
#777Год выпуска: 1983
Лейбл: CBS – CBS 25554, 25554
Страна-производитель: Holland
Продолжительность: 00:40:12
A1. Easy Money - - 4.00
A2. An Innocent Man - 5.16
A3. The Longest Time - 3.32
A4. This Night - 4.12
A5. Tell Her About It - 3.45
B1. Uptown Girl - 3.12
B2. Careless Talk - 3.42
B3. Christie Lee - 3.25
B4. Leave A Tender Moment Alone - 3.48
B5. Keeping The Faith - 4.35
foobar2000 1.1.10 / Dynamic Range Meter 1.1.1
log date: 2018-04-09 11:02:15
--------------------------------------------------------------------------------
Analyzed: Billy Joel / An Innocent Man
--------------------------------------------------------------------------------
DR Peak RMS Duration Track
--------------------------------------------------------------------------------
DR14 -0.26 dB -16.17 dB 4:03 ?-A1. Easy Money
DR14 -0.26 dB -16.02 dB 3:16 ?-B1. Uptown Girl
DR13 -0.26 dB -18.51 dB 5:18 ?-A2. An Innocent Man
DR13 -0.26 dB -17.18 dB 3:46 ?-B2. Careless Talk
DR13 -0.26 dB -15.17 dB 3:38 ?-A3. The Longest Time
DR14 -0.26 dB -16.83 dB 3:30 ?-B3. Christie Lee
DR13 -0.26 dB -16.45 dB 4:17 ?-A4. This Night
DR14 -0.26 dB -18.12 dB 3:55 ?-B4. Leave A Tender Moment Alone
DR13 -0.26 dB -15.52 dB 3:50 ?-A5. Tell Her About It
DR15 -0.26 dB -18.32 dB 4:38 ?-B5. Keeping The Faith
--------------------------------------------------------------------------------
Number of tracks: 10
Official DR value: DR14
Samplerate: 96000 Hz
Channels: 2
Bits per sample: 24
Bitrate: 2721 kbps
Codec: FLAC
================================================================================
Distributed By – CBS Disques
Phonographic Copyright (p) – CBS Inc.
Copyright (c) – CBS Inc.
Recorded At – Chelsea Sound
Recorded At – A&R Studios
Mixed At – A&R Studios
Mastered At – Sterling Sound
Pressed By – CBS, Haarlem – 01-025554
Credits
Advisor [Musical Advisor] – Billy Zampino
Alto Saxophone – David Sanborn (tracks: A1)
Alto Saxophone, Tenor Saxophone, Percussion, Backing Vocals – Mark Rivera
Arranged By [Background Vocals] – Tom Bahler
Arranged By [Horns & Strings] – Dave Matthews
Backing Vocals – Eric Troyer, Frank Floyd, Lani Groves, Mike Alexander, Ron Taylor, Rory Dodd, Terry Textor, Tom Bahler, Ullanda McCullough
Baritone Saxophone – Ronnie Cuber (tracks: A1, A5, B2, B5)
Bass – Doug Stegmeyer
Coordinator [Production Coordinator] – Laura Loncteaux
Design [Album Cover Design], Cover [Album Cover Design] – Christopher Austopchuk, Mark Larson
Drums – Liberty DeVitto
Engineer [Additional] – Bradshaw Leigh
Engineer [Assistant] – Mike Allaire, Scott James
Engineer, Mixed By – Jim Boyer
Lead Guitar [Acoustic & Electric] – David Brown
Management – Frank Management, Inc.
Mastered By – Ted Jensen
Organ [Hammond B-3] – Leon Pendarvis (tracks: A1)
Photography By – Gilles Larrain
Producer – Phil Ramone
Rhythm Guitar [Acoustic & Electric] – Russell Javors
Strings – String Fever
Tenor Saxophone – Michael Brecker (tracks: A5, B2, B5)
Trumpet – Joe Shepley (tracks: A1, A5, B2, B5), John Gatchell (tracks: A5, B2, B5), Jon Faddis (tracks: A1)
Vocals, Piano [Baldwin Acoustic Sf-10], Electric Piano [Fender Rhodes], Organ [Hammond B3], Words By, Music By – Billy Joel
Notes
Recorded at Chelsea Sound and A&R Recording, Inc., New York, New York.
Mixed at at A&R Recording, Inc.
Ⓟ 1983 CBS Inc. Ⓒ 1983 CBS Inc.
Made in Holland / Distribué en France par CBS Disques
Barcode and Other Identifiers
Price Code: CB 281
Price Code: 58 [In A Circle]
Rights Society: BIEM/STEMRA
Label Code (On back cover): LC 0149
Label Code (On labels): LC -0149
Matrix / Runout (Side A runout variant 1): C NL 01-25554-2A-1 AL 38837
Matrix / Runout (Side B runout variant 1): D STERLING NL 01-25554-1B-1 BL 388837 [Some Unknown Characters]
Matrix / Runout (Side A runout variant 2): NL AL 38837 01-25554-3A-1 A STERLING
Matrix / Runout (Side B runout variant 2): NL STERLING 01-25554-3B-1 P BL 38837 2J
Matrix / Runout (Side A runout variant 3): 01-25554-2A-1 AL 38837 C NL STERLING
Matrix / Runout (Side B runout variant 3): 01-25554-2B-1 BL 38837 2 H B NL STERLING
Matrix / Runout (Side A runout variant 4): A STERLING NL 01-25554-1A-1 AL 38837
Matrix / Runout (Side B runout variant 4): A STERLING NL BL 38837 2H 01-25554-2B-1
Other (Manufacturing code, side A label): 01-025554-1
Other (Manufacturing code, side B label): 01-025554-2
Other (Manufacturing code, back cover and inner sleeve): 01-025554-20
#777Год выпуска: 1985
Лейбл: CBS, Family Productions – CBS 88666
Страна-производитель: Holland
Продолжительность: 01:28:00
A1. Piano Man - 5.36
A2. Say Goodbye To Hollywood - 3.53
A3. New York State Of Mind - 5.58
A4. The Stranger - 4.55
A5. Just The Way You Are - 3.34
B1. Movin' Out (Anthony's Song) - 3.27
B2. Only The Good Die Young - 3.53
B3. She's Always A Woman - 3.18
B4. My Life - 3.50
B5. Big Shot - 3.43
B6. Honesty - 3.50
C1. You May Be Right - 4.09
C2. It's Still Rock And Roll To Me - 2.54
C3. Pressure - 3.13
C4. Allentown - 3.49
C5. Goodnight Saigon - 7.02
D1. Tell Her About It - 3.55
D2. Uptown Girl - 3.15
D3. The Longest Time - 3.35
D4. You're Only Human (Second Wind) - 4.47
D5. The Night Is Still Young - 5.27
foobar2000 1.1.10 / Dynamic Range Meter 1.1.1
log date: 2018-04-10 18:07:59
--------------------------------------------------------------------------------
Analyzed: Billy Joel / Greatest Hits Volume I & Volume II
--------------------------------------------------------------------------------
DR Peak RMS Duration Track
--------------------------------------------------------------------------------
DR12 -0.26 dB -16.04 dB 5:39 ?-A1. Piano Man
DR12 -0.26 dB -14.54 dB 3:53 ?-A2. Say Goodbye To Hollywood
DR15 -0.26 dB -20.35 dB 6:01 ?-A3. New York State Of Mind
DR14 -0.26 dB -18.60 dB 5:08 ?-A4. The Stranger
DR13 -0.26 dB -17.12 dB 3:34 ?-A5. Just The Way You Are
DR13 -0.26 dB -15.84 dB 3:28 ?-B1. Movin' Out (Anthony's Song)
DR14 -0.26 dB -17.38 dB 3:54 ?-B2. Only The Good Die Young
DR12 -0.26 dB -14.92 dB 3:18 ?-B3. She's Always A Woman
DR13 -0.26 dB -16.29 dB 3:51 ?-B4. My Life
DR13 -0.26 dB -16.56 dB 3:45 ?-B5. Big Shot
DR13 -0.26 dB -17.24 dB 3:46 ?-B6. Honesty
DR13 -0.26 dB -15.70 dB 4:13 ?-C1. You May Be Right
DR14 -0.26 dB -16.73 dB 2:56 ?-C2. It's Still Rock And Roll To Me
DR14 -0.26 dB -17.45 dB 3:17 ?-C3. Pressure
DR14 -0.26 dB -17.47 dB 3:50 ?-C4. Allentown
DR14 -0.26 dB -20.71 dB 6:48 ?-C5. Goodnight Saigon
DR14 -0.26 dB -16.58 dB 3:36 ?-D1. Tell Her About It
DR13 -0.26 dB -15.86 dB 3:15 ?-D2. Uptown Girl
DR12 -0.26 dB -14.94 dB 3:36 ?-D3. The Longest Time
DR13 -0.26 dB -15.58 dB 4:47 ?-D4. You're Only Human (Second Wind)
DR13 -0.26 dB -16.96 dB 5:26 ?-D5. The Night Is Still Young
--------------------------------------------------------------------------------
Number of tracks: 21
Official DR value: DR13
Samplerate: 96000 Hz
Channels: 2
Bits per sample: 24
Bitrate: 2790 kbps
Codec: FLAC
================================================================================
Copyright (c) – CBS Inc.
Distributed By – CBS Records
Credits
Art Direction – Mark Larson
Coordinator [Production Coordinator] – Joseph D'Ambrosio
Engineer – Jim Boyer
Engineer [Assistant] – Peter Hefter
Mastered By – Ted Jensen
Photography By – Patrick Demarchelier
Producer – Billy Joel (tracks: A3), Michael Stewart (tracks: A1), Phil Ramone (tracks: A2, A4 to D5)
Words By, Music By – Billy Joel
Notes
This album consists of previously released material except for the tracks D4 and D5
Record 1 is called "Greatest Hits Volume I 1973-1980", record 2 is called "Greatest Hits Volume II 1980-1985"
Gatefold sleeve
Made in Holland
Barcode and Other Identifiers
Matrix / Runout (Side A Variant 1): 01-88666-5A-1
Matrix / Runout (Side B Variant 1): 01-88666-1B-1
Matrix / Runout (Side C Variant 1): 01-88666-1C-1
Matrix / Runout (Side D Variant 1): 01-88666-1D-1
Matrix / Runout (Side A Variant 2): 01-88666-1A1 A
Matrix / Runout (Side B Variant 2): 01-88666-2B-1 C
Matrix / Runout (Side C Variant 2): 01-88666-2C-1 C
Matrix / Runout (Side D Variant 2): 01-88666-1D-1 C
Matrix / Runout (Side A Variant 3): 01-88666-1A-1 E
Matrix / Runout (Side B Variant 3): 01-88666-113-1 C
Matrix / Runout (Side C Variant 3): 01-88666-1-C-1 B
Matrix / Runout (Side D Variant 3): 01-88666-1D1 B
Matrix / Runout (Side A Variant 4): 01-88666-1A-1 D
Matrix / Runout (Side B Variant 4): 01-88666-2B-1 A
Matrix / Runout (Side C Variant 4): 01-88666-2C-1 A
Matrix / Runout (Side D Variant 4): 01-88666-1D-1 C
Rights Society: BIEM / STEMRA
Label Code: LC 0149
Other: CB 252
Other: [in circle] 63
Other: 01-088666-20
#777Год выпуска: 1985
Лейбл: Showcase – SHLP 114
Страна-производитель: UK
Продолжительность:00:35:50
A1. Wonder Woman - 3:44
A2. California Flash - 3:40
A3. Revenge Is Sweet - 4:06
A4. Amplifier Fire - 7:49
a. Part I - Godzilla
b. Part II - March Of The Huns
B1. Rolling Home - 4:57
B2. Tear This Castle Down - 5:56
B3. Brain Invasion - 5:48
foobar2000 1.1.10 / Dynamic Range Meter 1.1.1
log date: 2018-04-04 18:08:55
--------------------------------------------------------------------------------
Analyzed: Billy Joel / California Flash
--------------------------------------------------------------------------------
DR Peak RMS Duration Track
--------------------------------------------------------------------------------
DR11 -0.26 dB -13.62 dB 3:47 ?-A1. Wonder Woman
DR12 -0.26 dB -14.34 dB 4:58 ?-B1. Rolling Home
DR11 -0.26 dB -13.63 dB 3:39 ?-A2. California Flash
DR11 -0.26 dB -13.57 dB 5:50 ?-B2. Tear This Castle Down
DR11 -0.26 dB -14.81 dB 4:07 ?-A3. Revenge Is Sweet
DR11 -0.26 dB -14.58 dB 5:39 ?-B3. Brain Invasion
DR11 -0.26 dB -14.22 dB 7:49 ?-A4. Amplifier Fire. Part I - Godzilla. Part II - March Of The Huns
--------------------------------------------------------------------------------
Number of tracks: 7
Official DR value: DR11
Samplerate: 96000 Hz
Channels: 2
Bits per sample: 24
Bitrate: 2784 kbps
Codec: FLAC
================================================================================
Licensed From – San Juan Music Group
Phonographic Copyright (p) – Castle Communications Ltd.
Copyright (c) – Castle Communications Ltd.
Published By – Mazur Enterprises, Ltd.
Credits
Design [Sleeve Design], Sleeve [Sleeve Design] – Shoot That Tiger!
Featuring [With] – Attila
Written-By – B. Joel, J. Small
Notes
Licensed from the San Juan Music Group.
This compilation ℗ 1985 Castle Communications Ltd. © 1984 Castle Communications Ltd. Unit 7, Merton Road Industrial Estate, 271 Merton Road, London SW18 5JS.
Publisher: Mazur Enterprises Ltd.-BMI
This record is a re-issue of the 1970 album "Attila", only the song "Holy Moses" is missing on this release.
The song "Amplifier Fire" consists of two parts named "Part I - Godzilla" and "Part II - March Of The Huns" on the original release. However on this release part 1 is titled wrongly with the overall title "Amplifier Fire" and part 2 is named wrongly "Godzilla Part 1".
Billy Joel is listed as sole artist here, most likely to take advantage of his fame.
The release can carry a sticker 'Collectors item featuring Billy Joel with "Attila" recorded 1970'.
Barcode and Other Identifiers
Matrix / Runout (Label Side A): SHLP 114 A
Matrix / Runout (Label Side B): SHLP 114 B
Matrix / Runout (Runout Side A): SHLP- 14 BILLY JOEL.LP-A, * MA
Matrix / Runout (Runout Side B): SHLP- 14 BILLY JOEL-LP-B, * MA
#777Год выпуска: 1987
Лейбл: CBS – CBS 460407 1
Страна-производитель: Holland
Продолжительность:01:13:52
A1. Odoya - 1.17
A2. Angry Young Man - 5.04
A3. Honesty - 3.40
A4. Goodnight Saigon - 6.39
B1. Stiletto - 5.14
B2. Big Man On Mulberry Street - 13.09
B3. Baby Grand - 5.43
C1. An Innocent Man - 6.02
C2. Allentown - 3.49
C3. A Matter Of Trust - 4.52
C4. Only The Good Die Young - 3.34
D1. Sometimes A Fantasy - 3.40
D2. Uptown Girl - 2.58
D3. Big Shot - 4.42
D4. Back In The U.S.S.R. - 2.26
D5. The Times They Are A Changin' - 2.12
foobar2000 1.1.10 / Dynamic Range Meter 1.1.1
log date: 2018-04-13 07:39:57
--------------------------------------------------------------------------------
Analyzed: Billy Joel / Концерт
--------------------------------------------------------------------------------
DR Peak RMS Duration Track
--------------------------------------------------------------------------------
DR10 -0.26 dB -14.07 dB 1:18 ?-A1. Odoya
DR14 -0.26 dB -17.18 dB 5:15 ?-A2. Angry Young Man
DR13 -0.26 dB -16.59 dB 4:07 ?-A3. Honesty
DR13 -0.26 dB -17.76 dB 7:48 ?-A4. Goodnight Saigon
DR14 -0.26 dB -17.23 dB 5:15 ?-B1. Stiletto
DR13 -0.26 dB -16.85 dB 7:16 ?-B2. Big Man On Mulberry Street
DR13 -0.26 dB -18.25 dB 6:10 ?-B3. Baby Grand
DR14 -0.26 dB -19.21 dB 6:00 ?-C1. An Innocent Man
DR14 -0.26 dB -17.63 dB 4:36 ?-C2. Allentown
DR13 -0.26 dB -15.63 dB 5:03 ?-C3. A Matter Of Trust
DR14 -0.26 dB -17.36 dB 3:53 ?-C4. Only The Good Die Young
DR13 -0.26 dB -16.21 dB 3:43 ?-D1. Sometimes A Fantasy
DR12 -0.26 dB -14.14 dB 3:05 ?-D2. Uptown Girl
DR14 -0.26 dB -16.34 dB 4:48 ?-D3. Big Shot
DR12 -0.26 dB -14.28 dB 2:45 ?-D4. Back In The U.S.S.R
DR13 -0.26 dB -16.95 dB 2:51 ?-D5. The Times They Are A Changin'
--------------------------------------------------------------------------------
Number of tracks: 16
Official DR value: DR13
Samplerate: 96000 Hz
Channels: 2
Bits per sample: 24
Bitrate: 2844 kbps
Codec: FLAC
================================================================================
Pressed By – CBS, Haarlem – 01-460407
Phonographic Copyright (p) – CBS Inc.
Credits
Art Direction – Stacy Drummond
Backing Vocals – George Simms, Peter Hewlett
Bass – Doug Stegmeyer
Composed By – Billy Joel (tracks: A1 to D3)
Coordinator [Album Coordinator] – Laura Boyer
Drums – Liberty DeVitto
Engineer [Associate] – Tim Leitner
Engineer [Live Sound] – Brian Ruggles
Executive-Producer – Frank Weber, Rick London
Guitar – Billy Joel (tracks: D4, D5), Kevin Dukes
Guitar, Acoustic Guitar – Russell Javors
Keyboards – David LeBolt
Mastered By – Ted Jensen
Mixed By – Bradshaw Leigh, Brian Ruggles, Jim Boyer
Photography By – Neil Preston
Producer – Brian Ruggles, Jim Boyer
Recorded By – Jim Boyer
Recorded By [Additional] – Bradshaw Leigh
Saxophone – Mark Rivera
Technician [Guitar] – Rich "Chainsaw" LaPointe
Technician [Keyboard] – Ted Leonard
Technician [Piano] – Wayne Williams (tracks: D4)
Vocals, Keyboards – Billy Joel
Voice [On Stage Russian Translations] – Oleg Smirnoff
Notes
The records contain live-recordings from a Billy Joel concert in Leningrad, Russia.
Track A1 performed by the Georgian Singers "Zhournalist".
Gatefold sleeve.
Cover with no title on it (plain red cover with sticker "Billy Joel Live in Moscow and Leningrad, includes "Back in the USSR").
Made In Holland
Barcode and Other Identifiers
Rights Society: BIEM/STEMRA
Barcode: 5099746040710
Label Code: LC 0149
Price Code (In cirlce): 63
Matrix / Runout (Side A runout, variant 1): 01-460407-1A-1 A
Matrix / Runout (Side B runout, variant 1): 01-460407-1B-1 B
Matrix / Runout (Side C runout, variant 1): 01-460407-1C-1 A
Matrix / Runout (Side D runout, variant 1): 01-460407-1D-1 B
Matrix / Runout (Side A runout, variant 2): 01-460407-2A-1 B
Matrix / Runout (Side B runout, variant 2): 01-460407-1B-1 A
Matrix / Runout (Side C runout, variant 2): 01-460407-1C-1 B
Matrix / Runout (Side D runout, variant 2): 01-460407-1D-1 A
#777Год выпуска: 1989
Лейбл: CBS – CBS 465658-1
Страна-производитель: Spain
Продолжительность:00:44:32
A1. That's Not Her Style - 5.08
A2. We Didn't Start The Fire - 4.49
A3. The Downeaster "Alexa" - 3.40
A4. I Go To Extremes - 4.21
A5. Shameless - 4.24
B1. Storm Front - 5.15
B2. Leningrad - 4.03
B3. State Of Grace - 4.29
B4. When In Rome - 4.44
B5. And So It Goes - 3.36
foobar2000 1.1.10 / Dynamic Range Meter 1.1.1
log date: 2018-04-13 07:48:58
--------------------------------------------------------------------------------
Analyzed: Billy Joel / Storm Front
--------------------------------------------------------------------------------
DR Peak RMS Duration Track
--------------------------------------------------------------------------------
DR12 -0.26 dB -15.62 dB 5:08 ?-A1. That's Not Her Style
DR13 -0.26 dB -14.82 dB 5:14 ?-B1. Storm Front
DR14 -0.26 dB -18.14 dB 4:47 ?-A2. We Didn't Start The Fire
DR15 -0.26 dB -17.79 dB 4:05 ?-B2. Leningrad
DR12 -0.26 dB -14.87 dB 3:43 ?-A3. The Downeaster 'Alexa'
DR13 -0.26 dB -16.64 dB 4:28 ?-B3. State Of Grace
DR13 -0.26 dB -15.06 dB 4:21 ?-A4. I Go To Extremes
DR13 -0.26 dB -16.00 dB 4:48 ?-B4. When In Rome
DR13 -0.26 dB -15.75 dB 4:24 ?-A5. Shameless
DR14 -0.26 dB -17.66 dB 3:35 ?-B5. And So It Goes
--------------------------------------------------------------------------------
Number of tracks: 10
Official DR value: DR13
Samplerate: 96000 Hz
Channels: 2
Bits per sample: 24
Bitrate: 2703 kbps
Codec: FLAC
================================================================================
Copyright (c) – CBS Records Inc.
Recorded At – The Hit Factory
Recorded At – Right Track Recording
Recorded At – The Warehouse Studio
Recorded At – Power Station
Mixed At – The Hit Factory
Mixed At – Right Track Recording
Mastered At – Sterling Sound
Manufactured By – Tecnodisco, S.A.
Distributed By – Discos CBS, S.A., Madrid
Credits
Art Direction – Christopher Austopchuk
Backing Vocals – Crystal Taliefero (tracks: A1, A2, A5, B1, B4), Frank Floyd (tracks: A1, A5, B1), Mick Jones (2) (tracks: A1, A4, B3), Patti Darcy (tracks: A1, A5, B1, B4)
Bass – Schuyler Deale (tracks: A1 to B4)
Drums – Liberty DeVitto (tracks: A1 to B4)
Engineer – Jay Healy
Engineer [Assistant] – Dana Becker, David Dorn, Gary Solomon, Joe Pirerra, Suzanne Hollander, Tim Crich
Guitar – David Brown (6) (tracks: A1 to B4)
Mastered By – Ted Jensen
Mixed By – Jay Healy (tracks: A3 to B5), Tom Lord-Alge (tracks: A1 to A3)
Photography By [Back] – Timothy White
Photography By [Front] – Frank Ockenfels 3
Producer – Mick Jones
Producer, Vocals, Piano, Synthesizer, Organ, Accordion, Percussion – Billy Joel
Synthesizer – Jeff Jacobs (tracks: A1 to B4)
Written-By – Billy Joel
Notes
Itzhak Perlman is credited as 'World Famous Incognito Violinist'.
Comes with printed inner lyrics sleeve.
On labels:
℗ 1989 CBS Records Inc.
On back sleeve:
℗ 1989 CBS Records Inc.
Barcode and Other Identifiers
Barcode: 5 099746 565817
Rights Society: SGAE
Depósito Legal: M-30816-1989

Раздаю до первых 5-ти скачавших, на раздачи не возвращаюсь...

загрузка...
Правила, инструкции, FAQ!!!
Торрент  Добавлен [15 апр 2018, 18:46] Скачать торрент Магнет ссылка
Скачать торрент
[ Размер 65.85 КБ / Просмотров 98 ]

Статус
Проверен 
 
Размер  10.04 ГБ
Приватный: Нет (DHT включён)
.torrent скачан  2
Как залить торрент? | Как скачать Torrent? | Ошибка в торренте? Качайте магнет  


     Отправить личное сообщение
   
Страница 1 из 1
Показать сообщения за:  Поле сортировки  
Начать новую тему Ответить на тему

   Похожие торренты   Автор   Ответы   Просмотры   Последнее сообщение 
В этой теме нет новых непрочитанных сообщений. Скачать торрент Проверен (Folk Rock, Soft Rock, Psychedelic Rock, Classic Ro) [24/96] [2 LP] Jefferson Airplane - 2400 Fulton Street (1966 - 1971) - 1987, FLAC (tracks)

в форуме Зарубежный рок (оцифровки), Размер: 1.67 ГБ, Здоровье: 100%

Anonymous

0
5|1

28
0

26 авг 2016, 16:22

Anonymous Перейти к последнему сообщению

В этой теме нет новых непрочитанных сообщений. Скачать торрент Проверен [TR24][OF] Billy Joel - Piano Man: The Very Best Of Billy Joel - 2004/2014 (Pop Rock, Soft Rock)

в форуме Hi-Res stereo (рок), Размер: 1.69 ГБ, Здоровье: 100%

Anonymous

0
29|8

83
1

15 апр 2018, 07:33

Anonymous Перейти к последнему сообщению

В этой теме нет новых непрочитанных сообщений. Скачать торрент Проверен [TR24][OF] Billy Joel - Songs In The Attic - 1981/2014 (Pop Rock, Soft Rock)

в форуме Hi-Res stereo (рок), Размер: 1.04 ГБ, Здоровье: 71%

Anonymous

0
5|7

35
0

24 авг 2016, 10:09

Anonymous Перейти к последнему сообщению

В этой теме нет новых непрочитанных сообщений. Скачать торрент Проверен [TR24][OF] Billy Joel - Turnstiles - 1976/2014 (Pop Rock, Soft Rock)

в форуме Hi-Res stereo (рок), Размер: 773.24 МБ, Здоровье: 100%

Anonymous

0
9|3

30
0

24 авг 2016, 09:58

Anonymous Перейти к последнему сообщению

В этой теме нет новых непрочитанных сообщений. Скачать торрент Проверен [TR24][OF] Billy Joel - Streetlife Serenade - 1974/2014 (Pop Rock, Soft Rock)

в форуме Hi-Res stereo (рок), Размер: 802.81 МБ, Здоровье: 100%

Anonymous

0
12|2

18
1

24 авг 2016, 10:09

Anonymous Перейти к последнему сообщению



Сейчас этот форум просматривают: нет зарегистрированных пользователей и гости: 1


Вы не можете начинать темы
Вы не можете отвечать на сообщения
Вы не можете редактировать свои сообщения
Вы не можете удалять свои сообщения
Вы не можете добавлять вложения

Перейти:  
Ресурс не предоставляет электронные версии произведений, а занимается лишь коллекционированием и каталогизацией ссылок, присылаемых и публикуемых на форуме нашими читателями. Если вы являетесь правообладателем какого-либо представленного материала и не желаете чтобы ссылка на него находилась в нашем каталоге, свяжитесь с нами и мы незамедлительно удалим её. Файлы для обмена на трекере предоставлены пользователями сайта, и администрация не несёт ответственности за их содержание. Просьба не заливать файлы, защищенные авторскими правами, а также файлы нелегального содержания!
cron