На всех торрентах на трекере установлена скидка на скачивание в размере 100 процентов(а).
 Возможность скачивания торрента НЕ зависит от ограничений при низком ратио, низком аплоаде, требуемом ратио или требуемом аплоаде.


Начать новую тему Ответить на тему
Статистика раздачи
Размер: 749.87 МБ | Добавлен: 03 сен 2016, 17:40 | Скачали: 4
Сидеров: 22  [0 байт/сек]    Личеров: 6  [0 байт/сек]
Пред. тема | След. тема 

Автор
Сообщение

СообщениеДобавлено: 03 сен 2016, 17:40 

Ответить с цитатой 

Zephyr / Zephyr (1969) / Going back to colorado (1971) /Sunset ride (1972)

Жанр: Psychedelic,Prog,Hard,Blues Rock
Носитель: CD
Год издания: 2010
Аудиокодек: FLAC (*.flac)
Тип рипа: image+.cue
Битрейт аудио: lossless
Продолжительность: 64:32+63:37
Источник (релизер): my disc
Наличие сканов в содержимом раздачи: да

Томми Болин родился 1 августа 1951 года в Суокс Сити, штат Айова в США. С детства увлекался музыкой, был выгнан из колледжа за отказ обрезать длинные волосы. К концу 60-х переехал в Денвер, штат Колорадо. Он был тусовщиком, играл в различных группах, в 1969 основал группу Zephyr, с которой записал свой первый студийный альбом. Блюзовое звучание, женский вокал, напоминающий Janis Joplin и интересные гитарные партии позволили пластинке засветиться в чартах.

Треклист:
01. Sail On [0:07:43.58]
02. Sun's A-Risin' [0:04:31.67]
03. Raindrops:Boom-Ba-Boom [0:02:42.58]
04. Raindrops:Somebody Listen [0:07:32.12]
05. Cross The River [0:04:52.68]
06. St.James Infirmary [0:05:43.67]
07. Huna Buna [0:02:27.08]
08. Hard Chargin' Woman [0:09:18.15]
09. Going Back To Colorado [0:04:17.72]
10. Miss Libertine [0:03:19.45]
11. Night Fades Softly [0:03:22.50]
12. The Radio Song [0:02:28.53]
13. See People Come Together [0:06:09.25]
Код:
[i][color=gray]Exact Audio Copy V1.0 beta 3 from 29. August 2011
[/color]Отчёт EAC об извлечении, выполненном 30. ноября 2013, 7:07

Zephyr / Zephyr / Going Back To Colorado

Дисковод: TSSTcorpCDDVDW SH-224DB   Adapter: 1  ID: 0

Режим чтения                 : Достоверность
Использование точного потока : Да
Отключение кэша аудио        : Да
Использование указателей C2  : Нет

Коррекция смещения при чтении                     : 6
Способность читать области Lead-in и Lead-out     : Нет
Заполнение пропущенных сэмплов тишиной            : Да
Удаление блоков с тишиной в начале и конце        : Нет
При вычислениях CRC использовались нулевые сэмплы : Да
Интерфейс                                         : Встроенный Win32-интерфейс для Win NT/2000

Выходной формат          : Пользовательский кодировщик
Выбранный битрейт        : 768 kBit/s
Качество                 : Высокий
Добавление ID3-тега      : Нет
Утилита сжатия           : C:\Program Files\Exact Audio Copy\Flac\flac.exe
Дополнительные параметры : -V -8 -T "Date=%year%" -T "Genre=%genre%" %source%

TOC извлечённого CD

     Трек |   Старт  | Длительность | Начальный сектор | Конечный сектор
    ---------------------------------------------------------------------
       1  |  0:00.00 |    7:43.58   |           0      |      34782
       2  |  7:43.58 |    4:31.67   |       34783      |      55174
       3  | 12:15.50 |    2:42.58   |       55175      |      67382
       4  | 14:58.33 |    7:32.12   |       67383      |     101294
       5  | 22:30.45 |    4:52.68   |      101295      |     123262
       6  | 27:23.38 |    5:43.67   |      123263      |     149054
       7  | 33:07.30 |    2:27.08   |      149055      |     160087
       8  | 35:34.38 |    9:18.15   |      160088      |     201952
       9  | 44:52.53 |    4:17.72   |      201953      |     221299
      10  | 49:10.50 |    3:19.45   |      221300      |     236269
      11  | 52:30.20 |    3:22.50   |      236270      |     251469
      12  | 55:52.70 |    2:28.53   |      251470      |     262622
      13  | 58:21.48 |    6:09.25   |      262623      |     290322

Характеристики диапазона извлечения и сообщения об ошибках

Выбранный диапазон

     Имя файла D:\lo$$le$$\zephyr'69+71+72\Zephyr - Zephyr , Going Back To Colorado.wav

     Пиковый уровень 100.0 %
     Скорость извлечения 7.5 X
     Качество диапазона 100.0 %
     CRC теста D8043879
     CRC копии D8043879
     Копирование... OK

Ошибок не произошло

Конец отчёта

==== Контрольная сумма отчёта 7D0CD503D31086B938C74F3C39903E85ECD0B8EDDF610031DD85F5F7AF82DD39 ====[/i]
01. Showbizzy [0:02:34.15]
02. Keep Me [0:04:24.70]
03. Take My Love [0:04:18.35]
04. I'll Be Right Here [0:04:26.55]
05. At This Very Moment [0:05:54.69]
06. I'm Not Surprised [0:05:19.08]
07. Someone To Chew [0:02:54.30]
08. High Flying Bird [0:03:38.14]
09. No Time Lonesome [0:04:06.00]
10. Moving Too Fast [0:05:19.49]
11. Sold My Heart [0:03:47.48]
12. Sierra Cowgirl [0:03:11.33]
13. Chasing Clouds [0:04:06.53]
14. Sunset Ride [0:03:46.01]
15. Winter Always Finds Me [0:05:48.70]
Код:
[i][color=gray]Exact Audio Copy V1.0 beta 3 from 29. August 2011
[/color]Отчёт EAC об извлечении, выполненном 30. ноября 2013, 6:39

Zephyr / Going Back To Colorado / Sunset Ride

Дисковод: TSSTcorpCDDVDW SH-224DB   Adapter: 1  ID: 0

Режим чтения                 : Достоверность
Использование точного потока : Да
Отключение кэша аудио        : Да
Использование указателей C2  : Нет

Коррекция смещения при чтении                     : 6
Способность читать области Lead-in и Lead-out     : Нет
Заполнение пропущенных сэмплов тишиной            : Да
Удаление блоков с тишиной в начале и конце        : Нет
При вычислениях CRC использовались нулевые сэмплы : Да
Интерфейс                                         : Встроенный Win32-интерфейс для Win NT/2000

Выходной формат          : Пользовательский кодировщик
Выбранный битрейт        : 768 kBit/s
Качество                 : Высокий
Добавление ID3-тега      : Нет
Утилита сжатия           : C:\Program Files\Exact Audio Copy\Flac\flac.exe
Дополнительные параметры : -V -8 -T "Date=%year%" -T "Genre=%genre%" %source%

TOC извлечённого CD

     Трек |   Старт  | Длительность | Начальный сектор | Конечный сектор
    ---------------------------------------------------------------------
       1  |  0:00.00 |    2:34.15   |           0      |      11564
       2  |  2:34.15 |    4:24.70   |       11565      |      31434
       3  |  6:59.10 |    4:18.35   |       31435      |      50819
       4  | 11:17.45 |    4:26.55   |       50820      |      70824
       5  | 15:44.25 |    5:54.69   |       70825      |      97443
       6  | 21:39.19 |    5:19.08   |       97444      |     121376
       7  | 26:58.27 |    2:54.30   |      121377      |     134456
       8  | 29:52.57 |    3:38.14   |      134457      |     150820
       9  | 33:30.71 |    4:06.00   |      150821      |     169270
      10  | 37:36.71 |    5:19.49   |      169271      |     193244
      11  | 42:56.45 |    3:47.48   |      193245      |     210317
      12  | 46:44.18 |    3:11.33   |      210318      |     224675
      13  | 49:55.51 |    4:06.53   |      224676      |     243178
      14  | 54:02.29 |    3:46.01   |      243179      |     260129
      15  | 57:48.30 |    5:48.70   |      260130      |     286299

Характеристики диапазона извлечения и сообщения об ошибках

Выбранный диапазон

     Имя файла D:\lo$$le$$\zephyr'69+71+72\Zephyr - Going Back To Colorado , Sunset Ride.wav

     Пиковый уровень 99.9 %
     Скорость извлечения 7.4 X
     Качество диапазона 99.9 %
     CRC теста 9FCB6CC7
     CRC копии 9FCB6CC7
     Копирование... OK

Ошибок не произошло

Конец отчёта

==== Контрольная сумма отчёта 41E71D8146B96AAFB3406C1CDC56583AED794427B86B45CF9E3301DEA1416E88 ====[/i]
1969:
Zephyr - Zephyr (1969). Великолепный, раритетный альбом. В конце 60х по планете рока начал свое победное шествие тяжелый рок. Интереснейшее было время, на музыкальном перекрестке встретились психоделик, блюз и новое, хардовое звучание. Одной из лучших команд, игравших эту заводную и адскую смесь, был как раз Zephyr. Эклектичная работа, обрывки и фрагменты всех перечисленных стилей и музыкальных направлений, что именно и придает особый вкус этому дебютнику.Отличные блюзовые композиции перемежаются вещами. в которых Zephyr кажется более похожим на Deep Purple, чем сами авторитеты. И, конечно, потрясающий с музыкальной сумасшедшинкой, вокал Кэнди Гивенс, без которого музыка и драйв были бы совсем иными. По надрыву и самоотдаче эту хрупкую девушку можно даже сравнить с самой Королевой - Дженис. Может быть, сходство с Пёрпл прослеживается не зря? Недаром Зефир стал первым коллективом будущего участника DP, Томми Болина.
1971:
Zephyr - Going back to Colorado (1971). Еще один альбом замечательной команды, в которой дебютировал будущий участник Deep Purple Томми Болин. Да, этот парень, который прожил всего двадцать пять лет и умер в гостиничном номере от передоза, оставил такое наследие, которому могли бы позавидовать многие его коллеги по гитарному цеху. В общем, кроме отличных работ с Zephyr он успел поработать в James Gang и Перпл, а также выпустить несколько мощных сольных проектов.При всей пафосности его сотрудничества с кумирами из DP и при том, что Come taste the band на самом деле оказался классной пластинкой, несмотря на кислые отзывы критиков, Going back to Colorado можно смело записать ему в актив и считать одной из лучших работ этого выдающегося гитариста. Естественно, к его таланту здесь добавился чудный вокал Кэнди Гивенс - результат налицо.
1972:
Продолжение темы. Третий альбом группы из Boulder (штат Colorado). Записан без Томми Болина. Но это малозаметно... Что Томми, что не Томми - всё равно... Главное, здесь осталась Кэнди (Candy Givens) с её усыпляюще-завораживающим голосом (этаким female Robert Plant)... После записи этого альбома группа распалась...
Candy Givens-Lead Vocal, Harmonica
Robbie Chamberlin-Drums, Backing Vocal
David Givens-Bass, Backing Vocal
John Faris-Piano, Organ, Flute
Tommy Bolin-Guitar, Backing Vocal

Candy Givens – lead vocals, harmonica, piano (tracks 1,7,9)
David Givens – bass, vocal (track 4), acoustic guitar (tracks 2)
Jock Bartley – guitar, vocals (tracks 6,10)
Dan Smyth - organ, piano
P.M.Wooten – drums, percussion
John Alfonse - congas
загрузка...
Правила, инструкции, FAQ!!!
Торрент  Добавлен [03 сен 2016, 17:40] Скачать торрент Магнет ссылка
Скачать торрент
[ Размер 15.88 КБ / Просмотров 101 ]

Статус
Проверен 
 
Размер  749.87 МБ
Приватный: Нет (DHT включён)
.torrent скачан  4
Как залить торрент? | Как скачать Torrent? | Ошибка в торренте? Качайте магнет  


     Отправить личное сообщение
   
Страница 1 из 1
Показать сообщения за:  Поле сортировки  
Начать новую тему Ответить на тему

   Похожие торренты   Автор   Ответы   Просмотры   Последнее сообщение 
В этой теме нет новых непрочитанных сообщений. Скачать торрент Проверен (Progressive Rock) Zephyr-Going Back To Colorado - 1971, FLAC (image+.cue), lossless

в форуме Classic Rock & Hard Rock, Размер: 238.01 МБ, Здоровье: 100%

Anonymous

0
3|0

13
2

05 сен 2016, 19:18

Anonymous Перейти к последнему сообщению

В этой теме нет новых непрочитанных сообщений. Скачать торрент Проверен (Psychedelic, Hard Rock, Blues-Rock) Zephyr- Zephyr - 1969, FLAC (tracks), lossless

в форуме Classic Rock & Hard Rock, Размер: 235.22 МБ, Здоровье: 100%

Anonymous

0
7|3

9
1

03 сен 2016, 14:07

Anonymous Перейти к последнему сообщению

В этой теме нет новых непрочитанных сообщений. Скачать торрент Проверен (Rock)[LP][24/96] Zephyr - Zephyr - 1969 , APE (image+.cue), lossless

в форуме Зарубежный рок (оцифровки), Размер: 874.19 МБ, Здоровье: 100%

Anonymous

0
6|1

12
0

26 авг 2016, 08:20

Anonymous Перейти к последнему сообщению

В этой теме нет новых непрочитанных сообщений. Скачать торрент Проверен (Blues Rock) Zephyr - Reed Ranch, Colorado Springs, CO (bootleg) - 1969, MP3 , 256 kbps

в форуме Classic Rock & Hard Rock, Размер: 69.34 МБ, Здоровье: 100%

Anonymous

0
3|0

1
1

13 ноя 2016, 12:41

Anonymous Перейти к последнему сообщению

В этой теме нет новых непрочитанных сообщений. Скачать торрент Проверен (Psychedelic Hard , Blues-rock / Jazz Fusion) [CD] Zephyr - Live At Art's Bar & Grill (1973) - 1997, FLAC (tracks+.cue), lossless

в форуме Classic Rock & Hard Rock, Размер: 455.89 МБ, Здоровье: 100%

Anonymous

0
2|1

11
2

04 сен 2016, 23:22

Anonymous Перейти к последнему сообщению



Сейчас этот форум просматривают: нет зарегистрированных пользователей и гости: 2


Вы не можете начинать темы
Вы не можете отвечать на сообщения
Вы не можете редактировать свои сообщения
Вы не можете удалять свои сообщения
Вы не можете добавлять вложения

Перейти:  
Ресурс не предоставляет электронные версии произведений, а занимается лишь коллекционированием и каталогизацией ссылок, присылаемых и публикуемых на форуме нашими читателями. Если вы являетесь правообладателем какого-либо представленного материала и не желаете чтобы ссылка на него находилась в нашем каталоге, свяжитесь с нами и мы незамедлительно удалим её. Файлы для обмена на трекере предоставлены пользователями сайта, и администрация не несёт ответственности за их содержание. Просьба не заливать файлы, защищенные авторскими правами, а также файлы нелегального содержания!
cron