На всех торрентах на трекере установлена скидка на скачивание в размере 100 процентов(а).
 Возможность скачивания торрента НЕ зависит от ограничений при низком ратио, низком аплоаде, требуемом ратио или требуемом аплоаде.


Начать новую тему Ответить на тему
Статистика раздачи
Размер: 39.53 ГБ | Добавлен: 20 июн 2015, 18:08 | Скачали: 101
Сидеров: 65  [0 байт/сек]    Личеров: 229  [0 байт/сек]
Пред. тема | След. тема 

Автор
Сообщение

СообщениеДобавлено: 20 июн 2015, 18:08 

Название: Прослушка
Оригинальное название: The Wire
Год выпуска: 2002-2008
Жанр: Триллер, драма, криминал, детектив
Режиссер: Джо Чаппелль, Клемент Вирго, Роб Бэйли
В ролях: Доминик Уэст, Джон Доумен, Дирдри Лавджой, Уэнделл Пирс, Лэнс Реддик, Соня Сон, Сет Гиллиам, Доменик Ломбардоззи, Кларк Питерс, Андре Ройо, Майкл К. Уильямс, Джим Тру-Фрост, Фрэнки Фэйзон, Кори Паркер Робинсон, Делани Уильямс, Дж.Д. Уильямс, Вуд Харрис, Идрис Эльба, Эйден Гиллен, Джэми Гектор, Гбенга Акиннагбе, Роберт Уиздом, Чад Коулмэн, Анван Гловер, Майкл Кострофф, Трей Чейни, Исайя Уитлок мл., Майкл Салкони, Фелиция Пирсон, Роберт Ф. Чю

Описание: Самый популярный в америке сериал про полицейских. Сериал повествует о полицейских расследованиях в Балтиморе. Именно этот сериал, любимый сериал полицейских и гангстеров помог правоохранительным органам разгромить сеть наркоторговцев. Полицейские источники сообщили, что лидеры преступной группировки вели себя в точности как герои телесериала, в частности, постоянно меняли мобильные телефоны, затрудняя прослушивание. В ходе подготовки операции полицейские широко применяли прослушивание телефонных разговоров гангстеров. В результате были арестованы 12 человек, изъяты 43 кг кокаина, 500.000 долларов наличными, 18 единиц оружия и пять дорогостоящих автомобилей. Бандиты, оказавшиеся большими поклонниками "Прослушки", помимо обсуждения своих дел по телефону, говорили и о сюжете очередной серии. Полицейские, прослушивавшие их, тоже любили этот фильм. Если мы пропускали какой-то эпизод, то всегда могли узнать подробности из их бесед, – сообщили стражи порядка Криминальная драма, написана, снята и спродюсирована в Балтиморе бывшим полицейским репортером Дэвидом Саймоном.

Выпущено: США, Blown Deadline Productions, Home Box Office (HBO)
Продолжительность: 60 x ~ 00:58:00
Перевод: Профессиональный многоголосый [Fox Crime]

Качество: WEB-DLRip
Видео: XviD build 73, ~ 1500 Кбит/с, 720x400
Аудио rus: MP3, 2 ch, 128 Кбит/с
Полное имя : D:The.Wire5�9.The.Wire.tahiy.avi
Формат : AVI
Формат/Информация : Audio Video Interleave
Размер файла : 679 Мбайт
Продолжительность : 59 м.
Общий поток : 1584 Кбит/сек
Название фильма : The.Wire.tahiy
Программа кодирования : VirtualDubMod 1.5.10.3 | http://www.virtualdub-fr.org || (build 2550/release)

Видео
Идентификатор : 0
Формат : MPEG-4 Visual
Профиль формата : Advanced Simple@L5
Параметр BVOP формата : 1
Параметр QPel формата : Нет
Параметр GMC формата : Без точки перехода
Параметр матрицы формата : Default (MPEG)
Идентификатор кодека : XVID
Идентификатор кодека/Подсказка : XviD
Продолжительность : 59 м.
Битрейт : 1447 Кбит/сек
Ширина : 720 пикселей
Высота : 400 пикселей
Соотношение сторон : 16:9
Частота кадров : 23,976 кадра/сек
Цветовое пространство : YUV
Субдискретизация насыщенности : 4:2:0
Битовая глубина : 8 бит
Тип развёртки : Прогрессивная
Метод сжатия : С потерями
Бит/(Пиксели*Кадры) : 0.210
Размер потока : 620 Мбайт (91%)
Библиотека кодирования : XviD 73

Аудио
Идентификатор : 1
Формат : MPEG Audio
Версия формата : Version 1
Профиль формата : Layer 3
Режим : Joint stereo
Идентификатор кодека : 55
Идентификатор кодека/Подсказка : MP3
Продолжительность : 59 м.
Вид битрейта : Постоянный
Битрейт : 128 Кбит/сек
Каналы : 2 канала
Частота : 48,0 КГц
Метод сжатия : С потерями
Размер потока : 54,8 Мбайт (8%)
Выравнивание : Соединение по промежуткам
Продолжительность промежутка : 42 мс. (1,00 видеокадр)
Время предзагрузки промежутка : 504 мс.
Библиотека кодирования : LAME3.99r
Настройки программы : -m j -V 4 -q 2 -lowpass 17 -b 128



загрузка...
Правила, инструкции, FAQ!!!
Торрент  Добавлен [20 июн 2015, 18:08] Скачать торрент
Скачать торрент
[ Размер 204.01 КБ / Просмотров 10 ]

Статус
Проверен 
 
Размер  39.53 ГБ
Приватный: Нет (DHT включён)
.torrent скачан  101
Как залить торрент? | Как скачать Torrent? | Как смотреть и слушать онлайн?  


     Отправить личное сообщение
   
Страница 1 из 1
Показать сообщения за:  Поле сортировки  
Начать новую тему Ответить на тему

   Похожие торренты   Автор   Ответы   Просмотры   Последнее сообщение 
В этой теме нет новых непрочитанных сообщений. Скачать торрент Проверен Укради мою жену / Life of Crime (2014) WEB-DLRip

в форуме Комедии, Размер: 1.35 ГБ, Здоровье: 100%

Anonymous

0
284|71

92
0

06 сен 2014, 09:04

Anonymous Перейти к последнему сообщению

В этой теме нет новых непрочитанных сообщений. Скачать торрент Проверен (Classic Rock) The Red Wire - The Red Wire - 2015, MP3, 320 kbps

в форуме Classic Rock & Hard Rock, Размер: 107.72 МБ, Здоровье: 0%

Anonymous

0
0|0

11
0

14 ноя 2016, 19:38

Anonymous Перейти к последнему сообщению

В этой теме нет новых непрочитанных сообщений. Скачать торрент Проверен (AOR) Partners In Crime - Organised Crime - 1985, MP3, 224 kbps

в форуме AOR (Melodic Hard Rock, Arena rock), Размер: 72.46 МБ, Здоровье: 0%

Anonymous

0
0|0

1
0

08 окт 2016, 01:43

Anonymous Перейти к последнему сообщению

В этой теме нет новых непрочитанных сообщений. Скачать торрент Проверен (Southern Rock) Tow Truck Tom & The Roadside Wrecks - Rope, Wire,Chain - 2002, MP3, 320 kbps

в форуме Classic Rock & Hard Rock, Размер: 69.98 МБ, Здоровье: 100%

Anonymous

0
1|0

0
0

13 ноя 2016, 15:16

Anonymous Перейти к последнему сообщению

В этой теме нет новых непрочитанных сообщений. Скачать торрент Проверен (Melodic Rock | AOR) Walk The Wire - Walk The Wire - 1994, MP3, 320 kbps

в форуме AOR (Melodic Hard Rock, Arena rock), Размер: 115.52 МБ, Здоровье: 100%

Anonymous

0
1|0

11
1

08 окт 2016, 00:54

Anonymous Перейти к последнему сообщению



Сейчас этот форум просматривают: нет зарегистрированных пользователей и гости: 1


Вы не можете начинать темы
Вы не можете отвечать на сообщения
Вы не можете редактировать свои сообщения
Вы не можете удалять свои сообщения
Вы не можете добавлять вложения

Перейти:  

!ВНИМАНИЕ!
 Ресурс не предоставляет электронные версии произведений, а занимается лишь коллекционированием и каталогизацией ссылок, присылаемых и публикуемых на форуме нашими читателями. Если вы являетесь правообладателем какого-либо представленного материала и не желаете чтобы ссылка на него находилась в нашем каталоге, свяжитесь с нами и мы незамедлительно удалим её. Файлы для обмена на трекере предоставлены пользователями сайта, и администрация не несёт ответственности за их содержание. Просьба не заливать файлы, защищенные авторскими правами, а также файлы нелегального содержания!