На всех торрентах на трекере установлена скидка на скачивание в размере 100 процентов(а).
 Возможность скачивания торрента НЕ зависит от ограничений при низком ратио, низком аплоаде, требуемом ратио или требуемом аплоаде.


Начать новую тему Ответить на тему
Статистика раздачи
Размер: 1.39 ГБ | Добавлен: 15 авг 2014, 21:39 | Скачали: 2
Сидеров: 40  [0 байт/сек]    Личеров: 0  [0 байт/сек]
Пред. тема | След. тема 

Автор
Сообщение

СообщениеДобавлено: 15 авг 2014, 21:39 

Ответить с цитатой 

Название: Прощальная вечеринка
Оригинальное название: House Party: Tonight’s the Night
Год выхода: 2013
Жанр: Комедия
Режиссер: Дэрин Скотт

В ролях: Текуан Ричмонд, Джереми Боадо, Аланка Крафферт, Зак Гудспид, Тристан Мэйс, Алекс МакГрегор, Stephen Newton

О фильме:
У Криса уже все запланировано: он готов покинуть школу и отправится в колледж на своей новой тачке. Единственная проблема – ему также придется расстаться со своим лучшим другом Диланом, а также с девушкой Отом, в которую он влюблен со второго класса. Решением становится прощальная вечеринка, которая превращается в настоящую катастрофу.



Страна: США
Студия: Film Afrika Worldwide, Warner Premiere
Продолжительность: 01:30:35
Перевод: Профессиональный многоголосый (SDI Media)


Кодек: MPEG-4 AVC
Качество: HDTVRip (AVC)
Видео: 2000 Кбит/с, 1024x576, 25.000 кадр/с
Звук: Русский (АС3, 2 ch, 192 Кбит/с)

Семпл


Общее
Полное имя : Prowalnaja.vecherinka.2013.x264.HDTVRip(AVC).MediaClub.mkv
Формат : Matroska
Версия формата : Version 2
Размер файла : 1,39 Гбайт
Продолжительность : 1 ч. 30 м.
Общий поток : 2192 Кбит/сек
Название фильма : MediaClub
Дата кодирования : UTC 2014-08-15 15:39:07
Программа кодирования : mkvmerge v5.4.0 ('Piper') built on Mar 10 2012 13:34:39
Библиотека кодирования : libebml v1.2.3 + libmatroska v1.3.0

Видео
Идентификатор : 1
Формат : AVC
Формат/Информация : Advanced Video Codec
Профиль формата : High@L4.1
Параметр CABAC формата : Да
Параметр ReFrames формата : 9 кадров
Идентификатор кодека : V_MPEG4/ISO/AVC
Продолжительность : 1 ч. 30 м.
Битрейт : 2000 Кбит/сек
Ширина : 1024 пикселя
Высота : 576 пикселей
Соотношение сторон : 16:9
Режим частоты кадров : Постоянный
Частота кадров : 25,000 кадров/сек
Цветовое пространство : YUV
Субдискретизация насыщенности : 4:2:0
Битовая глубина : 8 бит
Тип развёртки : Прогрессивная
Бит/(Пиксели*Кадры) : 0.136
Размер потока : 1,24 Гбайт (89%)
Библиотека кодирования : x264 core 125 r2208 d9d2288
Настройки программы : cabac=1 / ref=9 / deblock=1:-3:-2 / analyse=0x3:0x133 / me=umh / subme=10 / psy=1 / psy_rd=1.00:0.20 / mixed_ref=1 / me_range=48 / chroma_me=1 / trellis=2 / 8x8dct=1 / cqm=0 / deadzone=21,11 / fast_pskip=0 / chroma_qp_offset=-3 / threads=6 / lookahead_threads=1 / sliced_threads=0 / nr=0 / decimate=0 / interlaced=0 / bluray_compat=0 / constrained_intra=0 / bframes=8 / b_pyramid=2 / b_adapt=2 / b_bias=0 / direct=3 / weightb=1 / open_gop=0 / weightp=2 / keyint=250 / keyint_min=25 / scenecut=40 / intra_refresh=0 / rc=2pass / mbtree=0 / bitrate=2000 / ratetol=1.0 / qcomp=0.60 / qpmin=0 / qpmax=69 / qpstep=4 / cplxblur=20.0 / qblur=0.5 / ip_ratio=1.40 / pb_ratio=1.30 / aq=1:1.00
Default : Да
Forced : Нет

Аудио
Идентификатор : 2
Формат : AC-3
Формат/Информация : Audio Coding 3
Расширение режима : CM (complete main)
Параметр Endianness формата : Big
Идентификатор кодека : A_AC3
Продолжительность : 1 ч. 30 м.
Вид битрейта : Постоянный
Битрейт : 192 Кбит/сек
Каналы : 2 канала
Расположение каналов : Front: L R
Частота : 48,0 КГц
Битовая глубина : 16 бит
Метод сжатия : С потерями
Размер потока : 124 Мбайт (9%)
Язык : Russian
Default : Да
Forced : Нет


Релиз от:
загрузка...
Правила, инструкции, FAQ!!!
Торрент  Добавлен [15 авг 2014, 21:39] Скачать торрент Магнет ссылка
Скачать торрент
[ Размер 14.48 КБ / Просмотров 16 ]

Статус
Проверен 
 
Размер  1.39 ГБ
Приватный: Нет (DHT включён)
.torrent скачан  2
Как залить торрент? | Как скачать Torrent? | Как смотреть и слушать онлайн?  


     Отправить личное сообщение
   
Страница 1 из 1
Показать сообщения за:  Поле сортировки  
Начать новую тему Ответить на тему

   Похожие торренты   Автор   Ответы   Просмотры   Последнее сообщение 
В этой теме нет новых непрочитанных сообщений. Скачать торрент Проверен (House, Dutch House, Pop) DJ Night Rush - Welcome To Party - 2012, MP3 (tracks), 320 kbps

в форуме House, Размер: 102.92 МБ, Здоровье: 100%

Anonymous

0
1|0

4
0

23 дек 2016, 18:34

Anonymous Перейти к последнему сообщению

В этой теме нет новых непрочитанных сообщений. Скачать торрент Проверен (House, Progressive House, Electro House) VA - Ibiza Space Party Vol 2 (Ibiza Night Records [SP1159]) WEB - 2011, MP3 (tracks), 320 kbps

в форуме House, Размер: 248.5 МБ, Здоровье: 0%

Anonymous

0
0|0

29
0

21 дек 2016, 23:18

Anonymous Перейти к последнему сообщению

В этой теме нет новых непрочитанных сообщений. Скачать торрент Проверен Open Season Party / Сезон охоты. Вечеринка у Буга [L] [RUS] (2006)

в форуме Детские, Размер: 708.27 МБ, Здоровье: 100%

Anonymous

0
13|2

299
4

31 янв 2015, 20:34

Anonymous Перейти к последнему сообщению

В этой теме нет новых непрочитанных сообщений. Скачать торрент Проверен Scandal - Osaka-Jo Hall 2013 Wonderful Tonight [2013, JRock, JPop, HDTVRip 720p]

в форуме Концерты (HD-Video), Размер: 5.68 ГБ, Здоровье: 100%

Anonymous

0
3|0

105
1

03 май 2015, 22:13

Anonymous Перейти к последнему сообщению

В этой теме нет новых непрочитанных сообщений. Скачать торрент Проверен Bad Company • The Tonight Show With Jay Leno [2013, Rock, HDTVRip 1080i]

в форуме Концерты (HD-Video), Размер: 488.93 МБ, Здоровье: 60%

Гость

0
3|5

42
0

29 апр 2015, 19:32

Гость Перейти к последнему сообщению



Сейчас этот форум просматривают: нет зарегистрированных пользователей и гости: 1


Вы не можете начинать темы
Вы не можете отвечать на сообщения
Вы не можете редактировать свои сообщения
Вы не можете удалять свои сообщения
Вы не можете добавлять вложения


!ВНИМАНИЕ!
 Ресурс не предоставляет электронные версии произведений, а занимается лишь коллекционированием и каталогизацией ссылок, присылаемых и публикуемых на форуме нашими читателями. Если вы являетесь правообладателем какого-либо представленного материала и не желаете чтобы ссылка на него находилась в нашем каталоге, свяжитесь с нами и мы незамедлительно удалим её. Файлы для обмена на трекере предоставлены пользователями сайта, и администрация не несёт ответственности за их содержание. Просьба не заливать файлы, защищенные авторскими правами, а также файлы нелегального содержания!