На всех торрентах на трекере установлена скидка на скачивание в размере 100 процентов(а).
 Возможность скачивания торрента НЕ зависит от ограничений при низком ратио, низком аплоаде, требуемом ратио или требуемом аплоаде.


Начать новую тему Ответить на тему
Статистика раздачи
Размер: 1.57 ГБ | Добавлен: 21 окт 2014, 21:01 | Скачали: 2
Сидеров: 50  [0 байт/сек]    Личеров: 15  [0 байт/сек]
Пред. тема | След. тема 

Автор
Сообщение

СообщениеДобавлено: 21 окт 2014, 21:01 

Ответить с цитатой 

Жанр: Комедия, экранизация
Год выпуска: 1972
Продолжительность: 01:14:11
Перевод: Профессиональный (дублированный)
Режиссёр: Борис Ивченко / Борис Івченко
В ролях: Иван Миколайчук, Василий Хорошко, Галина Долгозвяга, Федор Стригун, Дмитрий Капка, Лидия Вакула, Земфира Цахилова, Лидия Билозерова, Мария Капнист

Описание: По мотивам ранних произведений Н. В. Гоголя. Героическая народная комедия, где с лукавой усмешкой задорным юмором показан полный приключения путь казака Василя и запорожца Андрея с гетманской грамотой в Петербург к царице и их благополучное возвращение в родную Диканьку.
Семпл: http://sendfile.su/1030297
Качество видео: DVDRip-AVC
Формат видео: MKV

Видео: 720x576 (4:3) @ 768x576, 25.000 fps, AVC, ~2519 kbps, 0.243 bits/pixel
Аудио 1: Русский, 48.0 KHz, AC3, 2 ch, 224 kbps
Аудио 2: Українська, 48.0 KHz, AC3, 2 ch, 224 kbps
Субтитры: Українські / Русские / English
x264 [info]: 720x576p 16:15 @ 25/1 fps (cfr)
x264 [info]: using SAR=16/15
x264 [info]: using cpu capabilities: MMX2 SSE2Fast SSSE3 SSE4.2 AVX
x264 [info]: profile High, level 4.0
x264 [info]: cabac=1 ref=16 deblock=1:-2:-1 analyse=0x3:0x133 me=umh subme=11 psy=1 fade_compensate=0.00 psy_rd=1.00:0.00 mixed_ref=1 me_range=48 chroma_me=1 trellis=2 8x8dct=1 cqm=0 deadzone=21,11 fast_pskip=0 chroma_qp_offset=-2 threads=12 lookahead_threads=1 sliced_threads=0 nr=0 decimate=1 interlaced=0 bluray_compat=0 constrained_intra=0 fgo=0 bframes=6 b_pyramid=2 b_adapt=2 b_bias=0 direct=3 weightb=1 open_gop=0 weightp=2 keyint=250 keyint_min=25 scenecut=40 intra_refresh=0 rc=crf mbtree=0 crf=20.0000 qcomp=0.60 qpmin=0 qpmax=69 qpstep=4 ip_ratio=1.40 pb_ratio=1.30 aq=1:0.90
x264 [info]: frame I:616 Avg QP:21.73 size: 43279
x264 [info]: frame P:19843 Avg QP:22.75 size: 24952
x264 [info]: frame B:89328 Avg QP:24.80 size: 10186
x264 [info]: consecutive B-frames: 0.9% 0.6% 4.1% 2.8% 3.0% 88.2% 0.4%
x264 [info]: mb I I16..4: 0.6% 96.1% 3.2%
x264 [info]: mb P I16..4: 0.2% 31.5% 0.5% P16..4: 27.5% 28.2% 11.1% 0.6% 0.0% skip: 0.5%
x264 [info]: mb B I16..4: 0.1% 10.7% 0.1% B16..8: 35.8% 16.3% 2.5% direct: 7.2% skip:27.4% L0:40.3% L1:41.0% BI:18.7%
x264 [info]: 8x8 transform intra:98.3% inter:78.7%
x264 [info]: direct mvs spatial:100.0% temporal:0.0%
x264 [info]: coded y,uvDC,uvAC intra: 97.1% 74.6% 15.9% inter: 35.3% 25.8% 0.6%
x264 [info]: i16 v,h,dc,p: 12% 14% 5% 70%
x264 [info]: i8 v,h,dc,ddl,ddr,vr,hd,vl,hu: 11% 9% 33% 6% 7% 8% 7% 8% 11%
x264 [info]: i4 v,h,dc,ddl,ddr,vr,hd,vl,hu: 13% 6% 3% 8% 15% 19% 13% 12% 10%
x264 [info]: i8c dc,h,v,p: 20% 43% 23% 15%
x264 [info]: Weighted P-Frames: Y:35.5% UV:24.9%
x264 [info]: ref P L0: 35.1% 13.1% 17.7% 8.1% 6.2% 4.0% 3.6% 1.9% 1.9% 1.4% 1.4% 1.2% 1.3% 1.0% 1.1% 0.8%
x264 [info]: ref B L0: 78.3% 10.0% 3.5% 2.2% 1.3% 1.2% 0.8% 0.6% 0.4% 0.4% 0.3% 0.4% 0.3% 0.2% 0.1%
x264 [info]: ref B L1: 96.1% 3.9%
General
Unique ID : 235627960141727169100172478132161247217 (0xB1444B5EECAE44F7BCE79DBDE0AE77F1)
Complete name : The Lost Letter [DVD9]\Propala.Gramota.1972.DVDRip.x264.rus.ukr-rutracker.xfiles.mkv
Format : Matroska
Format version : Version 4 / Version 2
File size : 1.57 GiB
Duration : 1h 14mn
Overall bit rate : 3 027 Kbps
Movie name : Propala.Gramota.1972.DVDRip.x264.rus.ukr-rutracker.xfiles
Encoded date : UTC 2014-10-02 18:41:13
Writing application : mkvmerge v7.2.0 ('On Every Street') 64bit built on Sep 13 2014 15:52:10
Writing library : libebml v1.3.0 + libmatroska v1.4.1
_STATISTICS_WRITING_APP : mkvmerge v7.2.0 ('On Every Street') 64bit built on Sep 13 2014 15:52:10
_STATISTICS_WRITING_DATE_UTC : 2014-10-02 18:41:13
_STATISTICS_TAGS : BPS DURATION NUMBER_OF_FRAMES NUMBER_OF_BYTES
DURATION : 01:13:11.154000000
NUMBER_OF_FRAMES : 1174
NUMBER_OF_BYTES : 36007

Video
ID : 1
Format : AVC
Format/Info : Advanced Video Codec
Format profile : High@L4.0
Format settings, CABAC : Yes
Format settings, ReFrames : 16 frames
Codec ID : V_MPEG4/ISO/AVC
Duration : 1h 14mn
Bit rate : 2 519 Kbps
Width : 720 pixels
Height : 576 pixels
Display aspect ratio : 4:3
Frame rate mode : Constant
Frame rate : 25.000 fps
Standard : PAL
Color space : YUV
Chroma subsampling : 4:2:0
Bit depth : 8 bits
Scan type : Progressive
Bits/(Pixel*Frame) : 0.243
Stream size : 1.31 GiB (83%)
Title : Propala.Gramota.1972.DVDRip.x264.rus.ukr-rutracker.xfiles
Writing library : x264 core 142 r2479kMod dd79a61
Encoding settings : cabac=1 / ref=16 / deblock=1:-2:-1 / analyse=0x3:0x133 / me=umh / subme=11 / psy=1 / fade_compensate=0.00 / psy_rd=1.00:0.00 / mixed_ref=1 / me_range=48 / chroma_me=1 / trellis=2 / 8x8dct=1 / cqm=0 / deadzone=21,11 / fast_pskip=0 / chroma_qp_offset=-2 / threads=12 / lookahead_threads=1 / sliced_threads=0 / nr=0 / decimate=1 / interlaced=0 / bluray_compat=0 / constrained_intra=0 / fgo=0 / bframes=6 / b_pyramid=2 / b_adapt=2 / b_bias=0 / direct=3 / weightb=1 / open_gop=0 / weightp=2 / keyint=250 / keyint_min=25 / scenecut=40 / intra_refresh=0 / rc=crf / mbtree=0 / crf=20.0000 / qcomp=0.60 / qpmin=0 / qpmax=69 / qpstep=4 / ip_ratio=1.40 / pb_ratio=1.30 / aq=1:0.90
Default : Yes
Forced : No
Color primaries : BT.601 PAL
Transfer characteristics : BT.470 System B, BT.470 System G
Matrix coefficients : BT.601

Audio #1
ID : 2
Format : AC-3
Format/Info : Audio Coding 3
Mode extension : CM (complete main)
Format settings, Endianness : Big
Codec ID : A_AC3
Duration : 1h 14mn
Bit rate mode : Constant
Bit rate : 224 Kbps
Channel(s) : 2 channels
Channel positions : Front: L R
Sampling rate : 48.0 KHz
Bit depth : 16 bits
Compression mode : Lossy
Stream size : 119 MiB (7%)
Language : Russian
Default : No
Forced : No

Audio #2
ID : 3
Format : AC-3
Format/Info : Audio Coding 3
Mode extension : CM (complete main)
Format settings, Endianness : Big
Codec ID : A_AC3
Duration : 1h 14mn
Bit rate mode : Constant
Bit rate : 224 Kbps
Channel(s) : 2 channels
Channel positions : Front: L R
Sampling rate : 48.0 KHz
Bit depth : 16 bits
Compression mode : Lossy
Stream size : 119 MiB (7%)
Language : Ukrainian
Default : Yes
Forced : No

Text #1
ID : 4
Format : UTF-8
Codec ID : S_TEXT/UTF8
Codec ID/Info : UTF-8 Plain Text
Language : Ukrainian
Default : No
Forced : No

Text #2
ID : 5
Format : UTF-8
Codec ID : S_TEXT/UTF8
Codec ID/Info : UTF-8 Plain Text
Language : Russian
Default : No
Forced : No

Text #3
ID : 6
Format : UTF-8
Codec ID : S_TEXT/UTF8
Codec ID/Info : UTF-8 Plain Text
Language : English
Default : No
Forced : No

Menu
00:00:00.000 : :00:00:00
00:08:02.960 : :00:08:02
00:16:45.600 : :00:16:45
00:27:12.760 : :00:27:12
00:35:56.200 : :00:35:56
00:46:54.920 : :00:46:54
00:57:00.160 : :00:57:00
01:07:40.160 : :01:07:40
01:13:11.480 : :01:13:11
SOURCE | RIP








загрузка...
Правила, инструкции, FAQ!!!
Торрент  Добавлен [21 окт 2014, 21:01] Скачать торрент Магнет ссылка
Скачать торрент
[ Размер 16.21 КБ / Просмотров 38 ]

Статус
Проверен 
 
Размер  1.57 ГБ
Приватный: Нет (DHT включён)
.torrent скачан  2
Как залить торрент? | Как скачать Torrent? | Ошибка в торренте? Качайте магнет  


     Отправить личное сообщение
   
Страница 1 из 1
Показать сообщения за:  Поле сортировки  
Начать новую тему Ответить на тему

   Похожие торренты   Автор   Ответы   Просмотры   Последнее сообщение 
В этой теме нет новых непрочитанных сообщений. Скачать торрент Проверен Гоголь Николай - Сорочинская ярмарка, Заколдованное место, Пропавшая грамота, Вечер, накануне Ивана Купала [Арина Ланская, 2007, Русская классика, 192 kbps]

в форуме Аудиокниги (AAC, ALAC), Размер: 80.79 МБ, Здоровье: 100%

Anonymous

0
6|2

250
2

28 авг 2016, 18:07

Anonymous Перейти к последнему сообщению

В этой теме нет новых непрочитанных сообщений. Скачать торрент Проверен Знамя кузнеца (Борис Кимягаров) [1961, Сказка, Экранизация, DVDRip]

в форуме Детское, Семейное кино, Размер: 1.37 ГБ, Здоровье: 100%

Anonymous

0
13|6

117
2

11 апр 2016, 23:40

Anonymous Перейти к последнему сообщению

В этой теме нет новых непрочитанных сообщений. Скачать торрент Проверен Цветик-семицветик (Гарник Аразян, Борис Бушмелёв) [1968, сказка, экранизация, короткометражный, SATRip]

в форуме Детское, Семейное кино, Размер: 466.3 МБ, Здоровье: 100%

Гость

0
26|9

73
1

10 апр 2016, 20:25

Гость Перейти к последнему сообщению

В этой теме нет новых непрочитанных сообщений. Скачать торрент Проверен Самогонщики / Пес Барбос и необычный кросс / «Сто грамм» для храбрости (Леонид Гайдай, Борис Бушмелёв, Анатолий Маркелов, Георгий Щукин) [1961, 1976, СССР, Комедия, Blu-ray disc 1080p] + Original Rus

в форуме Наше кино (HD Video), Размер: 22.85 ГБ, Здоровье: 100%

Anonymous

0
65|22

182
0

12 апр 2015, 15:06

Anonymous Перейти к последнему сообщению

В этой теме нет новых непрочитанных сообщений. Скачать торрент Проверен Башилов Борис (Юркевич Борис Платонович) - Кто враг? [1959, PDF/DjVu, RUS]

в форуме Русская литература, Размер: 4.05 МБ, Здоровье: 100%

Anonymous

0
19|5

135
3

08 сен 2016, 18:06

Anonymous Перейти к последнему сообщению



Сейчас этот форум просматривают: нет зарегистрированных пользователей и гости: 0


Вы не можете начинать темы
Вы не можете отвечать на сообщения
Вы не можете редактировать свои сообщения
Вы не можете удалять свои сообщения
Вы не можете добавлять вложения

Перейти:  
Ресурс не предоставляет электронные версии произведений, а занимается лишь коллекционированием и каталогизацией ссылок, присылаемых и публикуемых на форуме нашими читателями. Если вы являетесь правообладателем какого-либо представленного материала и не желаете чтобы ссылка на него находилась в нашем каталоге, свяжитесь с нами и мы незамедлительно удалим её. Файлы для обмена на трекере предоставлены пользователями сайта, и администрация не несёт ответственности за их содержание. Просьба не заливать файлы, защищенные авторскими правами, а также файлы нелегального содержания!
cron