На всех торрентах на трекере установлена скидка на скачивание в размере 100 процентов(а).
 Возможность скачивания торрента НЕ зависит от ограничений при низком ратио, низком аплоаде, требуемом ратио или требуемом аплоаде.


Начать новую тему Ответить на тему
Статистика раздачи
Размер: 16.76 ГБ | Добавлен: 02 сен 2016, 00:07 | Скачали: 2
Сидеров: 20  [0 байт/сек]    Личеров: 8  [0 байт/сек]
Пред. тема | След. тема 

Автор
Сообщение

СообщениеДобавлено: 02 сен 2016, 00:07 

Ответить с цитатой 


Lossless Group представляет:
Transatlantic (ex-Dream Theater, Spock's Beard, Flower Kings, Marillion, Pain Of Salvation)
Дискография
Страна: США, Швеция, Великобритания
Производитель диска: США, Германия, Япония
Жанр: Progressive Rock
Год выпуска: 2000-2014
Формат: FLAC (image + .cue)
Битрейт аудио: lossless
Продолжительность: 20 релизов, 35 CD
Метод рипа: EAC test+copy
Комплектация: Для каждого диска: FLAC со встроенным cue, отдельные cue для wav и flac, .toc file для cdrdao, полный набор сканов, полный набор файлов с Enhanced-CD, логи.
Релиз: hexonut [Lossless Group, rutracker.org]

Последнее обновление:
Добавлены KaLIVEoscope и Kaleidoscope Demos.

Другие раздачи этой группы:
Доп. информация: http://www.progressiveworld.net/transatlantic5.html

Line-Up:
- Pete Trewavas (Marillion) / Bass, Bass Pedals, Vocals
- Mike Portnoy (Dream Theater et al) / Drums, Vocals
- Roine Stolt (Kaipa, The Flower Kings) / Guitars, Vocals, Mellotron, additional Keyboards and Percussion
- Neal Morse (Spock's Beard) / Piano, Organ, Moog, Rhodes Piano, Synths, Vocals, additional guitars and mandolin
На концертах 2010-2011:
- Daniel Gildenlöw (Pain of Salvation) / Guitars, Keyboards, Vocals
На концертах 2014:
- Ted Leonard (Enchant) / Keybords, Guitars, Vocals, PercussionАльбом SMPTe существует в нескольких вариантах: американский релиз на Radiant/Metal Blade, и два европейских на InsideOut - простой и лимитированный. В дискографии представлены 2 из них - американский и европейский лимитированный. Также существуют японские издания, представлено последнее.
Европейский "простой" релиз отличается от американского только цветом обложки. Американская обложка с синим небом - видимо ночным или поздним вечером; европейская - с розово-фиолетовым дневным, и дирижаблей там три. Идея этих разных обложек в том, что дирижабль летит как бы по разные стороны Атлантики и в разное время суток (видимо - одновременно и там и там, такая хохма). Картинка на лимитированном издании такая же, как на простом европейском, но уменьшенная и взята в окантовку.
Альбом Bridge Across Forever представлен только в лимитированном и японском изданиях, европейское и американское друг от друга не отличаются.
Альбом Live In America представлен европейским изданием, от американского не отличается.
Альбом Live In Europe представлен европейским лимитированным изданием, отличается от простого тем, что в него входят DVD.
Whirlwind - лимитированное издание, японское переиздание.
Whirld Tour - лимитированное издание
Whirlwind Demo - Radiant Records Inner Circle January 2012 Release
Kaleidoscope - 2-CD издание, японское издание. На лимитированных изданиях с бонус-DVD аудиозапись идентична двухдисковому изданию.
KaLIVEoscope - 3-CD + 2-DVD + BluRay издание.
[*]Kaleidoscope Demos 1 & 2 - Radiant Records Inner Circle September and November 2014 ReleasesТреклист:
Лейбл: Inside Out / SPV
Страна-производитель диска: Германия
Год издания диска: 2000
Номер по каталогу: SPV 087-31970 DCD / IOMCD057

Запись идентична простому изданию. Здесь только сканы и бонус диск с лимитированного издания.

Transatlantic - 2000 - SMPT:e (Bonus Disc)

01. My New World [Alt. Take] (07:41)
02. My New World (Continued) [Alt. Take] (08:40)
03. We All Need Some Light [Alt. Mix] (05:40)
04. Honky Tonk Woman [Studio Jam] (01:57)
05. Oh Darlin' [Studio Jam] (02:30)
06. My Cruel World [Original Demo] (10:43)

Продолжительность: 00:37:11
Код:
Exact Audio Copy V1.0 beta 3 from 29. August 2011

EAC extraction logfile from 30. November 2011, 23:28

Transatlantic / SMPT:e (Bonus Disc)

Used drive  : PLEXTOR DVDR   PX-760A   Adapter: 0  ID: 1

Read mode               : Secure
Utilize accurate stream : Yes
Defeat audio cache      : Yes
Make use of C2 pointers : No

Read offset correction                      : 30
Overread into Lead-In and Lead-Out          : No
Fill up missing offset samples with silence : Yes
Delete leading and trailing silent blocks   : No
Null samples used in CRC calculations       : Yes
Used interface                              : Installed external ASPI interface

Used output format : Internal WAV Routines
Sample format      : 44.100 Hz; 16 Bit; Stereo

TOC of the extracted CD

     Track |   Start  |  Length  | Start sector | End sector
    ---------------------------------------------------------
        1  |  0:00.00 |  7:40.52 |         0    |    34551
        2  |  7:40.52 |  8:41.38 |     34552    |    73664
        3  | 16:22.15 |  5:40.13 |     73665    |    99177
        4  | 22:02.28 |  1:54.60 |     99178    |   107787
        5  | 23:57.13 |  2:30.04 |    107788    |   119041
        6  | 26:27.17 | 10:43.32 |    119042    |   167298
        7  | 39:42.49 | 14:27.67 |    178699    |   243790

Range status and errors

Selected range

     Filename Z:\data\mp3\Seeding Archive\Transatlantic\2000-SMPTe Limited Edition\smptebonus.wav

     Peak level 100.0 %
     Extraction speed 2.4 X
     Range quality 100.0 %
     Test CRC 2BE3AA22
     Copy CRC 2BE3AA22
     Copy OK

No errors occurred

AccurateRip summary

Track  1  accurately ripped (confidence 22)  [2E7A7258]  (AR v1)
Track  2  accurately ripped (confidence 22)  [188E89E7]  (AR v1)
Track  3  accurately ripped (confidence 23)  [84642B44]  (AR v1)
Track  4  accurately ripped (confidence 22)  [4A7D876C]  (AR v1)
Track  5  accurately ripped (confidence 22)  [7F41EB36]  (AR v1)
Track  6  accurately ripped (confidence 19)  [15575475]  (AR v1)

All tracks accurately ripped

End of status report

==== Log checksum DF50E5F51DD6290FD42974BC82F4B4CACA9096461A16841D5E4101352A1E3DE7 ====

libavformat file format detected.
[lavf] Video stream found, -vid 0
[lavf] Audio stream found, -aid 1
VIDEO: [cvid] 192x144 24bpp 25.000 fps 0.0 kbps ( 0.0 kbyte/s)
Opening video filter: [screenshot]
==========================================================================
Opening video decoder: [ffmpeg] FFmpeg's libavcodec codec family
Selected video codec: [ffcvid] vfm: ffmpeg (Cinepak Video (native codec))
==========================================================================
==========================================================================
Opening audio decoder: [pcm] Uncompressed PCM audio decoder
AUDIO: 44100 Hz, 2 ch, s16be, 0.0 kbit/0.00% (ratio: 0->176400)
Selected audio codec: [pcm] afm: pcm (Uncompressed PCM)
==========================================================================
#777Лейбл: Radiant / Metal Blade
Страна-производитель диска: США
Год издания диска: 2000
Номер по каталогу: 3984-14290-2

Transatlantic - 2000 - SMPT:e

01. All Of The Above (30:59)
02. We All Need Some Light (05:45)
03. Mystery Train (06:52)
04. My New World (16:16)
05. In Held ('Twas) In I (17:21)

Продолжительность: 01:17:13
Код:
Exact Audio Copy V1.0 beta 3 from 29. August 2011

EAC extraction logfile from 30. November 2011, 23:46

Transatlantic / SMPT:e

Used drive  : PLEXTOR CD-R   PX-240A   Adapter: 0  ID: 0

Read mode               : Secure
Utilize accurate stream : Yes
Defeat audio cache      : Yes
Make use of C2 pointers : No

Read offset correction                      : 6
Overread into Lead-In and Lead-Out          : No
Fill up missing offset samples with silence : Yes
Delete leading and trailing silent blocks   : No
Null samples used in CRC calculations       : Yes
Used interface                              : Installed external ASPI interface

Used output format : Internal WAV Routines
Sample format      : 44.100 Hz; 16 Bit; Stereo

TOC of the extracted CD

     Track |   Start  |  Length  | Start sector | End sector
    ---------------------------------------------------------
        1  |  0:00.00 | 30:59.17 |         0    |   139441
        2  | 30:59.17 |  5:44.53 |    139442    |   165294
        3  | 36:43.70 |  6:51.70 |    165295    |   196189
        4  | 43:35.65 | 16:15.62 |    196190    |   269376
        5  | 59:51.52 | 17:21.15 |    269377    |   347466

Range status and errors

Selected range

     Filename Z:\data\mp3\Seeding Archive\Transatlantic\2000-SMPTe\smpte.wav

     Peak level 100.0 %
     Extraction speed 3.1 X
     Range quality 100.0 %
     Test CRC 7ABF42FB
     Copy CRC 7ABF42FB
     Copy OK

No errors occurred

AccurateRip summary

Track  1  accurately ripped (confidence 2)  [522C4C49]  (AR v2)
Track  2  accurately ripped (confidence 2)  [17A3E93E]  (AR v2)
Track  3  accurately ripped (confidence 2)  [35FBC942]  (AR v2)
Track  4  accurately ripped (confidence 2)  [AD367DF5]  (AR v2)
Track  5  accurately ripped (confidence 2)  [EF975956]  (AR v2)

All tracks accurately ripped

End of status report

==== Log checksum 780CB8DE61E99B5698500F4805435031D331C7EE9EFE91DEB385EB1BCCE43415 ====
#777Лейбл: Transatlantic / Radiant Records / WHD Entertainment
Страна-производитель диска: Japan
Год издания диска: 2014
Номер по каталогу: IECP-20224/225

Transatlantic - 2000 - SMPT:e (Japan)

01. All Of The Above (30:59)
02. We All Need Some Light (05:45)
03. Mystery Train (06:52)
04. My New World (16:16)
05. In Held ('Twas) In I (17:21)

Продолжительность: 01:17:13
Код:
Exact Audio Copy V1.0 beta 3 from 29. August 2011

EAC extraction logfile from 19. February 2014, 22:43

Transatlantic / SMPT:e (Japan)

Used drive  : LITE-ON DVDRW LH-20A1L   Adapter: 6  ID: 0

Read mode               : Secure
Utilize accurate stream : Yes
Defeat audio cache      : Yes
Make use of C2 pointers : No

Read offset correction                      : 6
Overread into Lead-In and Lead-Out          : No
Fill up missing offset samples with silence : Yes
Delete leading and trailing silent blocks   : No
Null samples used in CRC calculations       : Yes
Used interface                              : Installed external ASPI interface

Used output format : Internal WAV Routines
Sample format      : 44.100 Hz; 16 Bit; Stereo

TOC of the extracted CD

     Track |   Start  |  Length  | Start sector | End sector
    ---------------------------------------------------------
        1  |  0:00.00 | 30:59.17 |         0    |   139441
        2  | 30:59.17 |  5:44.53 |    139442    |   165294
        3  | 36:43.70 |  6:51.70 |    165295    |   196189
        4  | 43:35.65 | 16:15.62 |    196190    |   269376
        5  | 59:51.52 | 17:21.15 |    269377    |   347466

Range status and errors

Selected range

     Filename Z:\data\hexonut\Seeding\Transatlantic\2000-SMPTe\2014-WHD [Japan, IECP-20224~225]\SMPT-e (Japan).wav

     Peak level 100.0 %
     Extraction speed 3.6 X
     Range quality 100.0 %
     Test CRC 932D26E8
     Copy CRC 932D26E8
     Copy OK

No errors occurred

AccurateRip summary

Track  1  cannot be verified as accurate (confidence 108)  [49EF7529], AccurateRip returned [8A27F67E]  (AR v2)
Track  2  cannot be verified as accurate (confidence 107)  [475BCA5C], AccurateRip returned [38C941F8]  (AR v2)
Track  3  cannot be verified as accurate (confidence 108)  [1A59F529], AccurateRip returned [1D1BEE1C]  (AR v2)
Track  4  cannot be verified as accurate (confidence 108)  [4BDAF3B8], AccurateRip returned [56B0033D]  (AR v2)
Track  5  cannot be verified as accurate (confidence 103)  [9D7692DE], AccurateRip returned [770F322D]  (AR v2)

No tracks could be verified as accurate
You may have a different pressing from the one(s) in the database

End of status report

==== Log checksum C34BA9F4FDF75768B42109D4B534CD460ECBF7D7B2B66DD89967014DF5025A3F ====
Transatlantic - 2000 - SMPT:e (Japan) Bonus CD

01. My New World (Alt. Take, Neal Lead, Different Lyrics) (16:23)
02. We All Need Some Light (Roine Leadvoice, Alt. Mix) (05:42)
03. Honky Tonk Woman (Studio Jam) (01:58)
04. Oh Darling (Studio Jam) (02:33)
05. My Cruel World (Original Demo) (10:44)

Продолжительность: 00:37:21
Код:
Exact Audio Copy V1.0 beta 3 from 29. August 2011

EAC extraction logfile from 19. February 2014, 22:42

Transatlantic / SMPT:e (Japan) Bonus CD

Used drive  : PLEXTOR CD-R   PX-240A   Adapter: 0  ID: 0

Read mode               : Secure
Utilize accurate stream : Yes
Defeat audio cache      : Yes
Make use of C2 pointers : No

Read offset correction                      : 6
Overread into Lead-In and Lead-Out          : No
Fill up missing offset samples with silence : Yes
Delete leading and trailing silent blocks   : No
Null samples used in CRC calculations       : Yes
Used interface                              : Installed external ASPI interface

Used output format : Internal WAV Routines
Sample format      : 44.100 Hz; 16 Bit; Stereo

TOC of the extracted CD

     Track |   Start  |  Length  | Start sector | End sector
    ---------------------------------------------------------
        1  |  0:00.00 | 16:24.01 |         0    |    73800
        2  | 16:24.01 |  5:42.13 |     73801    |    99463
        3  | 22:06.14 |  1:57.62 |     99464    |   108300
        4  | 24:04.01 |  2:33.06 |    108301    |   119781
        5  | 26:37.07 | 10:43.34 |    119782    |   168040

Range status and errors

Selected range

     Filename Z:\data\hexonut\Seeding\Transatlantic\2000-SMPTe\2014-WHD [Japan, IECP-20224~225]\SMPT-e (Japan) Bonus CD.wav

     Peak level 100.0 %
     Extraction speed 8.1 X
     Range quality 100.0 %
     Test CRC 26F9F6D6
     Copy CRC 26F9F6D6
     Copy OK

No errors occurred

AccurateRip summary

Track  1  not present in database
Track  2  not present in database
Track  3  not present in database
Track  4  not present in database
Track  5  not present in database

None of the tracks are present in the AccurateRip database

End of status report

==== Log checksum 1ACA973F8AD6C28B55209FE2A70C17BFF881DF687C30D31BD04786928253EF04 ====
#777Лейбл: Theater Of Dreams / Inside Out
Страна-производитель диска: Германия
Год издания диска: 2001
Номер по каталогу: TODPRCD-01

Various - 2001 - Bridge Across Europe Tour 2001

01. Duel With The Devil (Special Edit) / Transatlantic (11:30)
02. Learning To Live (Live) / Dream Theater (14:04)
03. Road To Sanctuary / The Flower Kings (13:51)
04. At The End Of The Day / Spock's Beard (16:30)

Продолжительность: 00:55:56
Код:
Exact Audio Copy V1.0 beta 3 from 29. August 2011

EAC extraction logfile from 1. December 2011, 10:31

Various / Bridge Across Europe Tour 2001

Used drive  : PLEXTOR DVDR   PX-760A   Adapter: 0  ID: 1

Read mode               : Secure
Utilize accurate stream : Yes
Defeat audio cache      : Yes
Make use of C2 pointers : No

Read offset correction                      : 30
Overread into Lead-In and Lead-Out          : No
Fill up missing offset samples with silence : Yes
Delete leading and trailing silent blocks   : No
Null samples used in CRC calculations       : Yes
Used interface                              : Installed external ASPI interface

Used output format : Internal WAV Routines
Sample format      : 44.100 Hz; 16 Bit; Stereo

TOC of the extracted CD

     Track |   Start  |  Length  | Start sector | End sector
    ---------------------------------------------------------
        1  |  0:00.00 | 11:32.24 |         0    |    51923
        2  | 11:32.24 | 14:03.54 |     51924    |   115202
        3  | 25:36.03 | 13:51.33 |    115203    |   177560
        4  | 39:27.36 | 16:28.14 |    177561    |   251674

Range status and errors

Selected range

     Filename Z:\data\mp3\Seeding Archive\Transatlantic\2001-Bridge Across Europe\bridgeeurope.wav

     Peak level 100.0 %
     Extraction speed 2.4 X
     Range quality 100.0 %
     Test CRC 2FF6AD4A
     Copy CRC 2FF6AD4A
     Copy OK

No errors occurred

AccurateRip summary

Track  1  accurately ripped (confidence 1)  [702E7506]  (AR v1)
Track  2  accurately ripped (confidence 1)  [3BAF289F]  (AR v1)
Track  3  accurately ripped (confidence 1)  [5B7FBE21]  (AR v1)
Track  4  accurately ripped (confidence 1)  [F5BC8E3A]  (AR v1)

All tracks accurately ripped

End of status report

==== Log checksum E379D25ED4C7895085EB322CBC523357A7341E9F3271949CD7C55397A25B4BB8 ====
#777Лейбл: Inside Out / SPV
Страна-производитель диска: Германия
Год издания диска: 2001
Номер по каталогу: SPV 088-41700 DCD / IOMLTDCD 086

Transatlantic - 2001 - Bridge Across Forever

01. Duel With the Devil I. Motherless Children II. Walk Away III. Silence IV. ... (26:44)
02. Suite Charlotte Pike I. If She Runs II. Mr. Wonderful III. Lost and Found P... (14:30)
03. Bridge Across Forever (05:36)
04. Stranger in Your Soul I. Sleeping Wide Awake II. Hanging in the Balance III... (30:00)

Продолжительность: 01:16:49
Код:
Exact Audio Copy V1.0 beta 3 from 29. August 2011

EAC extraction logfile from 1. December 2011, 7:22

Transatlantic / Bridge Across Forever

Used drive  : PLEXTOR DVDR   PX-760A   Adapter: 0  ID: 1

Read mode               : Secure
Utilize accurate stream : Yes
Defeat audio cache      : Yes
Make use of C2 pointers : No

Read offset correction                      : 30
Overread into Lead-In and Lead-Out          : No
Fill up missing offset samples with silence : Yes
Delete leading and trailing silent blocks   : No
Null samples used in CRC calculations       : Yes
Used interface                              : Installed external ASPI interface

Used output format : Internal WAV Routines
Sample format      : 44.100 Hz; 16 Bit; Stereo

TOC of the extracted CD

     Track |   Start  |  Length  | Start sector | End sector
    ---------------------------------------------------------
        1  |  0:00.00 | 26:43.45 |         0    |   120269
        2  | 26:43.45 | 14:33.20 |    120270    |   185764
        3  | 41:16.65 |  5:32.10 |    185765    |   210674
        4  | 46:49.00 | 30:00.22 |    210675    |   345696

Range status and errors

Selected range

     Filename Z:\data\mp3\Seeding Archive\Transatlantic\2001-Bridge Across Forever\bridge.wav

     Peak level 100.0 %
     Extraction speed 2.4 X
     Range quality 100.0 %
     Test CRC AB2A7A08
     Copy CRC AB2A7A08
     Copy OK

No errors occurred

AccurateRip summary

Track  1  accurately ripped (confidence 13)  [96E901F9]  (AR v2)
Track  2  accurately ripped (confidence 12)  [EA2EC343]  (AR v2)
Track  3  accurately ripped (confidence 12)  [D670A2A0]  (AR v2)
Track  4  accurately ripped (confidence 12)  [3ABCD35B]  (AR v2)

All tracks accurately ripped

End of status report

==== Log checksum 414CF9669390E17F89F3F35E11D4ED18872D4129C5CF2F2635040E3C4E7003F3 ====
Transatlantic - 2001 - Bridge Across Forever [Bonus Disc]

01. Shine On You Crazy Diamond (15:27)
02. Studio Chat (04:51)
03. And I Love Her (07:54)
04. Transpacific: Smoke On The Water (04:19)
05. Dance With The Devil (09:03)
06. Roine's Demo Bits (11:58)

Продолжительность: 00:53:32
Код:
Exact Audio Copy V1.0 beta 3 from 29. August 2011

EAC extraction logfile from 1. December 2011, 8:11

Transatlantic / Bridge Across Forever [Bonus Disc]

Used drive  : PLEXTOR DVDR   PX-760A   Adapter: 0  ID: 1

Read mode               : Secure
Utilize accurate stream : Yes
Defeat audio cache      : Yes
Make use of C2 pointers : No

Read offset correction                      : 30
Overread into Lead-In and Lead-Out          : No
Fill up missing offset samples with silence : Yes
Delete leading and trailing silent blocks   : No
Null samples used in CRC calculations       : Yes
Used interface                              : Installed external ASPI interface

Used output format : Internal WAV Routines
Sample format      : 44.100 Hz; 16 Bit; Stereo

TOC of the extracted CD

     Track |   Start  |  Length  | Start sector | End sector
    ---------------------------------------------------------
        1  |  0:00.00 | 15:27.12 |         0    |    69536
        2  | 15:27.12 |  4:50.45 |     69537    |    91331
        3  | 20:17.57 |  7:53.60 |     91332    |   126866
        4  | 28:11.42 |  4:20.45 |    126867    |   146411
        5  | 32:32.12 |  9:01.23 |    146412    |   187009
        6  | 41:33.35 | 11:58.22 |    187010    |   240881
        7  | 56:03.57 | 22:45.37 |    252282    |   354693

Range status and errors

Selected range

     Filename Z:\data\mp3\Seeding Archive\Transatlantic\2001-Bridge Across Forever\bridge_bonus.wav

     Peak level 100.0 %
     Extraction speed 2.3 X
     Range quality 99.9 %
     Test CRC 709F07DB
     Copy CRC 709F07DB
     Copy OK

No errors occurred

AccurateRip summary

Track  1  accurately ripped (confidence 7)  [E7CE95EC]  (AR v2)
Track  2  accurately ripped (confidence 6)  [BFDA05C6]  (AR v2)
Track  3  accurately ripped (confidence 6)  [0DEBC18B]  (AR v2)
Track  4  accurately ripped (confidence 6)  [A4F2F7A9]  (AR v2)
Track  5  accurately ripped (confidence 6)  [181D69D3]  (AR v2)
Track  6  accurately ripped (confidence 6)  [0DE9A032]  (AR v2)

All tracks accurately ripped

End of status report

==== Log checksum D4AA606C2E57DE329EA5F3DFDB09E6DD8865DE24A8BB6E92EB03412644C80671 ====

Quicktime/MOV file format detected.Opening video decoder: [ffmpeg] FFmpeg's libavcodec codec family
Selected video codec: [ffrpza] vfm: ffmpeg (QuickTime Apple Video)
Opening audio decoder: [pcm] Uncompressed PCM audio decoder
AUDIO: 22050 Hz, 2 ch, s16be, 705.6 kbit/100.00% (ratio: 88200->88200)
Selected audio codec: [pcm] afm: pcm (Uncompressed PCM)
#777Лейбл: Transatlantic / Radiant Records / WHD Entertainment
Страна-производитель диска: Japan
Год издания диска: 2014
Номер по каталогу: IECP-20226/227

Transatlantic - 2001 - Bridge Across Forever (Japan)

01. Duel With The Devil (i Motherless Children, ii Walk Away, iii Silence of the ... (26:44)
02. Suite Charlotte Pike (i If She Runs, ii Mr Wonderful, iii Lost and Found Pt 1... (14:33)
03. Bridge Across Forever (05:32)
04. Stranger in Your Soul (i Sleeping Wide Awake, ii Hanging in the Balance, iii ... (30:00)

Продолжительность: 01:16:49
Код:
Exact Audio Copy V1.0 beta 3 from 29. August 2011

EAC extraction logfile from 19. February 2014, 23:26

Transatlantic / Bridge Across Forever (Japan)

Used drive  : LITE-ON DVDRW LH-20A1L   Adapter: 6  ID: 0

Read mode               : Secure
Utilize accurate stream : Yes
Defeat audio cache      : Yes
Make use of C2 pointers : No

Read offset correction                      : 6
Overread into Lead-In and Lead-Out          : No
Fill up missing offset samples with silence : Yes
Delete leading and trailing silent blocks   : No
Null samples used in CRC calculations       : Yes
Used interface                              : Installed external ASPI interface

Used output format : Internal WAV Routines
Sample format      : 44.100 Hz; 16 Bit; Stereo

TOC of the extracted CD

     Track |   Start  |  Length  | Start sector | End sector
    ---------------------------------------------------------
        1  |  0:00.00 | 26:43.45 |         0    |   120269
        2  | 26:43.45 | 14:33.20 |    120270    |   185764
        3  | 41:16.65 |  5:32.10 |    185765    |   210674
        4  | 46:49.00 | 30:00.22 |    210675    |   345696

Range status and errors

Selected range

     Filename Z:\data\hexonut\Seeding\Transatlantic\2001-Bridge Across Forever\2014-WHD [Japan, IECP-20226~227]\Bridge Across Forever (Japan CD 1).wav

     Peak level 100.0 %
     Extraction speed 10.1 X
     Range quality 100.0 %
     Test CRC 75DBF66F
     Copy CRC 75DBF66F
     Copy OK

No errors occurred

AccurateRip summary

Track  1  cannot be verified as accurate (confidence 93)  [2053E824], AccurateRip returned [85131C5D]  (AR v2)
Track  2  cannot be verified as accurate (confidence 94)  [4276248F], AccurateRip returned [3496C461]  (AR v2)
Track  3  cannot be verified as accurate (confidence 94)  [BFAF9EF4], AccurateRip returned [76396754]  (AR v2)
Track  4  cannot be verified as accurate (confidence 94)  [96C15E97], AccurateRip returned [C6E79D3F]  (AR v2)

No tracks could be verified as accurate
You may have a different pressing from the one(s) in the database

End of status report

==== Log checksum 62DD1522B30330C24D8DD2B65E93BA41EAB978B5F48178B90A7CD055CF6CF204 ====
Transatlantic - 2001 - Bridge Across Forever (Japan CD 2)

01. Shine On You Crazy Diamond (15:27)
02. Studio Chat (04:51)
03. And I Love Her (07:54)
04. Smoke On The Water (04:20)
05. Dance With The Devil (09:01)
06. Roine's Demo Bits (11:59)

Продолжительность: 00:53:32
Код:
Exact Audio Copy V1.0 beta 3 from 29. August 2011

EAC extraction logfile from 19. February 2014, 23:26

Transatlantic / Bridge Across Forever (Japan CD2)

Used drive  : PLEXTOR CD-R   PX-240A   Adapter: 0  ID: 0

Read mode               : Secure
Utilize accurate stream : Yes
Defeat audio cache      : Yes
Make use of C2 pointers : No

Read offset correction                      : 6
Overread into Lead-In and Lead-Out          : No
Fill up missing offset samples with silence : Yes
Delete leading and trailing silent blocks   : No
Null samples used in CRC calculations       : Yes
Used interface                              : Installed external ASPI interface

Used output format : Internal WAV Routines
Sample format      : 44.100 Hz; 16 Bit; Stereo

TOC of the extracted CD

     Track |   Start  |  Length  | Start sector | End sector
    ---------------------------------------------------------
        1  |  0:00.00 | 15:26.45 |         0    |    69494
        2  | 15:26.45 |  4:50.49 |     69495    |    91293
        3  | 20:17.19 |  7:54.22 |     91294    |   126865
        4  | 28:11.41 |  4:20.03 |    126866    |   146368
        5  | 32:31.44 |  9:01.06 |    146369    |   186949
        6  | 41:32.50 | 11:59.12 |    186950    |   240886

Range status and errors

Selected range

     Filename Z:\data\hexonut\Seeding\Transatlantic\2001-Bridge Across Forever\2014-WHD [Japan, IECP-20226~227]\Bridge Across Forever (Japan CD2).wav

     Peak level 100.0 %
     Extraction speed 8.9 X
     Range quality 100.0 %
     Test CRC EA959D50
     Copy CRC EA959D50
     Copy OK

No errors occurred

AccurateRip summary

Track  1  not present in database
Track  2  not present in database
Track  3  not present in database
Track  4  not present in database
Track  5  not present in database
Track  6  not present in database

None of the tracks are present in the AccurateRip database

End of status report

==== Log checksum 8BD5BB07B36D2082812A999A5C0F3613D8B9C139EBDE739F3AAD6D5E8B2818AF ====
#777Лейбл: Inside Out / SPV
Страна-производитель диска: Германия
Год издания диска: 2000
Номер по каталогу: SPV 089-41512 DCD / IOMCD 074

Transatlantic - 2001 - Live In America CD 1

01. All of the Above (30:47)
02. Mystery Train / Magical Mystery Tour / Strawberry Fields Forever (15:32)
03. We All Need Some Light (06:51)

Продолжительность: 00:53:11
Код:
Exact Audio Copy V1.0 beta 3 from 29. August 2011

EAC extraction logfile from 1. December 2011, 0:31

Transatlantic / Live In America

Used drive  : PLEXTOR CD-R   PX-240A   Adapter: 0  ID: 0

Read mode               : Secure
Utilize accurate stream : Yes
Defeat audio cache      : Yes
Make use of C2 pointers : No

Read offset correction                      : 6
Overread into Lead-In and Lead-Out          : No
Fill up missing offset samples with silence : Yes
Delete leading and trailing silent blocks   : No
Null samples used in CRC calculations       : Yes
Used interface                              : Installed external ASPI interface

Used output format : Internal WAV Routines
Sample format      : 44.100 Hz; 16 Bit; Stereo

TOC of the extracted CD

     Track |   Start  |  Length  | Start sector | End sector
    ---------------------------------------------------------
        1  |  0:00.00 | 30:47.08 |         0    |   138532
        2  | 30:47.08 | 15:32.15 |    138533    |   208447
        3  | 46:19.23 |  6:51.35 |    208448    |   239307

Range status and errors

Selected range

     Filename Z:\data\mp3\Seeding Archive\Transatlantic\2001-Live In America\america_1.wav

     Peak level 100.0 %
     Extraction speed 3.2 X
     Range quality 100.0 %
     Test CRC F7D5009C
     Copy CRC F7D5009C
     Copy OK

No errors occurred

AccurateRip summary

Track  1  accurately ripped (confidence 2)  [F0CDD9C2]  (AR v2)
Track  2  accurately ripped (confidence 2)  [BAA30436]  (AR v2)
Track  3  accurately ripped (confidence 2)  [C5A2310A]  (AR v2)

All tracks accurately ripped

End of status report

==== Log checksum 7B7491B3596DE54C1EEAF23BB0FCC176EBD29D51434D21C642F8890612673800 ====
Transatlantic - 2001 - Live In America CD 2

01. Watcher of the Skies / Firth of Fifth (10:48)
02. My New World (16:51)
03. Medley: There Is More to This World / Go The Way You Go / The Great Escape / ... (19:11)

Продолжительность: 00:46:50
Код:
Exact Audio Copy V1.0 beta 3 from 29. August 2011

EAC extraction logfile from 1. December 2011, 7:22

Transatlantic / Live In America

Used drive  : PLEXTOR CD-R   PX-240A   Adapter: 0  ID: 0

Read mode               : Secure
Utilize accurate stream : Yes
Defeat audio cache      : Yes
Make use of C2 pointers : No

Read offset correction                      : 6
Overread into Lead-In and Lead-Out          : No
Fill up missing offset samples with silence : Yes
Delete leading and trailing silent blocks   : No
Null samples used in CRC calculations       : Yes
Used interface                              : Installed external ASPI interface

Used output format : Internal WAV Routines
Sample format      : 44.100 Hz; 16 Bit; Stereo

TOC of the extracted CD

     Track |   Start  |  Length  | Start sector | End sector
    ---------------------------------------------------------
        1  |  0:00.00 | 10:47.42 |         0    |    48566
        2  | 10:47.42 | 16:51.30 |     48567    |   124421
        3  | 27:38.72 | 19:10.48 |    124422    |   210719

Range status and errors

Selected range

     Filename Z:\data\mp3\Seeding Archive\Transatlantic\2001-Live In America\america_2.wav

     Peak level 100.0 %
     Extraction speed 2.4 X
     Range quality 100.0 %
     Test CRC 5E246873
     Copy CRC 5E246873
     Copy OK

No errors occurred

AccurateRip summary

Track  1  accurately ripped (confidence 2)  [3A687C75]  (AR v2)
Track  2  accurately ripped (confidence 2)  [76E6FE3F]  (AR v2)
Track  3  accurately ripped (confidence 2)  [5944673D]  (AR v2)

All tracks accurately ripped

End of status report

==== Log checksum 870E881B4D7FD476D9B21E1B24D04EFEC338A29CB589121F81F95DAFAF73BD3D ====
#777Лейбл: Inside Out / SPV
Страна-производитель диска: Германия
Год издания диска: 2003
Номер по каталогу: SPV 556-65410 2DVD+DCD / IOMLTDDVD 006

Transatlantic - 2003 - Live In Europe (Disc 1)

01. Duel With The Devil (26:01)
02. My New World (16:20)
03. We All Need Some Light (06:42)
04. Suite Charlotte Pike Medley (30:55)

Продолжительность: 01:19:58
Код:
Exact Audio Copy V1.0 beta 3 from 29. August 2011

EAC extraction logfile from 30. November 2011, 22:16

Transatlantic / Live In Europe (Disc 1)

Used drive  : PLEXTOR DVDR   PX-760A   Adapter: 0  ID: 1

Read mode               : Secure
Utilize accurate stream : Yes
Defeat audio cache      : Yes
Make use of C2 pointers : No

Read offset correction                      : 30
Overread into Lead-In and Lead-Out          : No
Fill up missing offset samples with silence : Yes
Delete leading and trailing silent blocks   : No
Null samples used in CRC calculations       : Yes
Used interface                              : Installed external ASPI interface

Used output format : Internal WAV Routines
Sample format      : 44.100 Hz; 16 Bit; Stereo

TOC of the extracted CD

     Track |   Start  |  Length  | Start sector | End sector
    ---------------------------------------------------------
        1  |  0:00.06 | 26:00.55 |         6    |   117060
        2  | 26:00.61 | 16:20.20 |    117061    |   190580
        3  | 42:21.06 |  6:41.66 |    190581    |   220721
        4  | 49:02.72 | 30:55.03 |    220722    |   359849

Range status and errors

Selected range

     Filename Z:\data\mp3\Seeding Archive\Transatlantic\2003-Live In Europe\europe_1.wav

     Peak level 98.5 %
     Extraction speed 2.4 X
     Range quality 100.0 %
     Test CRC 9D5969F9
     Copy CRC 9D5969F9
     Copy OK

No errors occurred

AccurateRip summary

Track  1  accurately ripped (confidence 9)  [78D816FA]  (AR v1)
Track  2  accurately ripped (confidence 9)  [9C127F9E]  (AR v1)
Track  3  accurately ripped (confidence 9)  [D91F311D]  (AR v1)
Track  4  accurately ripped (confidence 9)  [31987444]  (AR v1)

All tracks accurately ripped

End of status report

==== Log checksum 15F13694A1A4A36016D6FCB8F4A52B705B512F3A186955BD06C25D754B7A2A3F ====
Transatlantic - 2003 - Live In Europe (Disc 2)

01. Stranger In Your Soul (30:37)
02. All Of The Above (30:21)

Продолжительность: 01:00:58
Код:
Exact Audio Copy V1.0 beta 3 from 29. August 2011

EAC extraction logfile from 30. November 2011, 22:55

Transatlantic / Live In Europe (Disc 2)

Used drive  : PLEXTOR DVDR   PX-760A   Adapter: 0  ID: 1

Read mode               : Secure
Utilize accurate stream : Yes
Defeat audio cache      : Yes
Make use of C2 pointers : No

Read offset correction                      : 30
Overread into Lead-In and Lead-Out          : No
Fill up missing offset samples with silence : Yes
Delete leading and trailing silent blocks   : No
Null samples used in CRC calculations       : Yes
Used interface                              : Installed external ASPI interface

Used output format : Internal WAV Routines
Sample format      : 44.100 Hz; 16 Bit; Stereo

TOC of the extracted CD

     Track |   Start  |  Length  | Start sector | End sector
    ---------------------------------------------------------
        1  |  0:00.06 | 30:36.72 |         6    |   137777
        2  | 30:37.03 | 30:20.74 |    137778    |   274351

Range status and errors

Selected range

     Filename Z:\data\mp3\Seeding Archive\Transatlantic\2003-Live In Europe\europe_2.wav

     Peak level 100.0 %
     Extraction speed 7.5 X
     Range quality 100.0 %
     Test CRC 5D57F69D
     Copy CRC 5D57F69D
     Copy OK

No errors occurred

AccurateRip summary

Track  1  accurately ripped (confidence 2)  [D60AF499]  (AR v2)
Track  2  accurately ripped (confidence 9)  [758942AF]  (AR v1)

All tracks accurately ripped

End of status report

==== Log checksum EEB5433ABFFD9B314B4B45091D76F75DE3A118689DDB61CCF46DF487827E9038 ====
#777Лейбл: Radiant
Страна-производитель диска: США
Год издания диска: 2003
Номер по каталогу: Radiant 013

Transatlantic - 2003 - SMPTe - The Roine Stolt Mixes

01. All Of The Above (31:02)
02. We All Need Some Light (05:50)
03. Mystery Train (06:54)
04. My New World (16:30)
05. In Held ('Twas) In I (17:32)

Продолжительность: 01:17:48
Код:
Exact Audio Copy V1.0 beta 3 from 29. August 2011

EAC extraction logfile from 30. November 2011, 22:55

Transatlantic / SMPTe - The Roine Stolt Mixes

Used drive  : PLEXTOR CD-R   PX-240A   Adapter: 0  ID: 0

Read mode               : Secure
Utilize accurate stream : Yes
Defeat audio cache      : Yes
Make use of C2 pointers : No

Read offset correction                      : 6
Overread into Lead-In and Lead-Out          : No
Fill up missing offset samples with silence : Yes
Delete leading and trailing silent blocks   : No
Null samples used in CRC calculations       : Yes
Used interface                              : Installed external ASPI interface

Used output format : Internal WAV Routines
Sample format      : 44.100 Hz; 16 Bit; Stereo

TOC of the extracted CD

     Track |   Start  |  Length  | Start sector | End sector
    ---------------------------------------------------------
        1  |  0:00.00 | 31:01.38 |         0    |   139612
        2  | 31:01.38 |  5:50.00 |    139613    |   165862
        3  | 36:51.38 |  6:54.00 |    165863    |   196912
        4  | 43:45.38 | 16:30.00 |    196913    |   271162
        5  | 60:15.38 | 17:32.00 |    271163    |   350062

Range status and errors

Selected range

     Filename Z:\data\mp3\Seeding Archive\Transatlantic\2003-SMPTe - The Roine Stolt Mixes\smpte_stolt.wav

     Peak level 100.0 %
     Extraction speed 9.5 X
     Range quality 100.0 %
     Test CRC E215E450
     Copy CRC E215E450
     Copy OK

No errors occurred

AccurateRip summary

Track  1  accurately ripped (confidence 2)  [778CC641]  (AR v2)
Track  2  accurately ripped (confidence 2)  [37B410B6]  (AR v2)
Track  3  accurately ripped (confidence 2)  [40334E56]  (AR v2)
Track  4  accurately ripped (confidence 2)  [FF7C0D86]  (AR v2)
Track  5  accurately ripped (confidence 2)  [D0C5B833]  (AR v2)

All tracks accurately ripped

End of status report

==== Log checksum 39D2F8BB4FC90F330B04C1D57D1276052097ED2FFA563EC59EE48DF9CDD3BEA2 ====
#777Лейбл: Radiant / Metal Blade
Страна-производитель диска: США
Год издания диска: 2009
Номер по каталогу: 3984-14771-2

Transatlantic - 2009 - The Whirlwind

01. Overture / Whirlwind (09:54)
02. The Wind Blew Them All Away (06:10)
03. On The Prowl (06:03)
04. A Man Can Feel (06:35)
05. Out Of The Night (04:22)
06. Rose Colored Glasses (07:54)
07. Evermore (04:10)
08. Set Us Free (05:03)
09. Lay Down Your Life (05:11)
10. Pieces Of Heaven (02:17)
11. Is It Really Happening? (08:11)
12. Dancing With Eternal Glory / Whirlwind (Reprise) (12:04)

Продолжительность: 01:17:54
Код:
Exact Audio Copy V1.0 beta 3 from 29. August 2011

EAC extraction logfile from 1. December 2011, 10:30

Transatlantic / The Whirlwind

Used drive  : PLEXTOR CD-R   PX-240A   Adapter: 0  ID: 0

Read mode               : Secure
Utilize accurate stream : Yes
Defeat audio cache      : Yes
Make use of C2 pointers : No

Read offset correction                      : 6
Overread into Lead-In and Lead-Out          : No
Fill up missing offset samples with silence : Yes
Delete leading and trailing silent blocks   : No
Null samples used in CRC calculations       : Yes
Used interface                              : Installed external ASPI interface

Used output format : Internal WAV Routines
Sample format      : 44.100 Hz; 16 Bit; Stereo

TOC of the extracted CD

     Track |   Start  |  Length  | Start sector | End sector
    ---------------------------------------------------------
        1  |  0:00.00 |  9:53.69 |         0    |    44543
        2  |  9:53.69 |  6:09.71 |     44544    |    72289
        3  | 16:03.65 |  6:02.41 |     72290    |    99480
        4  | 22:06.31 |  6:35.02 |     99481    |   129107
        5  | 28:41.33 |  4:22.28 |    129108    |   148785
        6  | 33:03.61 |  7:53.58 |    148786    |   184318
        7  | 40:57.44 |  4:09.74 |    184319    |   203067
        8  | 45:07.43 |  5:03.27 |    203068    |   225819
        9  | 50:10.70 |  5:10.58 |    225820    |   249127
       10  | 55:21.53 |  2:17.08 |    249128    |   259410
       11  | 57:38.61 |  8:11.34 |    259411    |   296269
       12  | 65:50.20 | 12:03.55 |    296270    |   350549

Range status and errors

Selected range

     Filename Z:\data\mp3\Seeding Archive\Transatlantic\2009-The Whirlwind\whirlwind1.wav

     Peak level 98.8 %
     Extraction speed 3.3 X
     Range quality 100.0 %
     Test CRC 6F30E378
     Copy CRC 6F30E378
     Copy OK

No errors occurred

AccurateRip summary

Track  1  accurately ripped (confidence 6)  [2E85009F]  (AR v2)
Track  2  accurately ripped (confidence 6)  [A8110C7E]  (AR v2)
Track  3  accurately ripped (confidence 6)  [F1113C5C]  (AR v2)
Track  4  accurately ripped (confidence 6)  [97C9A6A6]  (AR v2)
Track  5  accurately ripped (confidence 6)  [821DF43B]  (AR v2)
Track  6  accurately ripped (confidence 6)  [74CAE565]  (AR v2)
Track  7  accurately ripped (confidence 6)  [4BC86B8E]  (AR v2)
Track  8  accurately ripped (confidence 6)  [587498FB]  (AR v2)
Track  9  accurately ripped (confidence 6)  [71EF0BAC]  (AR v2)
Track 10  accurately ripped (confidence 6)  [B31279D8]  (AR v2)
Track 11  accurately ripped (confidence 6)  [588B7B32]  (AR v2)
Track 12  accurately ripped (confidence 5)  [3EAD135E]  (AR v2)

All tracks accurately ripped

End of status report

==== Log checksum E3EEA5E0517FE957FDEA4317A2670DA11795411D2224546C17C9B423E484C874 ====
Transatlantic - 2009 - The Whirlwind - Bonus-CD

01. Spinning (09:58)
02. Lenny Johnson (04:20)
03. For Such A Time (05:23)
04. Lending A Hand (08:43)
05. The Return of the Giant Hogweed (Genesis) (08:26)
06. A Salty Dog (Procol Harum) (04:59)
07. I Need You (Part I - America, Part II - The Beatles) (04:39)
08. Soul Sacrifice (Santana) (10:00)

Продолжительность: 00:56:29
Код:
Exact Audio Copy V1.0 beta 3 from 29. August 2011

EAC extraction logfile from 1. December 2011, 8:06

Transatlantic / The Whirlwind - Bonus-CD

Used drive  : PLEXTOR CD-R   PX-240A   Adapter: 0  ID: 0

Read mode               : Secure
Utilize accurate stream : Yes
Defeat audio cache      : Yes
Make use of C2 pointers : No

Read offset correction                      : 6
Overread into Lead-In and Lead-Out          : No
Fill up missing offset samples with silence : Yes
Delete leading and trailing silent blocks   : No
Null samples used in CRC calculations       : Yes
Used interface                              : Installed external ASPI interface

Used output format : Internal WAV Routines
Sample format      : 44.100 Hz; 16 Bit; Stereo

TOC of the extracted CD

     Track |   Start  |  Length  | Start sector | End sector
    ---------------------------------------------------------
        1  |  0:00.00 |  9:58.24 |         0    |    44873
        2  |  9:58.24 |  4:20.05 |     44874    |    64378
        3  | 14:18.29 |  5:22.45 |     64379    |    88573
        4  | 19:40.74 |  8:43.02 |     88574    |   127800
        5  | 28:24.01 |  8:26.31 |    127801    |   165781
        6  | 36:50.32 |  4:59.04 |    165782    |   188210
        7  | 41:49.36 |  4:39.02 |    188211    |   209137
        8  | 46:28.38 | 10:00.32 |    209138    |   254169

Range status and errors

Selected range

     Filename Z:\data\mp3\Seeding Archive\Transatlantic\2009-The Whirlwind\whirlwind2.wav

     Peak level 98.8 %
     Extraction speed 2.5 X
     Range quality 100.0 %
     Test CRC FD16D4C9
     Copy CRC FD16D4C9
     Copy OK

No errors occurred

AccurateRip summary

Track  1  accurately ripped (confidence 5)  [C618B078]  (AR v2)
Track  2  accurately ripped (confidence 5)  [CC5DFC8D]  (AR v2)
Track  3  accurately ripped (confidence 5)  [2070853E]  (AR v2)
Track  4  accurately ripped (confidence 5)  [14AC8386]  (AR v2)
Track  5  accurately ripped (confidence 5)  [F01ADD0F]  (AR v2)
Track  6  accurately ripped (confidence 5)  [85126325]  (AR v2)
Track  7  accurately ripped (confidence 5)  [1EF6D02C]  (AR v2)
Track  8  accurately ripped (confidence 5)  [7A288E8F]  (AR v2)

All tracks accurately ripped

End of status report

==== Log checksum C695AFD34753BE13C0596FECB4A8572F62030FF2DB75E01FC14D3AB827BE3142 ====
#777Лейбл: Transatlantic / Radiant Records / WHD Entertainment
Страна-производитель диска: Japan
Год издания диска: 2014
Номер по каталогу: IECP-20227/228

Transatlantic - 2009 - The Whirlwind (Japan CD1)

01. Overture / Whirlwind (09:54)
02. The Wind Blew Them All Away (06:10)
03. On The Prowl (06:03)
04. A Man Can Feel (06:35)
05. Out Of The Night (04:22)
06. Rose Colored Glasses (07:54)
07. Evermore (04:10)
08. Set Us Free (05:03)
09. Lay Down Your Life (05:11)
10. Pieces Of Heaven (02:17)
11. Is It Really Happening? (08:11)
12. Dancing With Eternal Glory / Whirlwind (Reprise) (12:04)

Продолжительность: 01:17:54
Код:
Exact Audio Copy V1.0 beta 3 from 29. August 2011

EAC extraction logfile from 20. February 2014, 6:46

Transatlantic / The Whirlwind (Japan CD1)

Used drive  : LITE-ON DVDRW LH-20A1L   Adapter: 6  ID: 0

Read mode               : Secure
Utilize accurate stream : Yes
Defeat audio cache      : Yes
Make use of C2 pointers : No

Read offset correction                      : 6
Overread into Lead-In and Lead-Out          : No
Fill up missing offset samples with silence : Yes
Delete leading and trailing silent blocks   : No
Null samples used in CRC calculations       : Yes
Used interface                              : Installed external ASPI interface

Used output format : Internal WAV Routines
Sample format      : 44.100 Hz; 16 Bit; Stereo

TOC of the extracted CD

     Track |   Start  |  Length  | Start sector | End sector
    ---------------------------------------------------------
        1  |  0:00.00 |  9:53.67 |         0    |    44541
        2  |  9:53.67 |  6:09.71 |     44542    |    72287
        3  | 16:03.63 |  6:02.41 |     72288    |    99478
        4  | 22:06.29 |  6:35.02 |     99479    |   129105
        5  | 28:41.31 |  4:22.28 |    129106    |   148783
        6  | 33:03.59 |  7:53.58 |    148784    |   184316
        7  | 40:57.42 |  4:09.74 |    184317    |   203065
        8  | 45:07.41 |  5:03.27 |    203066    |   225817
        9  | 50:10.68 |  5:10.58 |    225818    |   249125
       10  | 55:21.51 |  2:17.08 |    249126    |   259408
       11  | 57:38.59 |  8:11.34 |    259409    |   296267
       12  | 65:50.18 | 12:03.62 |    296268    |   350554

Range status and errors

Selected range

     Filename Z:\data\hexonut\Seeding\Transatlantic\2009-The Whirlwind\2014-WHD [Japan, IECP-20228~229]\The Whirlwind (Japan CD1).wav

     Peak level 98.8 %
     Extraction speed 10.1 X
     Range quality 100.0 %
     Test CRC CE4DE658
     Copy CRC CE4DE658
     Copy OK

No errors occurred

AccurateRip summary

Track  1  not present in database
Track  2  not present in database
Track  3  not present in database
Track  4  not present in database
Track  5  not present in database
Track  6  not present in database
Track  7  not present in database
Track  8  not present in database
Track  9  not present in database
Track 10  not present in database
Track 11  not present in database
Track 12  not present in database

None of the tracks are present in the AccurateRip database

End of status report

==== Log checksum 57DC40F0E0BBE6F1ECBAC709CD16260F729F2C75AE66ADE637CCAE3C4F4C1087 ====
Transatlantic - 2009 - The Whirlwind (Japan CD2)

01. Spinning (09:58)
02. Lenny Johnson (04:20)
03. For Such A Time (05:23)
04. Lending A Hand (08:43)
05. The Return of the Giant Hogweed (Genesis) (08:26)
06. A Salty Dog (Procol Harum) (04:59)
07. I Need You (Part I - America, Part II - The Beatles) (04:39)
08. Soul Sacrifice (Santana) (10:00)

Продолжительность: 00:56:29
Код:
Exact Audio Copy V1.0 beta 3 from 29. August 2011

EAC extraction logfile from 20. February 2014, 6:46

Transatlantic / The Whirlwind (Japan CD2)

Used drive  : PLEXTOR CD-R   PX-240A   Adapter: 0  ID: 0

Read mode               : Secure
Utilize accurate stream : Yes
Defeat audio cache      : Yes
Make use of C2 pointers : No

Read offset correction                      : 6
Overread into Lead-In and Lead-Out          : No
Fill up missing offset samples with silence : Yes
Delete leading and trailing silent blocks   : No
Null samples used in CRC calculations       : Yes
Used interface                              : Installed external ASPI interface

Used output format : Internal WAV Routines
Sample format      : 44.100 Hz; 16 Bit; Stereo

TOC of the extracted CD

     Track |   Start  |  Length  | Start sector | End sector
    ---------------------------------------------------------
        1  |  0:00.00 |  9:58.24 |         0    |    44873
        2  |  9:58.24 |  4:20.05 |     44874    |    64378
        3  | 14:18.29 |  5:22.45 |     64379    |    88573
        4  | 19:40.74 |  8:43.02 |     88574    |   127800
        5  | 28:24.01 |  8:26.31 |    127801    |   165781
        6  | 36:50.32 |  4:59.04 |    165782    |   188210
        7  | 41:49.36 |  4:39.02 |    188211    |   209137
        8  | 46:28.38 | 10:00.32 |    209138    |   254169

Range status and errors

Selected range

     Filename Z:\data\hexonut\Seeding\Transatlantic\2009-The Whirlwind\2014-WHD [Japan, IECP-20228~229]\The Whirlwind (Japan CD2).wav

     Peak level 98.8 %
     Extraction speed 8.9 X
     Range quality 100.0 %
     Test CRC 0E9A0850
     Copy CRC 0E9A0850
     Copy OK

No errors occurred

AccurateRip summary

Track  1  cannot be verified as accurate (confidence 74)  [E6811DBA], AccurateRip returned [3A962D9A]  (AR v2)
Track  2  cannot be verified as accurate (confidence 72)  [8A066B81], AccurateRip returned [9CFD9BC5]  (AR v2)
Track  3  cannot be verified as accurate (confidence 74)  [18699028], AccurateRip returned [1F8ED098]  (AR v2)
Track  4  cannot be verified as accurate (confidence 74)  [B48C26EE], AccurateRip returned [33EBEFD0]  (AR v2)
Track  5  cannot be verified as accurate (confidence 74)  [0E4F50AB], AccurateRip returned [C4E0A518]  (AR v2)
Track  6  cannot be verified as accurate (confidence 74)  [9B1B212E], AccurateRip returned [BE7C5986]  (AR v2)
Track  7  cannot be verified as accurate (confidence 75)  [0819D3A2], AccurateRip returned [42D4745D]  (AR v2)
Track  8  cannot be verified as accurate (confidence 74)  [8BB16318], AccurateRip returned [52ECABD9]  (AR v2)

No tracks could be verified as accurate
You may have a different pressing from the one(s) in the database

End of status report

==== Log checksum 6BAF9EA13A89FB6E2592D0B889759B1CE592DF793F2BF7D36C0E89413A86A69A ====
#777Лейбл: Radiant / Metal Blade
Страна-производитель диска: США
Год издания диска: 2010
Номер по каталогу: 3984-14961-2

Transatlantic - 2010 - Whirld Tour 2010 (Disc 1)

01. The Whirlwind (79:52)

Продолжительность: 01:19:52
Код:
Exact Audio Copy V1.0 beta 3 from 29. August 2011

EAC extraction logfile from 30. November 2011, 20:27

Transatlantic / Whirld Tour 2010 (Disc 1)

Used drive  : PLEXTOR DVDR   PX-760A   Adapter: 0  ID: 1

Read mode               : Secure
Utilize accurate stream : Yes
Defeat audio cache      : Yes
Make use of C2 pointers : No

Read offset correction                      : 30
Overread into Lead-In and Lead-Out          : No
Fill up missing offset samples with silence : Yes
Delete leading and trailing silent blocks   : No
Null samples used in CRC calculations       : Yes
Used interface                              : Installed external ASPI interface

Used output format : Internal WAV Routines
Sample format      : 44.100 Hz; 16 Bit; Stereo

TOC of the extracted CD

     Track |   Start  |  Length  | Start sector | End sector
    ---------------------------------------------------------
        1  |  0:00.00 | 79:52.04 |         0    |   359403

Range status and errors

Selected range

     Filename Z:\data\mp3\Seeding Archive\Transatlantic\2010-Whirld Tour 2010\Whirld Tour 2010 (Disc 1).wav

     Peak level 95.4 %
     Extraction speed 2.4 X
     Range quality 99.9 %
     Test CRC 7E8A9CDE
     Copy CRC 7E8A9CDE
     Copy OK

No errors occurred

AccurateRip summary

Track  1  accurately ripped (confidence 2)  [467B69AF]  (AR v2)

All tracks accurately ripped

End of status report

==== Log checksum 9702A92E46B7BDE99C51C75560EAA567B501F9DC78F059642BA1B522A25B31D8 ====
Transatlantic - 2010 - Whirld Tour 2010 (Disc 2)

01. All Of The Above (30:19)
02. We All Need Some Light (08:40)
03. Duel With The Devil (28:32)

Продолжительность: 01:07:30
Код:
Exact Audio Copy V1.0 beta 3 from 29. August 2011

EAC extraction logfile from 30. November 2011, 22:16

Transatlantic / Whirld Tour 2010 (Disc 2)

Used drive  : PLEXTOR CD-R   PX-240A   Adapter: 0  ID: 0

Read mode               : Secure
Utilize accurate stream : Yes
Defeat audio cache      : Yes
Make use of C2 pointers : No

Read offset correction                      : 6
Overread into Lead-In and Lead-Out          : No
Fill up missing offset samples with silence : Yes
Delete leading and trailing silent blocks   : No
Null samples used in CRC calculations       : Yes
Used interface                              : Installed external ASPI interface

Used output format : Internal WAV Routines
Sample format      : 44.100 Hz; 16 Bit; Stereo

TOC of the extracted CD

     Track |   Start  |  Length  | Start sector | End sector
    ---------------------------------------------------------
        1  |  0:00.00 | 30:18.50 |         0    |   136399
        2  | 30:18.50 |  8:39.39 |    136400    |   175363
        3  | 38:58.14 | 28:31.45 |    175364    |   303733

Range status and errors

Selected range

     Filename Z:\data\mp3\Seeding Archive\Transatlantic\2010-Whirld Tour 2010\Whirld Tour 2010 (Disc 2).wav

     Peak level 94.9 %
     Extraction speed 2.5 X
     Range quality 100.0 %
     Test CRC C7F99A51
     Copy CRC C7F99A51
     Copy OK

No errors occurred

AccurateRip summary

Track  1  accurately ripped (confidence 2)  [948895EC]  (AR v2)
Track  2  accurately ripped (confidence 2)  [A80DC6DE]  (AR v2)
Track  3  accurately ripped (confidence 2)  [DCBB9C7D]  (AR v2)

All tracks accurately ripped

End of status report

==== Log checksum 0AB8F12F0BDCC172D5A2C4CF45E8DA5CFA7A950ACB08CBBEF66D36E1436B9F44 ====
Transatlantic - 2010 - Whirld Tour 2010 (Disc 3)

01. Bridge Across Forever (06:03)
02. Stranger In Your Soul (30:00)

Продолжительность: 00:36:02
Код:
Exact Audio Copy V1.0 beta 3 from 29. August 2011

EAC extraction logfile from 30. November 2011, 20:23

Transatlantic / Whirld Tour 2010 (Disc 3)

Used drive  : PLEXTOR CD-R   PX-240A   Adapter: 0  ID: 0

Read mode               : Secure
Utilize accurate stream : Yes
Defeat audio cache      : Yes
Make use of C2 pointers : No

Read offset correction                      : 6
Overread into Lead-In and Lead-Out          : No
Fill up missing offset samples with silence : Yes
Delete leading and trailing silent blocks   : No
Null samples used in CRC calculations       : Yes
Used interface                              : Installed external ASPI interface

Used output format : Internal WAV Routines
Sample format      : 44.100 Hz; 16 Bit; Stereo

TOC of the extracted CD

     Track |   Start  |  Length  | Start sector | End sector
    ---------------------------------------------------------
        1  |  0:00.00 |  6:02.42 |         0    |    27191
        2  |  6:02.42 | 29:59.46 |     27192    |   162162

Range status and errors

Selected range

     Filename Z:\data\mp3\Seeding Archive\Transatlantic\2010-Whirld Tour 2010\Whirld Tour 2010 (Disc 3).wav

     Peak level 94.0 %
     Extraction speed 2.4 X
     Range quality 100.0 %
     Test CRC 04135C91
     Copy CRC 04135C91
     Copy OK

No errors occurred

AccurateRip summary

Track  1  accurately ripped (confidence 5)  [F2479024]  (AR v1)
Track  2  accurately ripped (confidence 5)  [C1867F2A]  (AR v1)

All tracks accurately ripped

End of status report

==== Log checksum 229B5F0AB91FF6ACBB99AA6C128966DF90E26F2BB6B28666B976D15213757964 ====
#777Лейбл: Radiant / Metal Blade
Страна-производитель диска: США
Год издания диска: 2011
Номер по каталогу: 3984-14938-2

Transatlantic - More Never Is Enough CD1

01. Whirlwind (79:46)

Продолжительность: 01:19:46
Код:
Exact Audio Copy V1.0 beta 2 from 29. April 2011

EAC extraction logfile from 28. November 2011, 15:46

Transatlantic / More Never Is Enough CD1

Used drive  : TSSTcorpCDRWDVD TS-H492C   Adapter: 0  ID: 0

Read mode               : Secure
Utilize accurate stream : Yes
Defeat audio cache      : Yes
Make use of C2 pointers : No

Read offset correction                      : 6
Overread into Lead-In and Lead-Out          : No
Fill up missing offset samples with silence : Yes
Delete leading and trailing silent blocks   : No
Null samples used in CRC calculations       : Yes
Used interface                              : Native Win32 interface for Win NT & 2000

Used output format : Internal WAV Routines
Sample format      : 44.100 Hz; 16 Bit; Stereo

TOC of the extracted CD

     Track |   Start  |  Length  | Start sector | End sector
    ---------------------------------------------------------
        1  |  0:00.00 | 79:45.60 |         0    |   358934

Range status and errors

Selected range

     Filename P:\Music\Transatlantic - More Never Is Enough\More Never Is Enough CD1.wav

     Peak level 96.2 %
     Extraction speed 8.2 X
     Range quality 99.9 %
     Test CRC F3B28FEE
     Copy CRC F3B28FEE
     Copy OK

No errors occurred

AccurateRip summary

Track  1  cannot be verified as accurate (confidence 1)  [8D21C95B], AccurateRip returned [AE91B476]  (AR v2)

No tracks could be verified as accurate
You may have a different pressing from the one(s) in the database

End of status report

==== Log checksum BDAE2FC867DD4BC588549407510D81AEBADB36CDE775CB408865111EA2595ECF ====
Transatlantic - More Never Is Enough CD2

01. All Of The Above (31:57)
02. We All Need Some Light (10:22)
03. Duel With The Devil (28:49)

Продолжительность: 01:11:08
Код:
Exact Audio Copy V1.0 beta 2 from 29. April 2011

EAC extraction logfile from 28. November 2011, 15:27

Transatlantic / More Is Never Enough CD2

Used drive  : TSSTcorpCDRWDVD TS-H492C   Adapter: 0  ID: 0

Read mode               : Secure
Utilize accurate stream : Yes
Defeat audio cache      : Yes
Make use of C2 pointers : No

Read offset correction                      : 6
Overread into Lead-In and Lead-Out          : No
Fill up missing offset samples with silence : Yes
Delete leading and trailing silent blocks   : No
Null samples used in CRC calculations       : Yes
Used interface                              : Native Win32 interface for Win NT & 2000

Used output format : Internal WAV Routines
Sample format      : 44.100 Hz; 16 Bit; Stereo

TOC of the extracted CD

     Track |   Start  |  Length  | Start sector | End sector
    ---------------------------------------------------------
        1  |  0:00.00 | 31:57.31 |         0    |   143805
        2  | 31:57.31 | 10:22.28 |    143806    |   190483
        3  | 42:19.59 | 28:48.47 |    190484    |   320130

Range status and errors

Selected range

     Filename P:\Music\Transatlantic - More Never Is Enough\More Is Never Enough CD2.wav

     Peak level 96.5 %
     Extraction speed 7.2 X
     Range quality 100.0 %
     Test CRC 715297CC
     Copy CRC 715297CC
     Copy OK

No errors occurred

AccurateRip summary

Track  1  cannot be verified as accurate (confidence 1)  [1CC2074F], AccurateRip returned [976C9F70]  (AR v2)
Track  2  cannot be verified as accurate (confidence 1)  [96244F42], AccurateRip returned [3047655B]  (AR v2)
Track  3  cannot be verified as accurate (confidence 1)  [470263A8], AccurateRip returned [41429CCB]  (AR v2)

No tracks could be verified as accurate
You may have a different pressing from the one(s) in the database

End of status report

==== Log checksum 06E7AA3DD99C3A7767EC0F0E489B45A8668C3AC10254F52C3279A95B86DDA6C9 ====
Transatlantic - More Never Is Enough CD3

01. Bridge Across Forever (06:03)
02. Stranger In Your Soul (33:17)

Продолжительность: 00:39:20
Код:
Exact Audio Copy V1.0 beta 2 from 29. April 2011

EAC extraction logfile from 28. November 2011, 15:07

Transatlantic / More Never Is Enough CD3

Used drive  : TSSTcorpCDRWDVD TS-H492C   Adapter: 0  ID: 0

Read mode               : Secure
Utilize accurate stream : Yes
Defeat audio cache      : Yes
Make use of C2 pointers : No

Read offset correction                      : 6
Overread into Lead-In and Lead-Out          : No
Fill up missing offset samples with silence : Yes
Delete leading and trailing silent blocks   : No
Null samples used in CRC calculations       : Yes
Used interface                              : Native Win32 interface for Win NT & 2000

Used output format : Internal WAV Routines
Sample format      : 44.100 Hz; 16 Bit; Stereo

TOC of the extracted CD

     Track |   Start  |  Length  | Start sector | End sector
    ---------------------------------------------------------
        1  |  0:00.00 |  6:02.51 |         0    |    27200
        2  |  6:02.51 | 33:17.01 |     27201    |   176976

Range status and errors

Selected range

     Filename P:\Music\Transatlantic - More Never Is Enough\More Never Is Enough CD3.wav

     Peak level 96.5 %
     Extraction speed 7.0 X
     Range quality 100.0 %
     Test CRC 6694AE7B
     Copy CRC 6694AE7B
     Copy OK

No errors occurred

AccurateRip summary

Track  1  cannot be verified as accurate (confidence 1)  [3B570C0A], AccurateRip returned [E86E609F]  (AR v2)
Track  2  cannot be verified as accurate (confidence 1)  [66AE53B4], AccurateRip returned [1F296CF2]  (AR v2)

No tracks could be verified as accurate
You may have a different pressing from the one(s) in the database

End of status report

==== Log checksum ECD75ECEDEA8A6041457AC02774BAC04414F755E3A341BCAEF6E8E341C3261C3 ====
#777Лейбл: Transatlantic / InsideOut Music / Century Media Records
Страна-производитель диска: Германия
Год издания диска: 2014
Номер по каталогу: 0506712

Transatlantic - 2014 - Kaleidoscope CD1

01. Into the Blue (25:11)
02. Shine (07:29)
03. Black as the Sky (06:46)
04. Beyond the Sun (04:32)
05. Kaleidoscope (31:54)

Продолжительность: 01:15:51
Код:
Exact Audio Copy V1.0 beta 3 from 29. August 2011

EAC extraction logfile from 28. February 2014, 20:57

Transatlantic / Kaleidoscope CD1

Used drive  : LITE-ON DVDRW LH-20A1L   Adapter: 6  ID: 0

Read mode               : Secure
Utilize accurate stream : Yes
Defeat audio cache      : Yes
Make use of C2 pointers : No

Read offset correction                      : 6
Overread into Lead-In and Lead-Out          : No
Fill up missing offset samples with silence : Yes
Delete leading and trailing silent blocks   : No
Null samples used in CRC calculations       : Yes
Used interface                              : Installed external ASPI interface

Used output format : Internal WAV Routines
Sample format      : 44.100 Hz; 16 Bit; Stereo

TOC of the extracted CD

     Track |   Start  |  Length  | Start sector | End sector
    ---------------------------------------------------------
        1  |  0:00.00 | 25:13.01 |         0    |   113475
        2  | 25:13.01 |  7:28.54 |    113476    |   147129
        3  | 32:41.55 |  6:45.53 |    147130    |   177557
        4  | 39:27.33 |  4:29.61 |    177558    |   197793
        5  | 43:57.19 | 31:53.74 |    197794    |   341342

Range status and errors

Selected range

     Filename Z:\data\hexonut\Seeding\Transatlantic\2014-Kaleidoscope\2014-Inside Out Music [Germany, 0506712]\Kaleidoscope CD1.wav

     Peak level 100.0 %
     Extraction speed 9.8 X
     Range quality 100.0 %
     Test CRC FFCE9B19
     Copy CRC FFCE9B19
     Copy OK

No errors occurred

AccurateRip summary

Track  1  accurately ripped (confidence 13)  [E3BA55AB]  (AR v2)
Track  2  accurately ripped (confidence 13)  [634D0181]  (AR v2)
Track  3  accurately ripped (confidence 13)  [85C0C84C]  (AR v2)
Track  4  accurately ripped (confidence 13)  [F89F21E5]  (AR v2)
Track  5  accurately ripped (confidence 12)  [E7457AF0]  (AR v2)

All tracks accurately ripped

End of status report

==== Log checksum 0C1976B41B0E2EAEE279F974111EF70A1563C209DE52C5468CDC705639FF1481 ====
Transatlantic - 2014 - Kaleidoscope CD2

01. And You and I (10:43)
02. Can't Get it Out of My Head (04:44)
03. Conquistator (04:14)
04. Goodbye Yellow Brick Road (03:20)
05. Tin Soldier (03:24)
06. Sylvia (03:50)
07. Indiscipline (04:45)
08. Nights in White Satin (06:15)

Продолжительность: 00:41:13
Код:
Exact Audio Copy V1.0 beta 3 from 29. August 2011

EAC extraction logfile from 28. February 2014, 18:52

Transatlantic / Kaleidoscope CD2

Used drive  : PLEXTOR CD-R   PX-240A   Adapter: 0  ID: 0

Read mode               : Secure
Utilize accurate stream : Yes
Defeat audio cache      : Yes
Make use of C2 pointers : No

Read offset correction                      : 6
Overread into Lead-In and Lead-Out          : No
Fill up missing offset samples with silence : Yes
Delete leading and trailing silent blocks   : No
Null samples used in CRC calculations       : Yes
Used interface                              : Installed external ASPI interface

Used output format : Internal WAV Routines
Sample format      : 44.100 Hz; 16 Bit; Stereo

TOC of the extracted CD

     Track |   Start  |  Length  | Start sector | End sector
    ---------------------------------------------------------
        1  |  0:00.00 | 10:43.60 |         0    |    48284
        2  | 10:43.60 |  4:46.07 |     48285    |    69741
        3  | 15:29.67 |  4:13.49 |     69742    |    88765
        4  | 19:43.41 |  3:18.73 |     88766    |   103688
        5  | 23:02.39 |  3:21.41 |    103689    |   118804
        6  | 26:24.05 |  3:50.44 |    118805    |   136098
        7  | 30:14.49 |  4:45.43 |    136099    |   157516
        8  | 35:00.17 |  6:12.63 |    157517    |   185479

Range status and errors

Selected range

     Filename Z:\data\hexonut\Seeding\Transatlantic\2014-Kaleidoscope\2014-Inside Out Music [Germany, 0506712]\Kaleidoscope CD2.wav

     Peak level 100.0 %
     Extraction speed 8.3 X
     Range quality 99.9 %
     Test CRC 2ECCD339
     Copy CRC 2ECCD339
     Copy OK

No errors occurred

AccurateRip summary

Track  1  accurately ripped (confidence 8)  [7892D7D1]  (AR v2)
Track  2  accurately ripped (confidence 8)  [86B769D0]  (AR v2)
Track  3  accurately ripped (confidence 8)  [8CB32D61]  (AR v2)
Track  4  accurately ripped (confidence 8)  [F662BF7B]  (AR v2)
Track  5  accurately ripped (confidence 8)  [C78FA9B0]  (AR v2)
Track  6  accurately ripped (confidence 8)  [4F460490]  (AR v2)
Track  7  accurately ripped (confidence 8)  [61C9ACBB]  (AR v2)
Track  8  accurately ripped (confidence 8)  [76526163]  (AR v2)

All tracks accurately ripped

End of status report

==== Log checksum DFDE140342E4FDB2790CD757AAB98A8ED37BD207E28579F38CC714B9E65C0BAD ====
#777Лейбл: Transatlantic / Radiant Records / WHD Entertainment
Страна-производитель диска: Japan
Год издания диска: 2014
Номер по каталогу: IEZP-64

Transatlantic - 2014 - Kaleidoscope (Japan CD1)

01. Into the Blue (25:11)
02. Shine (07:29)
03. Black as the Sky (06:46)
04. Beyond the Sun (04:32)
05. Kaleidoscope (31:54)

Продолжительность: 01:15:51
Код:
Exact Audio Copy V1.0 beta 3 from 29. August 2011

EAC extraction logfile from 20. February 2014, 8:33

Transatlantic / Kaleidoscope (Japan CD1)

Used drive  : LITE-ON DVDRW LH-20A1L   Adapter: 6  ID: 0

Read mode               : Secure
Utilize accurate stream : Yes
Defeat audio cache      : Yes
Make use of C2 pointers : No

Read offset correction                      : 6
Overread into Lead-In and Lead-Out          : No
Fill up missing offset samples with silence : Yes
Delete leading and trailing silent blocks   : No
Null samples used in CRC calculations       : Yes
Used interface                              : Installed external ASPI interface

Used output format : Internal WAV Routines
Sample format      : 44.100 Hz; 16 Bit; Stereo

TOC of the extracted CD

     Track |   Start  |  Length  | Start sector | End sector
    ---------------------------------------------------------
        1  |  0:00.00 | 25:13.01 |         0    |   113475
        2  | 25:13.01 |  7:28.54 |    113476    |   147129
        3  | 32:41.55 |  6:45.53 |    147130    |   177557
        4  | 39:27.33 |  4:29.61 |    177558    |   197793
        5  | 43:57.19 | 31:53.74 |    197794    |   341342

Range status and errors

Selected range

     Filename Z:\data\hexonut\Seeding\Transatlantic\2014-Kaleidoscope\2014-WHD [Japan, IEZP-64]\Kaleidoscope (Japan CD1).wav

     Peak level 100.0 %
     Extraction speed 9.8 X
     Range quality 99.9 %
     Test CRC 4C29B375
     Copy CRC 4C29B375
     Copy OK

No errors occurred

AccurateRip summary

Track  1  cannot be verified as accurate (confidence 13)  [B691410A], AccurateRip returned [E3BA55AB]  (AR v2)
Track  2  cannot be verified as accurate (confidence 13)  [74ABC175], AccurateRip returned [634D0181]  (AR v2)
Track  3  cannot be verified as accurate (confidence 13)  [C94354B8], AccurateRip returned [85C0C84C]  (AR v2)
Track  4  cannot be verified as accurate (confidence 13)  [EF732B43], AccurateRip returned [F89F21E5]  (AR v2)
Track  5  cannot be verified as accurate (confidence 12)  [314E9762], AccurateRip returned [E7457AF0]  (AR v2)

No tracks could be verified as accurate
You may have a different pressing from the one(s) in the database

End of status report

==== Log checksum 9D0162CEC63339F181C5D59C1B6DD4852889308BE88AB096C5B84D12DB2498F1 ====
Transatlantic - 2014 - Kaleidoscope (Japan CD2)

01. And You and I (10:43)
02. Can't Get it Out of My Head (04:44)
03. Conquistator (04:14)
04. Goodbye Yellow Brick Road (03:20)
05. Tin Soldier (03:24)
06. Sylvia (03:50)
07. Indiscipline (04:45)
08. Nights in White Satin (06:15)

Продолжительность: 00:41:13
Код:
Exact Audio Copy V1.0 beta 3 from 29. August 2011

EAC extraction logfile from 20. February 2014, 8:33

Transatlantic / Kaleidoscope (Japan CD2)

Used drive  : PLEXTOR CD-R   PX-240A   Adapter: 0  ID: 0

Read mode               : Secure
Utilize accurate stream : Yes
Defeat audio cache      : Yes
Make use of C2 pointers : No

Read offset correction                      : 6
Overread into Lead-In and Lead-Out          : No
Fill up missing offset samples with silence : Yes
Delete leading and trailing silent blocks   : No
Null samples used in CRC calculations       : Yes
Used interface                              : Installed external ASPI interface

Used output format : Internal WAV Routines
Sample format      : 44.100 Hz; 16 Bit; Stereo

TOC of the extracted CD

     Track |   Start  |  Length  | Start sector | End sector
    ---------------------------------------------------------
        1  |  0:00.00 | 10:43.60 |         0    |    48284
        2  | 10:43.60 |  4:46.07 |     48285    |    69741
        3  | 15:29.67 |  4:13.49 |     69742    |    88765
        4  | 19:43.41 |  3:18.73 |     88766    |   103688
        5  | 23:02.39 |  3:21.41 |    103689    |   118804
        6  | 26:24.05 |  3:50.44 |    118805    |   136098
        7  | 30:14.49 |  4:45.43 |    136099    |   157516
        8  | 35:00.17 |  6:12.63 |    157517    |   185479

Range status and errors

Selected range

     Filename Z:\data\hexonut\Seeding\Transatlantic\2014-Kaleidoscope\2014-WHD [Japan, IEZP-64]\Kaleidoscope (Japan CD2).wav

     Peak level 100.0 %
     Extraction speed 8.2 X
     Range quality 99.9 %
     Test CRC CD0EFECF
     Copy CRC CD0EFECF
     Copy OK

No errors occurred

AccurateRip summary

Track  1  cannot be verified as accurate (confidence 8)  [995F1410], AccurateRip returned [7892D7D1]  (AR v2)
Track  2  cannot be verified as accurate (confidence 8)  [19F3C40F], AccurateRip returned [86B769D0]  (AR v2)
Track  3  cannot be verified as accurate (confidence 8)  [81973A08], AccurateRip returned [8CB32D61]  (AR v2)
Track  4  cannot be verified as accurate (confidence 8)  [05DA6956], AccurateRip returned [F662BF7B]  (AR v2)
Track  5  cannot be verified as accurate (confidence 8)  [446BAE64], AccurateRip returned [C78FA9B0]  (AR v2)
Track  6  cannot be verified as accurate (confidence 8)  [A00555B3], AccurateRip returned [4F460490]  (AR v2)
Track  7  cannot be verified as accurate (confidence 8)  [5DEE6550], AccurateRip returned [61C9ACBB]  (AR v2)
Track  8  cannot be verified as accurate (confidence 8)  [FB45A95F], AccurateRip returned [76526163]  (AR v2)

No tracks could be verified as accurate
You may have a different pressing from the one(s) in the database

End of status report

==== Log checksum CFDCF3948A06ABAA1FEB533E6F74D0011D15C9107C863DEEF9F1932AF53638F8 ====
#777Лейбл: Radiant / Metal Blade
Страна-производитель диска: США
Год издания диска: 2014
Номер по каталогу: 3984-15349-2

Transatlantic - 2014 - KaLIVEoscope CD 1

01. Into The Blue (27:47)
02. My New World (18:28)
03. Shine (07:23)

Продолжительность: 00:53:39
Код:
Exact Audio Copy V1.0 beta 4 from 7. December 2014

EAC extraction logfile from 27. January 2015, 14:57

Transatlantic / KaLIVEoscope CD 1

Used drive  : LITE-ON DVDRW LH-20A1L   Adapter: 6  ID: 0

Read mode               : Secure
Utilize accurate stream : Yes
Defeat audio cache      : Yes
Make use of C2 pointers : No

Read offset correction                      : 6
Overread into Lead-In and Lead-Out          : No
Fill up missing offset samples with silence : Yes
Delete leading and trailing silent blocks   : No
Null samples used in CRC calculations       : Yes
Used interface                              : Installed external ASPI interface

Used output format : Internal WAV Routines
Sample format      : 44.100 Hz; 16 Bit; Stereo

TOC of the extracted CD

     Track |   Start  |  Length  | Start sector | End sector
    ---------------------------------------------------------
        1  |  0:00.00 | 27:47.36 |         0    |   125060
        2  | 27:47.36 | 18:28.04 |    125061    |   208164
        3  | 46:15.40 |  7:23.22 |    208165    |   241411

Range status and errors

Selected range

     Filename Z:\data\hexonut\Seeding\Transatlantic\2014-KaLIVEoscope\KaLIVEoscope CD 1.wav

     Peak level 100.0 %
     Extraction speed 8.3 X
     Range quality 100.0 %
     Test CRC 3703BFBF
     Copy CRC 3703BFBF
     Copy OK

No errors occurred

AccurateRip summary

Track  1  accurately ripped (confidence 2)  [DCD1C66B]  (AR v2)
Track  2  accurately ripped (confidence 2)  [225E0993]  (AR v2)
Track  3  accurately ripped (confidence 2)  [37C62009]  (AR v2)

All tracks accurately ripped

End of status report

==== Log checksum EF1F4C2833DA6E9FCA97C634BCAA81D874A8A867FA4166FED622271B4E22044D ====
Transatlantic - 2014 - KaLIVEoscope CD 2

01. The Whirlwind Medley (30:11)
02. Beyond The Sun (04:51)
03. Kaleidoscope (31:30)

Продолжительность: 01:06:32
Код:
Exact Audio Copy V1.0 beta 4 from 7. December 2014

EAC extraction logfile from 27. January 2015, 15:15

Transatlantic / KaLIVEoscope CD 2

Used drive  : LITE-ON DVDRW LH-20A1L   Adapter: 6  ID: 0

Read mode               : Secure
Utilize accurate stream : Yes
Defeat audio cache      : Yes
Make use of C2 pointers : No

Read offset correction                      : 6
Overread into Lead-In and Lead-Out          : No
Fill up missing offset samples with silence : Yes
Delete leading and trailing silent blocks   : No
Null samples used in CRC calculations       : Yes
Used interface                              : Installed external ASPI interface

Used output format : Internal WAV Routines
Sample format      : 44.100 Hz; 16 Bit; Stereo

TOC of the extracted CD

     Track |   Start  |  Length  | Start sector | End sector
    ---------------------------------------------------------
        1  |  0:00.00 | 30:10.62 |         0    |   135811
        2  | 30:10.62 |  4:50.47 |    135812    |   157608
        3  | 35:01.34 | 31:30.04 |    157609    |   299362

Range status and errors

Selected range

     Filename Z:\data\hexonut\Seeding\Transatlantic\2014-KaLIVEoscope\KaLIVEoscope CD 2.wav

     Peak level 100.0 %
     Extraction speed 9.3 X
     Range quality 100.0 %
     Test CRC CD154359
     Copy CRC CD154359
     Copy OK

No errors occurred

AccurateRip summary

Track  1  cannot be verified as accurate (confidence 3)  [255C546E], AccurateRip returned [90BDD558]  (AR v2)
Track  2  cannot be verified as accurate (confidence 3)  [076E337C], AccurateRip returned [BF4D16BA]  (AR v2)
Track  3  cannot be verified as accurate (confidence 3)  [A63BB9E9], AccurateRip returned [3B03D8A7]  (AR v2)

No tracks could be verified as accurate
You may have a different pressing from the one(s) in the database

End of status report

==== Log checksum 80638E7D620C062B11149BE0213D348ECC7C89E6553EA0667EAB3A001F60C102 ====
Transatlantic - 2014 - KaLIVEoscope CD 3

01. Neal & Roine Duet (04:32)
02. We All Need Some Light (06:05)
03. Black As The Sky (07:22)
04. NIghts In White Satin (08:10)
05. Silvia (04:47)
06. Hocus Pocus (07:10)
07. Medley: All Of The Above_Stranger In Your Soul (24:35)

Продолжительность: 01:02:41
Код:
Exact Audio Copy V1.0 beta 4 from 7. December 2014

EAC extraction logfile from 27. January 2015, 15:46

Transatlantic / KaLIVEoscope CD 3

Used drive  : LITE-ON DVDRW LH-20A1L   Adapter: 6  ID: 0

Read mode               : Secure
Utilize accurate stream : Yes
Defeat audio cache      : Yes
Make use of C2 pointers : No

Read offset correction                      : 6
Overread into Lead-In and Lead-Out          : No
Fill up missing offset samples with silence : Yes
Delete leading and trailing silent blocks   : No
Null samples used in CRC calculations       : Yes
Used interface                              : Installed external ASPI interface

Used output format : Internal WAV Routines
Sample format      : 44.100 Hz; 16 Bit; Stereo

TOC of the extracted CD

     Track |   Start  |  Length  | Start sector | End sector
    ---------------------------------------------------------
        1  |  0:00.00 |  4:32.29 |         0    |    20428
        2  |  4:32.29 |  6:05.17 |     20429    |    47820
        3  | 10:37.46 |  7:25.15 |     47821    |    81210
        4  | 18:02.61 |  8:09.69 |     81211    |   117954
        5  | 26:12.55 |  4:43.42 |    117955    |   139221
        6  | 30:56.22 |  7:11.64 |    139222    |   171610
        7  | 38:08.11 | 24:32.64 |    171611    |   282074

Range status and errors

Selected range

     Filename Z:\data\hexonut\Seeding\Transatlantic\2014-KaLIVEoscope\KaLIVEoscope CD 3.wav

     Peak level 100.0 %
     Extraction speed 9.0 X
     Range quality 100.0 %
     Test CRC 4E86F7C9
     Copy CRC 4E86F7C9
     Copy OK

No errors occurred

AccurateRip summary

Track  1  cannot be verified as accurate (confidence 3)  [57403505], AccurateRip returned [0B5C2121]  (AR v2)
Track  2  cannot be verified as accurate (confidence 3)  [F9B90488], AccurateRip returned [86298BF2]  (AR v2)
Track  3  cannot be verified as accurate (confidence 3)  [8406F129], AccurateRip returned [0BE2A11F]  (AR v2)
Track  4  cannot be verified as accurate (confidence 3)  [945808CB], AccurateRip returned [C65EB7F0]  (AR v2)
Track  5  cannot be verified as accurate (confidence 3)  [7A083628], AccurateRip returned [3F59A07E]  (AR v2)
Track  6  cannot be verified as accurate (confidence 3)  [C7AEBEA0], AccurateRip returned [CB014CA0]  (AR v2)
Track  7  cannot be verified as accurate (confidence 3)  [AE355495], AccurateRip returned [0CE175E2]  (AR v2)

No tracks could be verified as accurate
You may have a different pressing from the one(s) in the database

End of status report

==== Log checksum 9A61AEEA15C735D2388F62B7F19405B700F86D7DFEAE509BDEB31C43FF700341 ====
#777Лейбл: Radiant
Страна-производитель диска: США
Год издания диска: 2003
Номер по каталогу: RA-012

Neal Morse - 2003 - The Transatlantic Demos

01. Hanging In The Balance (18:01)
02. Working On Mystery Train (On A Bus) (01:48)
03. We All Need Some Light (05:25)
04. Dance With The Devil (09:03)
05. Working On Piano Solo in 'All Of The Above' (00:54)
06. Bridge Across Forever (04:49)
07. Full Moon Rising (22:35)

Продолжительность: 01:02:36
Код:
Exact Audio Copy V1.0 beta 3 from 29. August 2011

EAC extraction logfile from 1. December 2011, 0:31

Neal Morse / The Transatlantic Demos

Used drive  : PLEXTOR DVDR   PX-760A   Adapter: 0  ID: 1

Read mode               : Secure
Utilize accurate stream : Yes
Defeat audio cache      : Yes
Make use of C2 pointers : No

Read offset correction                      : 30
Overread into Lead-In and Lead-Out          : No
Fill up missing offset samples with silence : Yes
Delete leading and trailing silent blocks   : No
Null samples used in CRC calculations       : Yes
Used interface                              : Installed external ASPI interface

Used output format : Internal WAV Routines
Sample format      : 44.100 Hz; 16 Bit; Stereo

TOC of the extracted CD

     Track |   Start  |  Length  | Start sector | End sector
    ---------------------------------------------------------
        1  |  0:00.00 | 18:02.40 |         0    |    81189
        2  | 18:02.40 |  1:48.15 |     81190    |    89304
        3  | 19:50.55 |  5:24.60 |     89305    |   113664
        4  | 25:15.40 |  9:02.65 |    113665    |   154379
        5  | 34:18.30 |  0:54.50 |    154380    |   158479
        6  | 35:13.05 |  4:49.35 |    158480    |   180189
        7  | 40:02.40 | 22:33.37 |    180190    |   281701

Range status and errors

Selected range

     Filename Z:\data\mp3\Seeding Archive\Transatlantic\Neal Morse-2003-The Transatlantic Demos\demos.wav

     Peak level 100.0 %
     Extraction speed 2.4 X
     Range quality 100.0 %
     Test CRC 8DC763C0
     Copy CRC 8DC763C0
     Copy OK

No errors occurred

AccurateRip summary

Track  1  accurately ripped (confidence 4)  [55D36737]  (AR v1)
Track  2  accurately ripped (confidence 4)  [F1B6E4AD]  (AR v1)
Track  3  accurately ripped (confidence 4)  [EC4A9F84]  (AR v1)
Track  4  accurately ripped (confidence 4)  [B40EC15E]  (AR v1)
Track  5  accurately ripped (confidence 4)  [AD0C53B6]  (AR v1)
Track  6  accurately ripped (confidence 4)  [BBA88626]  (AR v1)
Track  7  accurately ripped (confidence 4)  [ECCDED16]  (AR v1)

All tracks accurately ripped

End of status report

==== Log checksum 364FA6726D93DC0D4F7AA9B5217417DF29CA51C427B41B5F1949B5AE06F55FAD ====
#777Лейбл: Radiant Records
Страна-производитель диска: США
Год издания диска: 2012
Номер по каталогу: -

Neal Morse - 2012 - The Whirlwind Demo - Inner Circle CD Jan 2012

01. The Whirlwind Demo (43:21)

Продолжительность: 00:43:21
Код:
Exact Audio Copy V1.0 beta 3 from 29. August 2011

EAC extraction logfile from 15. December 2012, 15:46

Neal Morse / The Whirlwind Demo - Inner Circle CD Jan 2012

Used drive  : PLEXTOR CD-R   PX-240A   Adapter: 1  ID: 0

Read mode               : Secure
Utilize accurate stream : Yes
Defeat audio cache      : Yes
Make use of C2 pointers : No

Read offset correction                      : 6
Overread into Lead-In and Lead-Out          : No
Fill up missing offset samples with silence : Yes
Delete leading and trailing silent blocks   : No
Null samples used in CRC calculations       : Yes
Used interface                              : Installed external ASPI interface

Used output format : Internal WAV Routines
Sample format      : 44.100 Hz; 16 Bit; Stereo

TOC of the extracted CD

     Track |   Start  |  Length  | Start sector | End sector
    ---------------------------------------------------------
        1  |  0:00.00 | 43:20.42 |         0    |   195041

Range status and errors

Selected range

     Filename P:\Seeding Archive\Transatlantic\Neal Morse-2012-The Whirlwind Demo\The Whirlwind Demo.wav

     Peak level 100.0 %
     Extraction speed 2.4 X
     Range quality 99.9 %
     Test CRC B3AA2997
     Copy CRC B3AA2997
     Copy OK

No errors occurred

AccurateRip summary

Track  1  accurately ripped (confidence 1)  [90814495]  (AR v1)

All tracks accurately ripped

End of status report

==== Log checksum D6D896D519EEB4234FE4A1D92B2529BF4497A7215DA2B5053818682EEB870C9C ====
#777Лейбл: Radiant Records
Страна-производитель диска: США
Год издания диска: 2014
Номер по каталогу: -

Neal Morse - 2014 - The Transatlantic Kaleidoscope Demos Part 1

01. Introduction (03:29)
02. TA Kaleidoscope Demo #2 (25:07)
03. Intro for Dying To Live (01:00)
04. Dying To Live Demo (04:11)
05. Intro For Beyond The Sun (01:29)
06. Beyond The Sun Handheld Recordings (02:49)
07. Intro For Shine (02:01)
08. Shine Demo (05:30)
09. Weird Bit From Handheld (00:36)

Продолжительность: 00:46:11
Код:
Exact Audio Copy V1.0 beta 4 from 7. December 2014

EAC extraction logfile from 19. December 2014, 17:00

Neal Morse / The Transatlantic Kaleidoscope Demos Part 1

Used drive  : LITE-ON DVDRW LH-20A1L   Adapter: 5  ID: 0

Read mode               : Secure
Utilize accurate stream : Yes
Defeat audio cache      : Yes
Make use of C2 pointers : No

Read offset correction                      : 6
Overread into Lead-In and Lead-Out          : No
Fill up missing offset samples with silence : Yes
Delete leading and trailing silent blocks   : No
Null samples used in CRC calculations       : Yes
Used interface                              : Installed external ASPI interface

Used output format : Internal WAV Routines
Sample format      : 44.100 Hz; 16 Bit; Stereo

TOC of the extracted CD

     Track |   Start  |  Length  | Start sector | End sector
    ---------------------------------------------------------
        1  |  0:00.00 |  3:30.52 |         0    |    15801
        2  |  3:30.52 | 25:05.30 |     15802    |   128706
        3  | 28:36.07 |  1:00.28 |    128707    |   133234
        4  | 29:36.35 |  4:10.40 |    133235    |   152024
        5  | 33:47.00 |  1:28.62 |    152025    |   158686
        6  | 35:15.62 |  2:49.09 |    158687    |   171370
        7  | 38:04.71 |  2:00.50 |    171371    |   180420
        8  | 40:05.46 |  5:31.40 |    180421    |   205285
        9  | 45:37.11 |  0:34.04 |    205286    |   207839

Range status and errors

Selected range

     Filename Z:\data\hexonut\Seeding\Transatlantic\Neal Morse-2014-The Transatlantic Kaleidoscope Demos Part 1\Kaleidoscope Demos Part 1.wav

     Peak level 75.6 %
     Extraction speed 8.6 X
     Range quality 99.9 %
     Test CRC F92758DE
     Copy CRC F92758DE
     Copy OK

No errors occurred

AccurateRip summary

Track  1  accurately ripped (confidence 1)  [6762B9C9]  (AR v2)
Track  2  accurately ripped (confidence 1)  [A26DC333]  (AR v2)
Track  3  accurately ripped (confidence 1)  [1446ADC5]  (AR v2)
Track  4  accurately ripped (confidence 1)  [9C09C0AE]  (AR v2)
Track  5  accurately ripped (confidence 1)  [7922B5A1]  (AR v2)
Track  6  accurately ripped (confidence 1)  [C36E53FD]  (AR v2)
Track  7  accurately ripped (confidence 1)  [BF198C77]  (AR v2)
Track  8  accurately ripped (confidence 1)  [83EF3158]  (AR v2)
Track  9  accurately ripped (confidence 1)  [1C1BF692]  (AR v2)

All tracks accurately ripped

End of status report

==== Log checksum F9F0E1A2B0C4C01E9212823CBD03FE646C5F6FABB4FFFD97CE897FA24E403C63 ====
#777Лейбл: Radiant Records
Страна-производитель диска: США
Год издания диска: 2014
Номер по каталогу: -

Neal Morse - 2014 - The Transatlantic Kaleidoscope Demos Part 2

01. Introduction (03:01)
02. TA Kaleidoscope Demo #4 (16:57)
03. Intro for How We Fly (01:11)
04. How We Fly Demo (03:38)
05. Intro for Sad Theme (01:25)
06. Working on Sad Theme (01:37)
07. Intro for TA Demo #5 (03:09)
08. TA Kaleidoscope Demo #5 (18:58)

Продолжительность: 00:49:57
Код:
Exact Audio Copy V1.0 beta 4 from 7. December 2014

EAC extraction logfile from 19. December 2014, 17:00

Neal Morse / The Transatlantic Kaleidoscope Demos Part 2

Used drive  : PLEXTOR CD-R   PX-240A   Adapter: 6  ID: 0

Read mode               : Secure
Utilize accurate stream : Yes
Defeat audio cache      : Yes
Make use of C2 pointers : No

Read offset correction                      : 6
Overread into Lead-In and Lead-Out          : No
Fill up missing offset samples with silence : Yes
Delete leading and trailing silent blocks   : No
Null samples used in CRC calculations       : Yes
Used interface                              : Installed external ASPI interface

Used output format : Internal WAV Routines
Sample format      : 44.100 Hz; 16 Bit; Stereo

TOC of the extracted CD

     Track |   Start  |  Length  | Start sector | End sector
    ---------------------------------------------------------
        1  |  0:00.00 |  3:03.12 |         0    |    13736
        2  |  3:03.12 | 16:56.58 |     13737    |    89994
        3  | 19:59.70 |  1:11.32 |     89995    |    95351
        4  | 21:11.27 |  3:38.31 |     95352    |   111732
        5  | 24:49.58 |  1:25.03 |    111733    |   118110
        6  | 26:14.61 |  1:36.67 |    118111    |   125377
        7  | 27:51.53 |  3:09.04 |    125378    |   139556
        8  | 31:00.57 | 18:56.14 |    139557    |   224770

Range status and errors

Selected range

     Filename Z:\data\hexonut\Seeding\Transatlantic\Neal Morse-2014-The Transatlantic Kaleidoscope Demos Part 2\Kaleidoscope Demos Part 2.wav

     Peak level 76.4 %
     Extraction speed 8.9 X
     Range quality 99.9 %
     Test CRC 5CC9D3BD
     Copy CRC 5CC9D3BD
     Copy OK

No errors occurred

AccurateRip summary

Track  1  not present in database
Track  2  not present in database
Track  3  not present in database
Track  4  not present in database
Track  5  not present in database
Track  6  not present in database
Track  7  not present in database
Track  8  not present in database

None of the tracks are present in the AccurateRip database

End of status report

==== Log checksum 9BB9B6D98DEF21033FF78A426C81000824FEF3A28C830D0907C3A80EF47BCF4B ====
загрузка...
Правила, инструкции, FAQ!!!
Торрент  Добавлен [02 сен 2016, 00:07] Скачать торрент Магнет ссылка
Скачать торрент
[ Размер 388.6 КБ / Просмотров 10 ]

Статус
Проверен 
 
Размер  16.76 ГБ
Приватный: Нет (DHT включён)
.torrent скачан  2
Как залить торрент? | Как скачать Torrent? | Как смотреть и слушать онлайн?  


     Отправить личное сообщение
   
Страница 1 из 1
Показать сообщения за:  Поле сортировки  
Начать новую тему Ответить на тему

   Похожие торренты   Автор   Ответы   Просмотры   Последнее сообщение 
В этой теме нет новых непрочитанных сообщений. Скачать торрент Проверен (Progressive Rock) Transatlantic (with Dream Theater, The Flower Kings, Spock's Beard) - Дискография 2000-2014 (15 релизов), MP3, 320 kbps

в форуме Progressive & Art-Rock, Размер: 4.94 ГБ, Здоровье: 100%

Anonymous

0
13|4

15
1

30 сен 2017, 22:31

Anonymous Перейти к последнему сообщению

В этой теме нет новых непрочитанных сообщений. Скачать торрент Проверен (Classic Rock, Hard Rock, Progressive Rock) Flying Colors (ex-Alpha Rev, Deep Purple, Dixie Dregs, Dream Theater, Spock's Beard, Transatlantic) - Дискография (2012-2015), 11 релизов, 12 CD, 1 web-релиз - FLAC (image+.cue, tracks), lossless

в форуме Classic Rock & Hard Rock, Размер: 4.44 ГБ, Здоровье: 100%

Anonymous

0
21|7

47
4

05 сен 2016, 20:31

Anonymous Перейти к последнему сообщению

В этой теме нет новых непрочитанных сообщений. Скачать торрент Проверен (Progressive Rock/Hard Rock) Morse Portnoy George (ex-Spock’s Beard, Dream Theater, Ajalon) - Cover To Cover - 2006, FLAC (tracks+.cue), lossless

в форуме Progressive & Art-Rock, Размер: 440.57 МБ, Здоровье: 100%

Anonymous

0
6|2

25
3

01 сен 2016, 12:52

Anonymous Перейти к последнему сообщению

В этой теме нет новых непрочитанных сообщений. Скачать торрент Проверен (Progressive Rock/Hard Rock) Morse Portnoy George (ex-Spock’s Beard, Dream Theater, Ajalon) - Cover 2 Cover - 2012, FLAC (tracks+.cue), lossless

в форуме Progressive & Art-Rock, Размер: 470.93 МБ, Здоровье: 100%

Anonymous

0
10|3

21
3

01 сен 2016, 19:53

Anonymous Перейти к последнему сообщению

В этой теме нет новых непрочитанных сообщений. Скачать торрент Проверен (Progressive Rock) 41Point9 - Still looking for answers (Ex: Spock's Beard, Enchant) - 2011, MP3, 320 kbps

в форуме Progressive & Art-Rock, Размер: 130.45 МБ, Здоровье: 0%

Anonymous

0
0|0

0
0

23 сен 2017, 21:59

Anonymous Перейти к последнему сообщению



Сейчас этот форум просматривают: нет зарегистрированных пользователей и гости: 1


Вы не можете начинать темы
Вы не можете отвечать на сообщения
Вы не можете редактировать свои сообщения
Вы не можете удалять свои сообщения
Вы не можете добавлять вложения

Перейти:  

!ВНИМАНИЕ!
 Ресурс не предоставляет электронные версии произведений, а занимается лишь коллекционированием и каталогизацией ссылок, присылаемых и публикуемых на форуме нашими читателями. Если вы являетесь правообладателем какого-либо представленного материала и не желаете чтобы ссылка на него находилась в нашем каталоге, свяжитесь с нами и мы незамедлительно удалим её. Файлы для обмена на трекере предоставлены пользователями сайта, и администрация не несёт ответственности за их содержание. Просьба не заливать файлы, защищенные авторскими правами, а также файлы нелегального содержания!