На всех торрентах на трекере установлена скидка на скачивание в размере 100 процентов(а).
 Возможность скачивания торрента НЕ зависит от ограничений при низком ратио, низком аплоаде, требуемом ратио или требуемом аплоаде.


Начать новую тему Ответить на тему
Статистика раздачи
Размер: 2.48 ГБ | Добавлен: 25 авг 2016, 21:56 | Скачали: 0
Сидеров: 1  [0 байт/сек]    Личеров: 0  [0 байт/сек]
Пред. тема | След. тема 

Автор
Сообщение

СообщениеДобавлено: 25 авг 2016, 21:56 

Ответить с цитатой 

TransAtlantic - SMPTe (2000)

Жанр: Prog Rock
Носитель: LP, Limited Edition, Purple
Год выпуска: 2010
Лейбл: Inside Out Music - 0505390
Страна-производитель: Germany
Аудио кодек: FLAC
Тип рипа: tracks+.cue
Формат записи: 24/96
Формат раздачи: 24/96
Продолжительность: 01:55:12
SMPTe

Side 1

All Of The Above Pt. 1 - 30:59

A-1 - I. Full Moon Rising
A-2 - II. October Winds

Side 2

All Of The Above Pt. 2

B-1 - III. Camouflaged In Blue
B-2 - IV. Half Alive
B-3 - V. Undying Love
B-4 - VI. Full Moon Rising (Reprise)

Side 3

C-1 - We All Need Some Light - 5:45
C-2 - My New World - 16:16

Side 4

D-1 - Mystery Train - 6:52
D-2 - In Held (Twas) In I 17:21
Arranged By - Portnoy, Morse, Trewavas, Stolt / Written-By - Brooker, Reid, Fisher

Bonus LP

Side 5

E-1 - My New World Pt. 1 (Alternative Take, Neal Lead, Different Lyrics)
E-2 - My New World Pt. 2 (Alternative Take, Neal Lead, Different Lyrics)
E-3 - We All Need Some Light (Roine Lead Vocals, Alternative Mix)

Side 6

F-1 - Honky Tonk Woman (Studio Jam)
F-2 - Oh Darlin' (Studio Jam)
F-3 - My Cruel World (Original Demo)
Credits

Artwork By [Front Cover Bryce Art] - Per Nordin
Bass [Warwick], Synthesizer [Moog Taurus Pedals], Voice - Pete Trewavas
Design [Booklet] - Hippified Art
Drums [Drumkit], Voice - Mike Portnoy
Electric Guitar, Acoustic Guitar [12str.], Mellotron, Percussion, Voice - Roine Stolt
Engineer - Chris Cubeta
Engineer [Pete's Overdubs] - Stewart Every
Lead Vocals [Lead Voice], Keyboards, Acoustic Guitar, Electric Guitar [Additional] - Neal Morse
Mastered By - Vlado Meller
Mixed By - Rich Mouser
Photography - Michael Hoerner
Producer - TransAtlantic
Recorded By [Neal's Additional Recording] - Neal
Recorded By [Roine's Additional Recordings] - Dex
Vinyl Release Concept And Coordination By - Philipp Schulte

Notes

Translucent purple vinyl limited to 300 of 1000 copies
180g Pressing

Barcode and Other Identifiers

Barcode: 5052205053904
Источник оцифровки: третьим лицом
Код класса состояния винила: Ex
Устройство воспроизведения: Clearaudio Champion Level II
Головка звукоснимателя: Sumiko Black Bird
Предварительный усилитель: Pro-Ject Phono Box RS
АЦП: RME Fireface UC
Программа-оцифровщик: Adobe Audition CS 5.5
Обработка: Light de-clicking with iZotope
Доп. информация:
———————————————————————————————-
Analyzed folder: /96kTr_SMPTE/96k Transatlantic - SMPTe
———————————————————————————————-
DR Peak RMS Filename
———————————————————————————————-
DR13 -0.47 dB -15.07 dB A All Of The Above Pt. 1.wav
DR12 -0.81 dB -16.31 dB B All Of The Above Pt. 2.wav
DR11 -0.98 dB -16.47 dB C1 We All Need Some Light.wav
DR12 -0.55 dB -14.74 dB C2 My New World.wav
DR12 -0.39 dB -13.97 dB D1 Mystery Train.wav
DR12 -0.47 dB -15.37 dB D2 In Held (Twas) In I.wav
DR12 -0.78 dB -15.61 dB E1 My New World Pt. 1 (Alternative Take, Neal Lead, Different Lyrics).wav
DR13 -1.36 dB -15.87 dB E2 My New World Pt. 2 (Alternative Take, Neal Lead, Different Lyrics).wav
DR12 -0.84 dB -16.97 dB E3 We All Need Some Light (Roine Lead Vocals, Alternative Mix).wav
DR13 -1.48 dB -17.21 dB F1 Honky Tonk Woman (Studio Jam).wav
DR13 -1.47 dB -18.49 dB F2 Oh Darlin’ (Studio Jam).wav
DR11 -0.78 dB -13.97 dB F3 My Cruel World (Original Demo).wav
———————————————————————————————-
Number of files: 12
Official DR value: DR12
==============================================================================================
загрузка...
Правила, инструкции, FAQ!!!
Торрент  Добавлен [25 авг 2016, 21:56] Скачать торрент Магнет ссылка
Скачать торрент
[ Размер 14.84 КБ / Просмотров 1 ]

Статус
Проверен 
 
Размер  2.48 ГБ
Приватный: Нет (DHT включён)
.torrent скачан  0
Как залить торрент? | Как скачать Torrent? | Как смотреть и слушать онлайн?  


     Отправить личное сообщение
   
Страница 1 из 1
Показать сообщения за:  Поле сортировки  
Начать новую тему Ответить на тему

   Похожие торренты   Автор   Ответы   Просмотры   Последнее сообщение 
В этой теме нет новых непрочитанных сообщений. Скачать торрент Проверен (Progressive Rock) [LP][24/192] Transatlantic - SMPTe (2000), Bridge Across Forever (2001), The Whirlwind (2009), FLAC (image+.cue)

в форуме Зарубежный рок (оцифровки), Размер: 14.8 ГБ, Здоровье: ???%

Anonymous

0
0|3

20
1

25 авг 2016, 14:51

Anonymous Перейти к последнему сообщению

В этой теме нет новых непрочитанных сообщений. Скачать торрент Проверен (Prog Rock) [3LP] [24/96] Transatlantic - Kaleidoscope - 2014, FLAC (tracks+.cue)

в форуме Зарубежный рок (оцифровки), Размер: 2.47 ГБ, Здоровье: 100%

Anonymous

0
7|1

10
1

27 авг 2016, 11:57

Anonymous Перейти к последнему сообщению

В этой теме нет новых непрочитанных сообщений. Скачать торрент Проверен (Progressive rock) Transatlantic - 12 bootlegs 2000-2001, FLAC (tracks), lossless

в форуме Progressive & Art-Rock, Размер: 8.7 ГБ, Здоровье: 0%

Anonymous

0
0|0

11
0

30 авг 2016, 23:33

Anonymous Перейти к последнему сообщению

В этой теме нет новых непрочитанных сообщений. Скачать торрент Проверен [ADVD][OF] Transatlantic - Kaleidoscope - 2014 (Symphonic Prog, Progressive Rock)

в форуме DTS CD / SACD-R, Размер: 4.17 ГБ, Здоровье: 100%

Anonymous

0
66|5

24
2

28 окт 2016, 22:42

Anonymous Перейти к последнему сообщению

В этой теме нет новых непрочитанных сообщений. Скачать торрент Проверен Transatlantic - KaLiVEoscope [2014, Symphonic Prog / Progressive Rock, BDRip 720p]

в форуме Концерты (HD-Video), Размер: 6.56 ГБ, Здоровье: 100%

Anonymous

0
1|0

5
0

23 окт 2016, 12:56

Anonymous Перейти к последнему сообщению



Сейчас этот форум просматривают: нет зарегистрированных пользователей и гости: 1


Вы не можете начинать темы
Вы не можете отвечать на сообщения
Вы не можете редактировать свои сообщения
Вы не можете удалять свои сообщения
Вы не можете добавлять вложения


!ВНИМАНИЕ!
 Ресурс не предоставляет электронные версии произведений, а занимается лишь коллекционированием и каталогизацией ссылок, присылаемых и публикуемых на форуме нашими читателями. Если вы являетесь правообладателем какого-либо представленного материала и не желаете чтобы ссылка на него находилась в нашем каталоге, свяжитесь с нами и мы незамедлительно удалим её. Файлы для обмена на трекере предоставлены пользователями сайта, и администрация не несёт ответственности за их содержание. Просьба не заливать файлы, защищенные авторскими правами, а также файлы нелегального содержания!