На всех торрентах на трекере установлена скидка на скачивание в размере 100 процентов(а).
 Возможность скачивания торрента НЕ зависит от ограничений при низком ратио, низком аплоаде, требуемом ратио или требуемом аплоаде.


Начать новую тему Ответить на тему
Статистика раздачи
Размер: 20.22 ГБ | Добавлен: 15 ноя 2015, 23:54 | Скачали: 56
Сидеров: 17  [0 байт/сек]    Личеров: 10  [0 байт/сек]
Пред. тема | След. тема 

Автор
Сообщение

СообщениеДобавлено: 15 ноя 2015, 23:54 

Ответить с цитатой 





Информация о фильме
Название: Проект А
Оригинальное название: «A» Gai Wak
Год выхода: 1983
Страна: Гонконг
Студия: Authority Films, Golden Harvest Company Ltd., Paragon Films Ltd.
Жанр: Боевик, комедия
Продолжительность: 01:45:20
Перевод: Профессиональный (двухголосый закадровый), R5
Перевод: Профессиональный (двухголосый закадровый), НТВ
Перевод: Авторский (одноголосый закадровый), Ю. Живов
Перевод: Профессиональный (одноголосый закадровый), Стилан-Видео
Перевод: Авторский (одноголосый закадровый), А. Михалёв
Оригинальная аудиодорожка: Китайский
Субтитры: Русские, английские

Режиссер: Джеки Чан, Саммо Хунг

В ролях: Джеки Чан, Саммо Хунг, Юэнь Бяо, Дик Вэй, Марс, Винни Вонг, По Тай, Ву Лонг Чунг, Хой Сан Ли, Хой-Шан Кван, Вай Вон, Фэт Ван, Уинг Мэн Куэнь, Хо Кай Ло, Харк-Сун Лау, Ма Ву, Юн Кин Чоу

О фильме: Гонконг конца ХIХ века. На китайском море свирепствуют пираты под предводительством зловещего Ло. Все свои надежды правительство возлагает на специально разработанный план борьбы с пиратами под кодовым названием «Проект А». Но Ло всегда на шаг опережает власти, подрывает их корабли, и «проект» оказывается под угрозой срыва. Его выполнение берут на себя борец береговой охраны по кличке «Дракон» и его товарищи…

Фильм снимался в течение 2-х лет.
В результате падения с часовой башни Чан получил повреждение позвоночника, растяжение связок шеи, а также повредил горло. Снова сломаны нос и пальцы рук.
Дублей было 3 и все они вошли в фильм.
Джеки с командой обучался строевой подготовке и умению правильно маршировать в Королевской Гонконгской Морской Полицейской Корпорации.


Файл
Качество: BDRip 1080p
Формат: MKV
Видео кодек: H264
Аудио кодек: AC3, DTS
Видео: MPEG4 Video (H264), 1920x816, 23.976fps, 11.0 Mbps
Аудио #01: Русский: Dolby AC3, 48000 Hz, 6ch, 384 kbps - Двухголосый, R5
Аудио #02: Русский: Dolby AC3, 48000 Hz, 2ch, 224 kbps - Двухголосый, НТВ
Аудио #03: Русский: Dolby AC3, 48000 Hz, 2ch, 192 kbps - Одноголосый, Ю. Живов
Аудио #04: Русский: Dolby AC3, 48000 Hz, 2ch, 192 kbps - Одноголосый, Стилан-Видео
Аудио #05: Русский: Dolby AC3, 48000 Hz, 2ch, 192 kbps - Одноголосый, А. Михалёв
Аудио #06: Китайский: DTS, 48000 Hz, 6ch, 1536 kbps
Формат субтитров: Softsub (SRT)

Сэмпл

General
Unique ID : 185086510975305739214017696552910170774 (0x8B3E5D89799014C0AB4F4AF74C6DAA96)
Complete name : F:Torrent 2Project.A.1-2.renta231983 Проект А.mkv
Format : Matroska
Format version : Version 4 / Version 2
File size : 10.1 GiB
Duration : 1h 45mn
Overall bit rate : 13.7 Mbps
Movie name : 1983 Проект А / renta23
Encoded date : UTC 2015-11-12 16:25:52
Writing application : mkvmerge v8.3.0 ('Over the Horizon') 64bit
Writing library : libebml v1.3.1 + libmatroska v1.4.2
DURATION : 01:45:11.147000000
NUMBER_OF_FRAMES : 591670
NUMBER_OF_BYTES : 1190440480
_STATISTICS_WRITING_APP : mkvmerge v8.3.0 ('Over the Horizon') 64bit
_STATISTICS_WRITING_DATE_UTC : 2015-11-12 16:25:52
_STATISTICS_TAGS : BPS DURATION NUMBER_OF_FRAMES NUMBER_OF_BYTES

Video
ID : 1
Format : AVC
Format/Info : Advanced Video Codec
Format profile : High@L4.1
Format settings, CABAC : Yes
Format settings, ReFrames : 4 frames
Codec ID : V_MPEG4/ISO/AVC
Duration : 1h 45mn
Bit rate : 11.0 Mbps
Width : 1 920 pixels
Height : 816 pixels
Display aspect ratio : 2.35:1
Frame rate mode : Constant
Frame rate : 23.976 fps
Color space : YUV
Chroma subsampling : 4:2:0
Bit depth : 8 bits
Scan type : Progressive
Bits/(Pixel*Frame) : 0.293
Stream size : 7.89 GiB (78%)
Title : 1983 Проект А
Writing library : x264 core 146 r2538 121396c
Encoding settings : cabac=1 / ref=4 / deblock=1:-1:-1 / analyse=0x3:0x133 / me=umh / subme=11 / psy=1 / psy_rd=1.11:0.23 / mixed_ref=1 / me_range=32 / chroma_me=1 / trellis=2 / 8x8dct=1 / cqm=0 / deadzone=21,11 / fast_pskip=0 / chroma_qp_offset=-3 / threads=12 / lookahead_threads=3 / sliced_threads=0 / nr=0 / decimate=1 / interlaced=0 / bluray_compat=0 / constrained_intra=0 / bframes=12 / b_pyramid=2 / b_adapt=2 / b_bias=0 / direct=3 / weightb=1 / open_gop=0 / weightp=2 / keyint=250 / keyint_min=23 / scenecut=40 / intra_refresh=0 / rc_lookahead=50 / rc=2pass / mbtree=1 / bitrate=11000 / ratetol=1.0 / qcomp=0.60 / qpmin=0 / qpmax=69 / qpstep=4 / cplxblur=20.0 / qblur=0.5 / ip_ratio=1.40 / aq=1:1.00
Language : English
Default : Yes
Forced : No

Audio #1
ID : 2
Format : AC-3
Format/Info : Audio Coding 3
Mode extension : CM (complete main)
Format settings, Endianness : Big
Codec ID : A_AC3
Duration : 1h 45mn
Bit rate mode : Constant
Bit rate : 384 Kbps
Channel(s) : 6 channels
Channel positions : Front: L C R, Side: L R, LFE
Sampling rate : 48.0 KHz
Compression mode : Lossy
Stream size : 289 MiB (3%)
Title : Двухголосый, R5
Language : Russian
Default : Yes
Forced : No

Audio #2
ID : 3
Format : AC-3
Format/Info : Audio Coding 3
Mode extension : CM (complete main)
Format settings, Endianness : Big
Codec ID : A_AC3
Duration : 1h 45mn
Bit rate mode : Constant
Bit rate : 224 Kbps
Channel(s) : 2 channels
Channel positions : Front: L R
Sampling rate : 48.0 KHz
Compression mode : Lossy
Stream size : 169 MiB (2%)
Title : Двухголосый, НТВ
Language : Russian
Default : No
Forced : No

Audio #3
ID : 4
Format : AC-3
Format/Info : Audio Coding 3
Mode extension : CM (complete main)
Format settings, Endianness : Big
Codec ID : A_AC3
Duration : 1h 45mn
Bit rate mode : Constant
Bit rate : 192 Kbps
Channel(s) : 2 channels
Channel positions : Front: L R
Sampling rate : 48.0 KHz
Compression mode : Lossy
Stream size : 145 MiB (1%)
Title : Одноголосый, Ю. Живов
Language : Russian
Default : No
Forced : No

Audio #4
ID : 5
Format : AC-3
Format/Info : Audio Coding 3
Mode extension : CM (complete main)
Format settings, Endianness : Big
Codec ID : A_AC3
Duration : 1h 45mn
Bit rate mode : Constant
Bit rate : 192 Kbps
Channel(s) : 2 channels
Channel positions : Front: L R
Sampling rate : 48.0 KHz
Compression mode : Lossy
Stream size : 145 MiB (1%)
Title : Одноголосый, Стилан-Видео
Language : Russian
Default : No
Forced : No

Audio #5
ID : 6
Format : AC-3
Format/Info : Audio Coding 3
Mode extension : CM (complete main)
Format settings, Endianness : Big
Codec ID : A_AC3
Duration : 1h 45mn
Bit rate mode : Constant
Bit rate : 192 Kbps
Channel(s) : 2 channels
Channel positions : Front: L R
Sampling rate : 48.0 KHz
Compression mode : Lossy
Stream size : 145 MiB (1%)
Title : Одноголосый, А. Михалёв
Language : Russian
Default : No
Forced : No

Audio #6
ID : 7
Format : DTS
Format/Info : Digital Theater Systems
Mode : 16
Format settings, Endianness : Big
Codec ID : A_DTS
Duration : 1h 45mn
Bit rate mode : Constant
Bit rate : 1 509 Kbps
Channel(s) : 6 channels
Channel positions : Front: L C R, Side: L R, LFE
Sampling rate : 48.0 KHz
Bit depth : 16 bits
Compression mode : Lossy
Stream size : 1.11 GiB (11%)
Language : Chinese
Default : No
Forced : No

Text #1
ID : 8
Format : UTF-8
Codec ID : S_TEXT/UTF8
Codec ID/Info : UTF-8 Plain Text
Language : Russian
Default : No
Forced : No

Text #2
ID : 9
Format : UTF-8
Codec ID : S_TEXT/UTF8
Codec ID/Info : UTF-8 Plain Text
Language : Russian
Default : No
Forced : No

Text #3
ID : 10
Format : UTF-8
Codec ID : S_TEXT/UTF8
Codec ID/Info : UTF-8 Plain Text
Language : English
Default : No
Forced : No

Menu
00:00:00.000 : en:Chapter 01
00:04:19.008 : en:Chapter 02
00:10:01.350 : en:Chapter 03
00:14:21.402 : en:Chapter 04
00:21:50.642 : en:Chapter 05
00:25:18.350 : en:Chapter 06
00:31:13.997 : en:Chapter 07
00:36:38.613 : en:Chapter 08
00:39:22.902 : en:Chapter 09
00:46:23.655 : en:Chapter 10
00:50:34.990 : en:Chapter 11
00:56:44.859 : en:Chapter 12
01:03:19.253 : en:Chapter 13
01:06:13.636 : en:Chapter 14
01:11:16.730 : en:Chapter 15
01:16:17.322 : en:Chapter 16
01:22:30.487 : en:Chapter 17
01:28:29.512 : en:Chapter 18
01:32:33.297 : en:Chapter 19
01:42:00.572 : en:Chapter 20








Информация о фильме
Название: Проект А: Часть 2
Оригинальное название: «A» Gai Waak II / Project A II
Год выхода: 1987
Страна: США, Гонконг
Студия: Golden Way Films Ltd., Paragon Films Ltd.
Жанр: Боевик, комедия
Продолжительность: 01:46:02

Перевод: Профессиональный (двухголосый закадровый), R5
Перевод: Профессиональный (двухголосый закадровый), НТВ
Перевод: Авторский (одноголосый закадровый), Ю. Живов
Перевод: Авторский (одноголосый закадровый), С. Визгунов
Перевод: Профессиональный (одноголосый закадровый), Стилан-Видео
Оригинальная аудиодорожка: Китайский
Субтитры: Русские, английские
Режиссер: Джеки Чан

В ролях: Джеки Чан, Мэгги Чун, Розамунд Кван, Карина Лау, Дэвид Лам, Билл Тун, Сэм Луи, Реджина Кент, Йиу Лам Чан, Кенни Хо, Крис Ли, Бен Лам, Джон Чунг, Вай-Ман Чан
О фильме: Отважный дракон Ма, прославившийся благодаря уничтожению пиратского гнезда на китайском море, получает новое назначение — его делают начальником округа. Основная причина этого назначения состоит в том, что власти сомневаются в чистоплотности его предшественника Чуна, как оказывается впоследствии, напрасно. В результате мастерски выполненной подставки дракон попадает в тюрьму. Теперь доказать свою невиновность он может только разоблачив Чуна…
Первоначальная версия фильма разительно отличалась от той, которую мы имеем возможность смотреть сейчас. Ее видели лишь в Японии на предварительных просмотрах.
Перец, который Джеки Чан разжевывает и использует как оружие против нападающих, был настоящим. Предполагалось использовать бутафорский перец, но он не был вовремя изготовлен отделом, отвечающим за реквизит.
Каскадер Энтони Карпио, принимавший участие в съемках картины, рассказывает в своем интервью на DVD серии «Легенды Гонконга», что в некоторых трюках Джеки Чана дублирует Марс.


Файл
Качество: BDRip 1080p
Формат: MKV
Видео кодек: H264
Аудио кодек: AC3, DTS
Видео: MPEG4 Video (H264), 1920x816, 23.976fps, 11.0 Mbps
Аудио #01: Русский: Dolby AC3, 48000 Hz, 6ch, 384 kbps - Двухголосый, R5
Аудио #02: Русский: Dolby AC3, 48000 Hz, 2ch, 192 kbps - Двухголосый, НТВ
Аудио #03: Русский: Dolby AC3, 48000 Hz, 2ch, 192 kbps - Одноголосый, Ю. Живов
Аудио #04: Русский: Dolby AC3, 48000 Hz, 2ch, 224 kbps - Одноголосый, С. Визгунов
Аудио #05: Русский: Dolby AC3, 48000 Hz, 2ch, 192 kbps - Одноголосый, Стилан-Видео
Аудио #06: Китайский: DTS, 48000 Hz, 6ch, 1536 kbps
Формат субтитров: Softsub (SRT)

Сэмпл

General
Unique ID : 247559158727821190668112697671514018483 (0xBA3E28E0CBE7570193469479164B52B3)
Complete name : F:Torrent 2Project.A.1-2.renta231987 Проект А 2.mkv
Format : Matroska
Format version : Version 4 / Version 2
File size : 10.1 GiB
Duration : 1h 46mn
Overall bit rate : 13.7 Mbps
Movie name : 1987 Проект А: Часть 2 / renta23
Encoded date : UTC 2015-11-12 16:00:30
Writing application : mkvmerge v8.3.0 ('Over the Horizon') 64bit
Writing library : libebml v1.3.1 + libmatroska v1.4.2
DURATION : 01:45:53.899000000
NUMBER_OF_FRAMES : 595678
NUMBER_OF_BYTES : 1198504136
_STATISTICS_WRITING_APP : mkvmerge v8.3.0 ('Over the Horizon') 64bit
_STATISTICS_WRITING_DATE_UTC : 2015-11-12 16:00:30
_STATISTICS_TAGS : BPS DURATION NUMBER_OF_FRAMES NUMBER_OF_BYTES

Video
ID : 1
Format : AVC
Format/Info : Advanced Video Codec
Format profile : High@L4.1
Format settings, CABAC : Yes
Format settings, ReFrames : 4 frames
Codec ID : V_MPEG4/ISO/AVC
Duration : 1h 46mn
Bit rate : 11.0 Mbps
Width : 1 920 pixels
Height : 816 pixels
Display aspect ratio : 2.35:1
Frame rate mode : Constant
Frame rate : 23.976 fps
Color space : YUV
Chroma subsampling : 4:2:0
Bit depth : 8 bits
Scan type : Progressive
Bits/(Pixel*Frame) : 0.293
Stream size : 7.95 GiB (78%)
Title : 1987 Проект А: Часть 2
Writing library : x264 core 146 r2538 121396c
Encoding settings : cabac=1 / ref=4 / deblock=1:-1:-1 / analyse=0x3:0x133 / me=umh / subme=11 / psy=1 / psy_rd=1.11:0.23 / mixed_ref=1 / me_range=32 / chroma_me=1 / trellis=2 / 8x8dct=1 / cqm=0 / deadzone=21,11 / fast_pskip=0 / chroma_qp_offset=-3 / threads=12 / lookahead_threads=3 / sliced_threads=0 / nr=0 / decimate=1 / interlaced=0 / bluray_compat=0 / constrained_intra=0 / bframes=12 / b_pyramid=2 / b_adapt=2 / b_bias=0 / direct=3 / weightb=1 / open_gop=0 / weightp=2 / keyint=250 / keyint_min=23 / scenecut=40 / intra_refresh=0 / rc_lookahead=50 / rc=2pass / mbtree=1 / bitrate=11000 / ratetol=1.0 / qcomp=0.60 / qpmin=0 / qpmax=69 / qpstep=4 / cplxblur=20.0 / qblur=0.5 / ip_ratio=1.40 / aq=1:1.00
Language : English
Default : Yes
Forced : No

Audio #1
ID : 2
Format : AC-3
Format/Info : Audio Coding 3
Mode extension : CM (complete main)
Format settings, Endianness : Big
Codec ID : A_AC3
Duration : 1h 46mn
Bit rate mode : Constant
Bit rate : 384 Kbps
Channel(s) : 6 channels
Channel positions : Front: L C R, Side: L R, LFE
Sampling rate : 48.0 KHz
Compression mode : Lossy
Stream size : 291 MiB (3%)
Title : Двухголосый, R5
Language : Russian
Default : Yes
Forced : No

Audio #2
ID : 3
Format : AC-3
Format/Info : Audio Coding 3
Mode extension : CM (complete main)
Format settings, Endianness : Big
Codec ID : A_AC3
Duration : 1h 46mn
Bit rate mode : Constant
Bit rate : 192 Kbps
Channel(s) : 2 channels
Channel positions : Front: L R
Sampling rate : 48.0 KHz
Compression mode : Lossy
Stream size : 146 MiB (1%)
Title : Двухголосый, НТВ
Language : Russian
Default : No
Forced : No

Audio #3
ID : 4
Format : AC-3
Format/Info : Audio Coding 3
Mode extension : CM (complete main)
Format settings, Endianness : Big
Codec ID : A_AC3
Duration : 1h 46mn
Bit rate mode : Constant
Bit rate : 192 Kbps
Channel(s) : 2 channels
Channel positions : Front: L R
Sampling rate : 48.0 KHz
Compression mode : Lossy
Stream size : 146 MiB (1%)
Title : Одноголосый, Ю. Живов
Language : Russian
Default : No
Forced : No

Audio #4
ID : 5
Format : AC-3
Format/Info : Audio Coding 3
Mode extension : CM (complete main)
Format settings, Endianness : Big
Codec ID : A_AC3
Duration : 1h 46mn
Bit rate mode : Constant
Bit rate : 224 Kbps
Channel(s) : 2 channels
Channel positions : Front: L R
Sampling rate : 48.0 KHz
Compression mode : Lossy
Stream size : 170 MiB (2%)
Title : Одноголосый, С. Визгунов
Language : Russian
Default : No
Forced : No

Audio #5
ID : 6
Format : AC-3
Format/Info : Audio Coding 3
Mode extension : CM (complete main)
Format settings, Endianness : Big
Codec ID : A_AC3
Duration : 1h 46mn
Bit rate mode : Constant
Bit rate : 192 Kbps
Channel(s) : 2 channels
Channel positions : Front: L R
Sampling rate : 48.0 KHz
Compression mode : Lossy
Stream size : 146 MiB (1%)
Title : Одноголосый, Стилан-Видео
Language : Russian
Default : No
Forced : No

Audio #6
ID : 7
Format : DTS
Format/Info : Digital Theater Systems
Mode : 16
Format settings, Endianness : Big
Codec ID : A_DTS
Duration : 1h 46mn
Bit rate mode : Constant
Bit rate : 1 509 Kbps
Channel(s) : 6 channels
Channel positions : Front: L C R, Side: L R, LFE
Sampling rate : 48.0 KHz
Bit depth : 16 bits
Compression mode : Lossy
Stream size : 1.12 GiB (11%)
Language : Chinese
Default : No
Forced : No

Text #1
ID : 8
Format : UTF-8
Codec ID : S_TEXT/UTF8
Codec ID/Info : UTF-8 Plain Text
Language : Russian
Default : No
Forced : No

Text #2
ID : 9
Format : UTF-8
Codec ID : S_TEXT/UTF8
Codec ID/Info : UTF-8 Plain Text
Language : English
Default : No
Forced : No

Menu
00:00:00.000 : en:Chapter 01
00:07:27.321 : en:Chapter 02
00:15:49.365 : en:Chapter 03
00:21:06.556 : en:Chapter 04
00:25:52.342 : en:Chapter 05
00:31:03.903 : en:Chapter 06
00:36:01.701 : en:Chapter 07
00:40:50.406 : en:Chapter 08
00:46:14.646 : en:Chapter 09
00:50:54.676 : en:Chapter 10
00:56:27.842 : en:Chapter 11
01:00:54.692 : en:Chapter 12
01:06:18.474 : en:Chapter 13
01:12:16.457 : en:Chapter 14
01:15:36.323 : en:Chapter 15
01:21:29.050 : en:Chapter 16
01:26:19.841 : en:Chapter 17
01:31:11.299 : en:Chapter 18
01:36:02.673 : en:Chapter 19
01:40:00.119 : en:Chapter 20





загрузка...
Правила, инструкции, FAQ!!!
Торрент  Добавлен [15 ноя 2015, 23:54] Скачать торрент Магнет ссылка
Скачать торрент
[ Размер 101.85 КБ / Просмотров 15 ]

Статус
Проверен 
 
Размер  20.22 ГБ
Приватный: Нет (DHT включён)
.torrent скачан  56
Как залить торрент? | Как скачать Torrent? | Ошибка в торренте? Качайте магнет  


     Отправить личное сообщение
   
Страница 1 из 1
Показать сообщения за:  Поле сортировки  
Начать новую тему Ответить на тему

   Похожие торренты   Автор   Ответы   Просмотры   Последнее сообщение 
В этой теме нет новых непрочитанных сообщений. Скачать торрент [VIDEO] Проект А / Операция А / Project A / «A» gai waak (Джеки Чан / Jackie Chan) [1983, боевик, комедия, HDRip] [MP4, 640x] DVO

в форуме Видео для смартфонов и КПК, Размер: 911.69 МБ, Здоровье: 100%

Anonymous

0
11|3

89
1

30 янв 2014, 06:46

Anonymous Перейти к последнему сообщению

В этой теме нет новых непрочитанных сообщений. Скачать торрент Лис и пёс: Дилогия / The Fox and the Hound I & II (1981-2006) 1080p BDRip

в форуме Зарубежные мультфильмы (HD Video), Размер: 8.74 ГБ, Здоровье: 66%

Anonymous

0
2|3

93
5

25 мар 2013, 23:09

Anonymous Перейти к последнему сообщению

В этой теме нет новых непрочитанных сообщений. Скачать торрент Коллекционер: Дилогия / The Collection: Dylogy (2009-2012) BDRip-AVC | D

в форуме Дилогии, Размер: 2.9 ГБ, Здоровье: 100%

Anonymous

0
7|0

567
142

11 мар 2013, 06:45

Anonymous Перейти к последнему сообщению

В этой теме нет новых непрочитанных сообщений. Скачать торрент Проверен Джиперс Криперс: Дилогия / Jeepers Creepers: Dilogy (2001-2002) BDRip 1080p | 60 fps

в форуме 720p | 1080p, Размер: 20.96 ГБ, Здоровье: 28%

Anonymous

0
17|59

228
11

09 ноя 2014, 14:07

Anonymous Перейти к последнему сообщению

В этой теме нет новых непрочитанных сообщений. Скачать торрент Основной инстинкт: Дилогия / Basic Instinct: Dilogy (1992-2006) BDRip 1080p

в форуме Дилогии, Размер: 15.89 ГБ, Здоровье: 100%

Гость

0
8|1

791
81

19 июл 2013, 14:23

Гость Перейти к последнему сообщению



Сейчас этот форум просматривают: нет зарегистрированных пользователей и гости: 0


Вы не можете начинать темы
Вы не можете отвечать на сообщения
Вы не можете редактировать свои сообщения
Вы не можете удалять свои сообщения
Вы не можете добавлять вложения

Перейти:  

!ВНИМАНИЕ!
 Ресурс не предоставляет электронные версии произведений, а занимается лишь коллекционированием и каталогизацией ссылок, присылаемых и публикуемых на форуме нашими читателями. Если вы являетесь правообладателем какого-либо представленного материала и не желаете чтобы ссылка на него находилась в нашем каталоге, свяжитесь с нами и мы незамедлительно удалим её. Файлы для обмена на трекере предоставлены пользователями сайта, и администрация не несёт ответственности за их содержание. Просьба не заливать файлы, защищенные авторскими правами, а также файлы нелегального содержания!