На всех торрентах на трекере установлена скидка на скачивание в размере 100 процентов(а).
 Возможность скачивания торрента НЕ зависит от ограничений при низком ратио, низком аплоаде, требуемом ратио или требуемом аплоаде.


Начать новую тему Ответить на тему
Статистика раздачи
Размер: 17.24 ГБ | Добавлен: 17 июн 2018, 20:42 | Скачали: 42
Сидеров: 36  [0 байт/сек]    Личеров: 14  [0 байт/сек]
Пред. тема | След. тема 

Автор
Сообщение

СообщениеДобавлено: 17 июн 2018, 20:42 

Ответить с цитатой 

Название: Призрак в доспехах
Оригинальное название: Ghost in the Shell
Год выхода: 2017
Жанр: Фантастика, боевик, триллер, драма, криминал, детектив
Режиссер: Руперт Сандерс
В ролях: Скарлетт Йоханссон, Йохан Филип Асбек, Такеши Китано, Жюльетт Бинош, Майкл Питт, Чин Хань, Дануся Самал, Ласарус Ратуэре, Ютака Идзумихара, Таванда Маниймо

О фильме:
Светлое будущее, где что-то пошло не так. Мир погряз в Интернете и передовом протезировании. Каждое человеческое существо считает своим святым долгом вставить в уши антенны от Wi-Fi роутера, сделать пластическую операцию под Рикки Мартина или хотя бы залить в себя лимонад "Буратино" вместо крови. Между тем, в недрах могущественной корпорации тайно разрабатывается особый военизированный имплант, фактически не оставляющий в организме подопытного ни одного живого места. Получившийся в результате эксперимента гибрид зачисляют в качестве боевого агента в отдел по борьбе с электронным бандитизмом. И когда неизвестный хакер начинает виртуозно кошмарить бизнес, грубо проникая в мозги лучших ученых компании с помощью инородных предметов, только первый в мире киборг с полностью синтетическим телом и встроенным генератором случайных мыслей и эмоций способен остановить произвол.



Страна: Великобритания, Китай, Индия, Гонконг, США
Студия: Arad Productions, DreamWorks SKG, Grosvenor Park Productions, Paramount Pictures, Reliance Entertainment, Seaside Entertainment, Steven Paul Production
Продолжительность: 01:46:57
Перевод: Дублированный (Blu-ray EUR, ред. Sergesha), авторский (Гаврилов, Немахов)

Файл
Кодек: x264
Качество: BDRip 1080p
Видео: 1920x1080, 18100 kbps, 23.976 fps, 0.365 bit/pixel [me=umh / crf=16.4 / me_range=32]
Звук:
1 - Русский [AC-3, 640 Кбит/сек, 6 каналов, 48 КГц, 16 бит, 1536 SPF] - Дубляж (Blu-Ray CEE)
2 - Русский [DTS, 1509 Кбит/сек, 6 каналов, 48 КГц, 24 бит, 512 SPF] - Дубляж (ред. Sergesha)
3 - Русский [AC-3, 640 Кбит/сек, 6 каналов, 48 КГц, 16 бит, 1536 SPF] - Авторский - А.Гаврилов
4 - Русский [DTS, 1509 Кбит/сек, 6 каналов, 48 КГц, 24 бит, 512 SPF] - Авторский - Ю.Немахов
5 - Английский [AC-3, 640 Кбит/сек, 6 каналов, 48 КГц, 16 бит, 1536 SPF] - Оригинал
Субтитры:
1 - Русские [forced, full]
2 - Украинские [forced, full]
3 - Английские [full, SDH, SDH-Colored]
4 - Французские
5 - Португальские
6 - Испанские
7 - Вьетнамские

Семпл

General
Unique ID : 1482512889609384197098892831201920093 (0x11D85875C90D979F90848C0F393845D)
Complete name : Призрак-в-доспехах-2017-1080p-Gross.1978.mkv
Format : Matroska
Format version : Version 4 / Version 2
File size : 17.2 GiB
Duration : 1 h 46 min
Overall bit rate : 23.1 Mb/s
Movie name : Ghost in the Shell 2017 1080p BluRay DD-EX 5.1 x264-TayTO
Encoded date : UTC 2018-06-16 15:49:57
Writing application : mkvmerge v23.0.0 ('The Bride Said No') 64-bit
Writing library : libebml v1.3.6 + libmatroska v1.4.9

Video
ID : 1
Format : AVC
Format/Info : Advanced Video Codec
Format profile : High@L4.1
Format settings : CABAC / 4 Ref Frames
Format settings, CABAC : Yes
Format settings, ReFrames : 4 frames
Codec ID : V_MPEG4/ISO/AVC
Duration : 1 h 46 min
Bit rate : 18.1 Mb/s
Width : 1 920 pixels
Height : 1 080 pixels
Display aspect ratio : 16:9
Frame rate mode : Constant
Frame rate : 23.976 (24000/1001) FPS
Color space : YUV
Chroma subsampling : 4:2:0
Bit depth : 8 bits
Scan type : Progressive
Bits/(Pixel*Frame) : 0.365
Stream size : 13.5 GiB (79%)
Title : hungdaita @ TayTO
Writing library : x264 core 150 r2833+58 090e24f t_mod_Custom [8-bit@all X86_64]
Encoding settings : cabac=1 / ref=4 / deblock=1:-3:-3 / analyse=0x3:0x133 / me=umh / subme=11 / psy=1 / fade_compensate=0.00 / psy_rd=1.05:0.00 / mixed_ref=1 / me_range=32 / chroma_me=1 / trellis=2 / 8x8dct=1 / cqm=0 / deadzone=21,11 / fast_pskip=0 / chroma_qp_offset=-2 / threads=12 / lookahead_threads=2 / sliced_threads=0 / nr=0 / decimate=0 / interlaced=0 / bluray_compat=0 / constrained_intra=0 / fgo=0 / bframes=8 / b_pyramid=2 / b_adapt=2 / b_bias=0 / direct=3 / weightb=1 / open_gop=0 / weightp=2 / keyint=250 / keyint_min=23 / scenecut=40 / intra_refresh=0 / rc_lookahead=60 / rc=crf / mbtree=0 / crf=16.4000 / qcomp=0.60 / qpmin=0:0:0 / qpmax=69:69:69 / qpstep=4 / vbv_maxrate=62500 / vbv_bufsize=78125 / crf_max=0.0 / nal_hrd=none / filler=0 / ip_ratio=1.30 / pb_ratio=1.20 / aq=3:0.80 / aq-sensitivity=10.00 / aq-factor=1.00:1.00:1.00 / aq2=0 / aq3=0 / zones=203,400,crf=13.5/588,1330,crf=13.5/1355,1750,crf=13.5/4210,4429,crf=14.4/12111,13159,crf=13.4/17194,17287,crf=13.4/17338,17393,crf=13.4/17495,17573,crf=13.4/27918,29407,crf=17/30619,30732,crf=17/30845,31161,crf=16.7/37546,38026,crf=13.4/48060,48390,crf=14.4/52841,52953,crf=14.4/53006,53068,crf=14.4/53663,53701,crf=15.4/53744,53820,crf=15.4/53926,53995,crf=15/60829,61190,crf=17/61192,61754,crf=15.4/61755,61895,crf=17/66734,69461,crf=16.7/69462,75572,crf=16.6/76695,76844,crf=13.4/79016,79055,crf=13.4/81156,81735,crf=15.4/87223,87247,crf=13.4/87578,87648,crf=13.4/92827,92905,crf=13.4/93018,94002,crf=13.4/105909,106263,crf=17/107340,107419,crf=14.4/107420,114093,crf=16.6/118382,118648,crf=16.6/118680,118787,crf=13.4/118855,119064,crf=13.4/121529,121590,crf=13.4/125770,126061,crf=14.4/126327,128859,crf=15.4/128906,128924,crf=13.4/128925,131332,crf=15.4/135902,136172,crf=15.4/136977,140900,crf=16.6/140930,153250,crf=19
Language : English
Default : Yes
Forced : No
Color range : Limited
Matrix coefficients : BT.709

Audio #1
ID : 2
Format : AC-3
Format/Info : Audio Coding 3
Codec ID : A_AC3
Duration : 1 h 46 min
Bit rate mode : Constant
Bit rate : 640 kb/s
Channel(s) : 6 channels
Channel positions : Front: L C R, Side: L R, LFE
Sampling rate : 48.0 kHz
Frame rate : 31.250 FPS (1536 SPF)
Bit depth : 16 bits
Compression mode : Lossy
Stream size : 490 MiB (3%)
Title : Дубляж (Blu-Ray)
Language : Russian
Service kind : Complete Main
Default : Yes
Forced : Yes

Audio #2
ID : 3
Format : DTS
Format/Info : Digital Theater Systems
Codec ID : A_DTS
Duration : 1 h 46 min
Bit rate mode : Constant
Bit rate : 1 509 kb/s
Channel(s) : 6 channels
Channel positions : Front: L C R, Side: L R, LFE
Sampling rate : 48.0 kHz
Frame rate : 93.750 FPS (512 SPF)
Bit depth : 24 bits
Compression mode : Lossy
Stream size : 1.13 GiB (7%)
Title : Дубляж (редакция by Sergesha)
Language : Russian
Default : No
Forced : No

Audio #3
ID : 4
Format : AC-3
Format/Info : Audio Coding 3
Codec ID : A_AC3
Duration : 1 h 46 min
Bit rate mode : Constant
Bit rate : 640 kb/s
Channel(s) : 6 channels
Channel positions : Front: L C R, Side: L R, LFE
Sampling rate : 48.0 kHz
Frame rate : 31.250 FPS (1536 SPF)
Bit depth : 16 bits
Compression mode : Lossy
Stream size : 490 MiB (3%)
Title : Гаврилов
Language : Russian
Service kind : Complete Main
Default : No
Forced : No

Audio #4
ID : 5
Format : DTS
Format/Info : Digital Theater Systems
Codec ID : A_DTS
Duration : 1 h 46 min
Bit rate mode : Constant
Bit rate : 1 509 kb/s
Channel(s) : 6 channels
Channel positions : Front: L C R, Side: L R, LFE
Sampling rate : 48.0 kHz
Frame rate : 93.750 FPS (512 SPF)
Bit depth : 24 bits
Compression mode : Lossy
Stream size : 1.13 GiB (7%)
Title : Немахов
Language : Russian
Default : No
Forced : No

Audio #5
ID : 6
Format : AC-3
Format/Info : Audio Coding 3
Codec ID : A_AC3
Duration : 1 h 46 min
Bit rate mode : Constant
Bit rate : 640 kb/s
Channel(s) : 6 channels
Channel positions : Front: L C R, Side: L R, LFE
Sampling rate : 48.0 kHz
Frame rate : 31.250 FPS (1536 SPF)
Bit depth : 16 bits
Compression mode : Lossy
Stream size : 490 MiB (3%)
Language : English
Service kind : Complete Main
Default : No
Forced : No

Text #1
ID : 7
Format : UTF-8
Codec ID : S_TEXT/UTF8
Codec ID/Info : UTF-8 Plain Text
Duration : 1 h 44 min
Bit rate : 4 b/s
Count of elements : 75
Stream size : 3.56 KiB (0%)
Title : forced
Language : Russian
Default : Yes
Forced : Yes

Text #2
ID : 8
Format : UTF-8
Codec ID : S_TEXT/UTF8
Codec ID/Info : UTF-8 Plain Text
Duration : 1 h 44 min
Bit rate : 56 b/s
Count of elements : 916
Stream size : 43.0 KiB (0%)
Title : full
Language : Russian
Default : No
Forced : No

Text #3
ID : 9
Format : UTF-8
Codec ID : S_TEXT/UTF8
Codec ID/Info : UTF-8 Plain Text
Duration : 1 h 44 min
Bit rate : 4 b/s
Count of elements : 76
Stream size : 3.52 KiB (0%)
Title : forced
Language : Ukrainian
Default : No
Forced : No

Text #4
ID : 10
Format : UTF-8
Codec ID : S_TEXT/UTF8
Codec ID/Info : UTF-8 Plain Text
Duration : 1 h 44 min
Bit rate : 57 b/s
Count of elements : 970
Stream size : 44.1 KiB (0%)
Title : full
Language : Ukrainian
Default : No
Forced : No

Text #5
ID : 11
Format : UTF-8
Codec ID : S_TEXT/UTF8
Codec ID/Info : UTF-8 Plain Text
Duration : 1 h 34 min
Bit rate : 34 b/s
Count of elements : 885
Stream size : 24.1 KiB (0%)
Title : full
Language : English
Default : No
Forced : No

Text #6
ID : 12
Format : UTF-8
Codec ID : S_TEXT/UTF8
Codec ID/Info : UTF-8 Plain Text
Duration : 1 h 35 min
Bit rate : 41 b/s
Count of elements : 1129
Stream size : 29.1 KiB (0%)
Title : SDH
Language : English
Default : No
Forced : No

Text #7
ID : 13
Format : UTF-8
Codec ID : S_TEXT/UTF8
Codec ID/Info : UTF-8 Plain Text
Duration : 1 h 35 min
Bit rate : 57 b/s
Count of elements : 1129
Stream size : 40.2 KiB (0%)
Title : SDH-Colored
Language : English
Default : No
Forced : No

Text #8
ID : 14
Format : UTF-8
Codec ID : S_TEXT/UTF8
Codec ID/Info : UTF-8 Plain Text
Duration : 1 h 36 min
Bit rate : 40 b/s
Count of elements : 999
Stream size : 28.6 KiB (0%)
Language : French
Default : No
Forced : No

Text #9
ID : 15
Format : UTF-8
Codec ID : S_TEXT/UTF8
Codec ID/Info : UTF-8 Plain Text
Duration : 1 h 36 min
Bit rate : 34 b/s
Count of elements : 914
Stream size : 24.5 KiB (0%)
Language : Portuguese
Default : No
Forced : No

Text #10
ID : 16
Format : UTF-8
Codec ID : S_TEXT/UTF8
Codec ID/Info : UTF-8 Plain Text
Duration : 1 h 36 min
Bit rate : 37 b/s
Count of elements : 905
Stream size : 26.3 KiB (0%)
Language : Spanish
Default : No
Forced : No

Text #11
ID : 17
Format : UTF-8
Codec ID : S_TEXT/UTF8
Codec ID/Info : UTF-8 Plain Text
Duration : 1 h 36 min
Bit rate : 49 b/s
Count of elements : 1006
Stream size : 35.1 KiB (0%)
Language : Vietnamese
Default : No
Forced : No

Menu
00:00:00.000 : en:00:00:00.000
00:08:09.322 : en:00:08:09.322
00:14:39.962 : en:00:14:39.962
00:21:26.494 : en:00:21:26.494
00:28:02.681 : en:00:28:02.681
00:34:13.218 : en:00:34:13.218
00:39:27.615 : en:00:39:27.615
00:43:57.802 : en:00:43:57.802
00:51:49.815 : en:00:51:49.815
00:55:19.066 : en:00:55:19.066
01:01:06.872 : en:01:01:06.872
01:07:49.732 : en:01:07:49.732
01:14:36.972 : en:01:14:36.972
01:20:31.744 : en:01:20:31.744
01:27:46.178 : en:01:27:46.178
01:33:41.407 : en:01:33:41.407
01:38:00.083 : en:01:38:00.083


Релиз от: Gross.1978
Правила, инструкции, FAQ!!!
Торрент  Добавлен [17 июн 2018, 20:42] Скачать торрент Магнет ссылка
Скачать торрент
[ Размер 87.08 КБ / Просмотров 22 ]

Статус
Проверен 
 
Размер  17.24 ГБ
Приватный: Нет (DHT включён)
.torrent скачан  42
Как залить торрент? | Как скачать Torrent? | Ошибка в торренте? Качайте магнет  
загрузка...


     Отправить личное сообщение
   
Страница 1 из 1
Показать сообщения за:  Поле сортировки  
Начать новую тему Ответить на тему

   Похожие торренты   Автор   Ответы   Просмотры   Последнее сообщение 
В этой теме нет новых непрочитанных сообщений. Призрак в доспехах / Ghost in the Shell (2017) WEB-DLRip | iTunes

в форуме Новинки кино, Размер: 1.45 ГБ, Здоровье: 100%

Гость

0
542|471

678
594

08 июл 2017, 21:54

Гость Перейти к последнему сообщению

В этой теме нет новых непрочитанных сообщений. Скачать торрент Проверен Призрак в доспехах / Ghost in the Shell (Руперт Сандерс / Rupert Sanders) [2017, США, фантастика, боевик, триллер, драма, криминал, детектив, BDRip] Dub + Sub Rus

в форуме Фильмы 2016-2017, Размер: 1.45 ГБ, Здоровье: 100%

Anonymous

0
35|11

19
0

03 фев 2018, 21:26

Anonymous Перейти к последнему сообщению

В этой теме нет новых непрочитанных сообщений. Скачать торрент Проверен Призрак в доспехах / Ghost in the Shell (Руперт Сандерс / Rupert Sanders) [2017, США, фантастика, боевик, триллер, драма, криминал, BDRip-AVC] Dub (iTunes) + Sub (Rus)

в форуме Фильмы 2016-2017, Размер: 1.41 ГБ, Здоровье: 0%

Anonymous

0
0|0

17
1

03 фев 2018, 20:15

Anonymous Перейти к последнему сообщению

В этой теме нет новых непрочитанных сообщений. Скачать торрент Проверен Призрак в доспехах / Ghost in the Shell (Руперт Сандерс / Rupert Sanders) [2017, США, Индия, Китай, Фантастика, боевик, триллер, BDRip-AVC] Dub + Sub Rus, Eng + Original Eng

в форуме Фильмы 2016-2017, Размер: 2.43 ГБ, Здоровье: 100%

Anonymous

0
38|11

90
1

04 фев 2018, 15:08

Anonymous Перейти к последнему сообщению

В этой теме нет новых непрочитанных сообщений. Скачать торрент Проверен Призрак в доспехах / Ghost in the Shell (Руперт Сандерс / Rupert Sanders) [2017, США, фантастика, боевик, триллер, драма, криминал, детектив, BDRip] Dub + Sub Rus, Eng + Original Eng

в форуме Фильмы 2016-2017, Размер: 2.18 ГБ, Здоровье: 0%

Anonymous

0
0|0

10
0

03 фев 2018, 20:22

Anonymous Перейти к последнему сообщению



Сейчас этот форум просматривают: нет зарегистрированных пользователей и гости: 0


Вы не можете начинать темы
Вы не можете отвечать на сообщения
Вы не можете редактировать свои сообщения
Вы не можете удалять свои сообщения
Вы не можете добавлять вложения

Перейти:  
Ресурс не предоставляет электронные версии произведений, а занимается лишь коллекционированием и каталогизацией ссылок, присылаемых и публикуемых на форуме нашими читателями. Если вы являетесь правообладателем какого-либо представленного материала и не желаете чтобы ссылка на него находилась в нашем каталоге, свяжитесь с нами и мы незамедлительно удалим её. Файлы для обмена на трекере предоставлены пользователями сайта, и администрация не несёт ответственности за их содержание. Просьба не заливать файлы, защищенные авторскими правами, а также файлы нелегального содержания!
cron