На всех торрентах на трекере установлена скидка на скачивание в размере 100 процентов(а).
 Возможность скачивания торрента НЕ зависит от ограничений при низком ратио, низком аплоаде, требуемом ратио или требуемом аплоаде.


Начать новую тему Ответить на тему
Статистика раздачи
Размер: 3.51 ГБ | Добавлен: 22 фев 2013, 19:30 | Скачали: 0
Сидеров: 5  [0 байт/сек]    Личеров: 1  [0 байт/сек]
Пред. тема | След. тема 

Автор
Сообщение

СообщениеДобавлено: 22 фев 2013, 19:30 

Ответить с цитатой 

Приключения Марка Твена / The adventures of Mark Twain



Страна: США
Жанр: мультфильм, приключения, семейный
Продолжительность: 01:26:07
Год выпуска: 1985
Перевод 1: Профессиональный (дублированный)
Перевод 2: Профессиональный (многоголосый закадровый)

Режиссёр: Уил Винтон /Will Vinton

Роли озвучивали: Джеймс Уитмор, Мишель Мариана, Гари Круг, Крис Ричи, Джон Моррисон, Кэрол Эдельман, Даль МакКеннон, Херб Смит, Марли Стоун, Вилбур Винсент

Описание: Марк Твен в 1910 году строит на Миссисипи воздушный корабль, на котором отправляется в небо, на встречу с Кометой! Прямо перед стартом к нему на борт чисто из любопытства пробираются герои его самого известного произведения: Том Сойер, Гекк Финн и Бэкки Тетчер. Воздушный корабль взмывает ввысь, прыгать бесполезно, так что троице придётся лететь на встречу с Кометой вместе со своим автором. К этой сюжетной основе ещё добавляются небольшие истории-пересказы нескольких произведений Твена: "Знаменитая скачущая лягушка из Калавереса", "Дневник Адама и Евы" и "Таинственный незнакомец", поведанные троице самим Марком Твеном.



Качество: BDRip 720p
Формат: MKV
Видео: 1280x720, 23.976 fps, ~4940 kbps H.264 High@L4.1
Аудио 1: AC3 2.0, 48 kHz, 192 kbps Mvo
Аудио 2: AC3 2.0, 48 kHz, 192 kbps Dub
Аудио 3: DTS 2.0, 48 kHz, 512 kbps Original
Субтитры: отсутствуют



The.Adventures.of.Mark.Twain.1986.720p.BluRay.x264-BiRDHOUSE.mkv General Unique ID : 197807566650899892444548013863857282398 (0x94D05A01679B38D79BEDF59FA123DD5E) Complete name : The.Adventures.of.Mark.Twain.1986.720p.BluRay.x264-BiRDHOUSE.mkv Format : Matroska File size : 3.51 GiB Duration : 1h 26mn Overall bit rate : 5 837 Kbps Encoded date : UTC 2011-11-26 20:19:06 Writing application : mkvmerge v2.1.0 ('Another Place To Fall') built on Aug 19 2007 13:40:07 Writing library : libebml v0.7.7 + libmatroska v0.8.1 Video #1 ID : 1 Format : AVC Format/Info : Advanced Video Codec Format profile : High@L4.1 Format settings, CABAC : Yes Format settings, ReFrames : 5 frames Codec ID : V_MPEG4/ISO/AVC Duration : 1h 26mn Bit rate : 4 940 Kbps Width : 1 280 pixels Height : 720 pixels Display aspect ratio : 16:9 Frame rate : 23.976 fps Color space : YUV Chroma subsampling : 4:2:0 Bit depth : 8 bits Scan type : Progressive Bits/(Pixel*Frame) : 0.224 Stream size : 2.90 GiB (83%) Writing library : x264 core 119 r2106 07efeb4 Encoding settings : cabac=1 / ref=5 / deblock=1:-1:-1 / analyse=0x3:0x113 / me=umh / subme=7 / psy=1 / psy_rd=1.00:0.15 / mixed_ref=1 / me_range=16 / chroma_me=1 / trellis=1 / 8x8dct=1 / cqm=0 / deadzone=21,11 / fast_pskip=1 / chroma_qp_offset=-3 / threads=12 / sliced_threads=0 / nr=0 / decimate=1 / interlaced=0 / bluray_compat=0 / constrained_intra=0 / bframes=3 / b_pyramid=2 / b_adapt=2 / b_bias=0 / direct=1 / weightb=1 / open_gop=0 / weightp=2 / keyint=250 / keyint_min=23 / scenecut=40 / intra_refresh=0 / rc_lookahead=40 / rc=2pass / mbtree=1 / bitrate=4940 / ratetol=1.0 / qcomp=0.60 / qpmin=0 / qpmax=69 / qpstep=4 / cplxblur=20.0 / qblur=0.5 / ip_ratio=1.40 / aq=1:1.00 Language : English Audio #2 ID : 2 Format : AC-3 Format/Info : Audio Coding 3 Mode extension : CM (complete main) Codec ID : A_AC3 Duration : 1h 26mn Bit rate mode : Constant Bit rate : 192 Kbps Channel(s) : 2 channels Channel positions : Front: L R Sampling rate : 48.0 KHz Bit depth : 16 bits Compression mode : Lossy Stream size : 118 MiB (3%) Title : MVO Language : Russian Audio #3 ID : 3 Format : AC-3 Format/Info : Audio Coding 3 Mode extension : CM (complete main) Codec ID : A_AC3 Duration : 1h 26mn Bit rate mode : Constant Bit rate : 192 Kbps Channel(s) : 2 channels Channel positions : Front: L R Sampling rate : 48.0 KHz Bit depth : 16 bits Compression mode : Lossy Stream size : 118 MiB (3%) Title : DUB Language : Russian Audio #4 ID : 4 Format : DTS Format/Info : Digital Theater Systems Codec ID : A_DTS Duration : 1h 26mn Bit rate mode : Constant Bit rate : 512 Kbps Channel(s) : 2 channels Channel positions : Front: L R Sampling rate : 48.0 KHz Bit depth : 24 bits Compression mode : Lossy Stream size : 315 MiB (9%) Title : ORGINAL Language : English







Правила, инструкции, FAQ!!!
Торрент  Добавлен [22 фев 2013, 19:30] Скачать торрент Магнет ссылка
Скачать торрент
[ Размер 18.14 КБ / Просмотров 7 ]

Статус
Проверен 
 
Размер  3.51 ГБ
Приватный: Нет (DHT включён)
.torrent скачан  0
Как залить торрент? | Как скачать Torrent? | Ошибка в торренте? Качайте магнет  
загрузка...


     Отправить личное сообщение
   
Страница 1 из 1
Показать сообщения за:  Поле сортировки  
Начать новую тему Ответить на тему

   Похожие торренты   Автор   Ответы   Просмотры   Последнее сообщение 
В этой теме нет новых непрочитанных сообщений. Скачать торрент Проверен Приключения Тинтина: Тайна Единорога в 3Д / The Adventures of Tintin 3D (Стивен Спилберг / Steven Spielberg) [2011, мультфильм, боевик, детектив, приключения, семейный, BDrip 1080p] SideBySide / Горизонтальная стереопара

в форуме 3D Мультфильмы, Размер: 16.22 ГБ, Здоровье: 0%

Anonymous

0
0|0

69
0

07 сен 2016, 18:16

Anonymous Перейти к последнему сообщению

В этой теме нет новых непрочитанных сообщений. Скачать торрент Проверен Приключения Тинтина: Тайна Единорога в 3Д / The Adventures of Tintin 3D (Стивен Спилберг / Steven Spielberg) [2011, Мультфильм, Приключения, Боевик, Семейный, BDrip-AVC] Half OverUnder / Вертикальная анаморфная стереопара

в форуме HD-Video в 3D, Размер: 7.75 ГБ, Здоровье: 100%

Anonymous

0
81|24

125
8

02 ноя 2014, 09:51

Anonymous Перейти к последнему сообщению

В этой теме нет новых непрочитанных сообщений. Скачать торрент Проверен Приключения Тинтина: Тайна Единорога в 3Д / The Adventures of Tintin 3D (Стивен Спилберг / Steven Spielberg) [2011, Мультфильм, Боевик, Детектив, Приключения, Семейный, BDrip, 1080p] OverUnder / Вертикальная стереопара

в форуме 3D Мультфильмы, Размер: 9.73 ГБ, Здоровье: 0%

Anonymous

0
0|0

73
0

07 сен 2016, 18:19

Anonymous Перейти к последнему сообщению

В этой теме нет новых непрочитанных сообщений. Скачать торрент Лего: Приключения Клатча Пауэрса / Lego: The Adventures of Clutch Powers (Ховард Э. Бэйкер / Howard E. Baker) [2010, мультфильм, приключения, семейный, DVDRip] DUB

в форуме Зарубежные мультфильмы, Размер: 744.59 МБ, Здоровье: 100%

Anonymous

0
1|0

294
6

30 сен 2013, 00:42

Anonymous Перейти к последнему сообщению

В этой теме нет новых непрочитанных сообщений. Скачать торрент Приключения Тинтина: Тайна Единорога / The Adventures of Tintin (Стивен Спилберг / Steven Spielberg) [2011, мультфильм, боевик, детектив, приключения, семейны, BDRip-AVC] Dub + Ukr + Eng+ Sub rus, Eng

в форуме Зарубежные мультфильмы, Размер: 2.7 ГБ, Здоровье: 100%

Anonymous

0
8|3

191
1

30 сен 2013, 00:49

Anonymous Перейти к последнему сообщению



Сейчас этот форум просматривают: нет зарегистрированных пользователей и гости: 1


Вы не можете начинать темы
Вы не можете отвечать на сообщения
Вы не можете редактировать свои сообщения
Вы не можете удалять свои сообщения
Вы не можете добавлять вложения

Перейти:  
Ресурс не предоставляет электронные версии произведений, а занимается лишь коллекционированием и каталогизацией ссылок, присылаемых и публикуемых на форуме нашими читателями. Если вы являетесь правообладателем какого-либо представленного материала и не желаете чтобы ссылка на него находилась в нашем каталоге, свяжитесь с нами и мы незамедлительно удалим её. Файлы для обмена на трекере предоставлены пользователями сайта, и администрация не несёт ответственности за их содержание. Просьба не заливать файлы, защищенные авторскими правами, а также файлы нелегального содержания!
cron