На всех торрентах на трекере установлена скидка на скачивание в размере 100 процентов(а).
 Возможность скачивания торрента НЕ зависит от ограничений при низком ратио, низком аплоаде, требуемом ратио или требуемом аплоаде.


Начать новую тему Ответить на тему
Статистика раздачи
Размер: 2.07 ГБ | Добавлен: 03 фев 2018, 20:23 | Скачали: 0
Сидеров: 66  [0 байт/сек]    Личеров: 21  [0 байт/сек]
Пред. тема | След. тема 

Автор
Сообщение

СообщениеДобавлено: 03 фев 2018, 20:23 

Ответить с цитатой 

Преступник / Criminal
Страна: Великобритания, США
Жанр: боевик, криминал, детектив
Год выпуска: 2016
Продолжительность: 01:53:07
Перевод: Авторский (одноголосый закадровый) Юрий Живов
Субтитры: нет
Режиссер: Ариэль Вромен / Ariel Vromen
В ролях: Кевин Костнер, Гари Олдман, Томми Ли Джонс, Райан Рейнольдс, Элис Ив, Галь Гадот, Хорди Молья, Майкл Питт, Амори Ноласко
Описание: Агент ЦРУ Билл Поуп в компании молодых коллег проводит секретную операцию и добывает важные сведения, в том числе и информацию о местонахождении интересующего начальство субъекта. Однако до представления отчёта он не доживает, попав в руки некого испанского анархиста. Тогда командование в попытках уцепиться за соломинку подбирает идеального с точки зрения совместимости кандидата и проводит передовой опыт, пересаживая воспоминания агента преступнику Джерико Стюарту, много лет просидевшему за решёткой. Очень быстро заключённый находит способ сбежать от «создателей», к тому же он «оснащён» рядом умений, доставшихся от Билла. Теперь можно натворить дел, куда более крутых, только вот оказывается, жить со второй личностью в голове непросто: появляются ненужные чувства и эмоции. Хочет Джерико или нет, но он переродился в совсем другого человека…
Сэмпл: http://multi-up.com/1183703
Качество видео: BDRip (Исходник Blu-ray disc 1080p)
Формат видео: AVI
Видео: XviD 73, 720x304, (2,35:1), 24,000 fps, 2156 Кбит/с, 8 бит
Аудио: Русский (АС3, 6 ch (Front: L C R, Side: L R, LFE), 48,0 KHz, 448 Kbps)
Код:
Общее
Полное имя                               : H:\Фильмы на трекер\Преступник  (боевик, триллер, криминал 2016 год).avi
Формат                                   : AVI
Формат/Информация                        : Audio Video Interleave
Профиль формата                          : OpenDML
Размер файла                             : 2,07 Гбайт
Продолжительность                        : 1 ч. 53 м.
Общий поток                              : 2616 Кбит/сек
Программа кодирования                    : VirtualDubMod 1.5.10.2 (build 2540/release)
Библиотека кодирования                   : VirtualDubMod build 2540/release
Видео
Идентификатор                            : 0
Формат                                   : MPEG-4 Visual
Профиль формата                          : Advanced Simple@L5
Параметр BVOP формата                    : 2
Параметр QPel формата                    : Нет
Параметр GMC формата                     : Без точки перехода
Параметр матрицы формата                 : Выборочная
Идентификатор кодека                     : XVID
Идентификатор кодека/Подсказка           : XviD
Продолжительность                        : 1 ч. 53 м.
Битрейт                                  : 2156 Кбит/сек
Ширина                                   : 720 пикселей
Высота                                   : 304 пикселя
Соотношение сторон                       : 2,35:1
Частота кадров                           : 24,000 кадра/сек
Цветовое пространство                    : YUV
Субдискретизация насыщенности            : 4:2:0
Битовая глубина                          : 8 бит
Тип развёртки                            : Прогрессивная
Метод сжатия                             : С потерями
Бит/(Пиксели*Кадры)                      : 0.410
Размер потока                            : 1,70 Гбайт (82%)
Библиотека кодирования                   : XviD 73
Аудио
Идентификатор                            : 1
Формат                                   : AC-3
Формат/Информация                        : Audio Coding 3
Расширение режима                        : CM (complete main)
Параметр Endianness формата              : Big
Идентификатор кодека                     : 2000
Продолжительность                        : 1 ч. 53 м.
Вид битрейта                             : Постоянный
Битрейт                                  : 448 Кбит/сек
Каналы                                   : 6 каналов
Расположение каналов                     : Front: L C R, Side: L R, LFE
Частота                                  : 48,0 КГц
Частота кадров                           : 31,250 кадров/сек (1536 spf)
Метод сжатия                             : С потерями
Размер потока                            : 362 Мбайт (17%)
Выравнивание                             : Разделение по промежуткам
Продолжительность промежутка             : 42  мс. (1,00 видеокадр)
Время предзагрузки промежутка            : 500  мс.
Правила, инструкции, FAQ!!!
Торрент  Добавлен [03 фев 2018, 20:23] Скачать торрент Магнет ссылка
Скачать торрент
[ Размер 10.85 КБ / Просмотров 23 ]

Статус
Проверен 
 
Размер  2.07 ГБ
Приватный: Нет (DHT включён)
.torrent скачан  0
Как залить торрент? | Как скачать Torrent? | Ошибка в торренте? Качайте магнет  
загрузка...


     Отправить личное сообщение
   
Страница 1 из 1
Показать сообщения за:  Поле сортировки  
Начать новую тему Ответить на тему

   Похожие торренты   Автор   Ответы   Просмотры   Последнее сообщение 
В этой теме нет новых непрочитанных сообщений. Скачать торрент Проверен Преступник / Criminal (Ариэль Вромен / Ariel Vromen) [2016, Великобритания, США, Фантастика, боевик, триллер, драма, криминал, детектив, BDRip] AVO (Андрей Гаврилов)

в форуме Фильмы 2016-2017, Размер: 1.46 ГБ, Здоровье: 0%

Anonymous

0
0|0

7
0

03 фев 2018, 19:32

Anonymous Перейти к последнему сообщению

В этой теме нет новых непрочитанных сообщений. Скачать торрент Проверен Преступник / Criminal (Ариэль Вромен / Ariel Vromen) [2016, Великобритания, США, Фантастика, боевик, триллер, драма, криминал, детектив, BDRip-AVC] AVO (Андрей Гаврилов) + Original Eng + Sub Rus, Eng

в форуме Фильмы 2016-2017, Размер: 2.2 ГБ, Здоровье: 100%

Anonymous

0
1|0

16
0

03 фев 2018, 19:27

Anonymous Перейти к последнему сообщению

В этой теме нет новых непрочитанных сообщений. Скачать торрент Проверен Преступник / Criminal (Ариэль Вромен / Ariel Vromen) [2016, Великобритания, США, боевик, триллер, драма, криминал, детектив, HDRip] Dub (iTunes)

в форуме Фильмы 2016-2017, Размер: 745.79 МБ, Здоровье: 0%

Anonymous

0
0|0

31
0

03 фев 2018, 18:33

Anonymous Перейти к последнему сообщению

В этой теме нет новых непрочитанных сообщений. Скачать торрент Проверен Преступник / Criminal (Ариэль Вромен / Ariel Vromen) [2016, Великобритания, США, фантастика, боевик, триллер, BDRip-AVC] Dub

в форуме Фильмы 2016-2017, Размер: 1.41 ГБ, Здоровье: 100%

Anonymous

0
68|22

15
0

03 фев 2018, 21:10

Anonymous Перейти к последнему сообщению

В этой теме нет новых непрочитанных сообщений. Скачать торрент Проверен Преступник / Criminal (Ариэль Вромен / Ariel Vromen) [2016, Великобритания, США, фантастика, боевик, триллер, BDRip-AVC] Dub + Original (eng) + Sub (eng)

в форуме Фильмы 2016-2017, Размер: 2.86 ГБ, Здоровье: 100%

Anonymous

0
107|33

21
0

04 фев 2018, 15:05

Anonymous Перейти к последнему сообщению



Сейчас этот форум просматривают: нет зарегистрированных пользователей и гости: 2


Вы не можете начинать темы
Вы не можете отвечать на сообщения
Вы не можете редактировать свои сообщения
Вы не можете удалять свои сообщения
Вы не можете добавлять вложения

Перейти:  
Ресурс не предоставляет электронные версии произведений, а занимается лишь коллекционированием и каталогизацией ссылок, присылаемых и публикуемых на форуме нашими читателями. Если вы являетесь правообладателем какого-либо представленного материала и не желаете чтобы ссылка на него находилась в нашем каталоге, свяжитесь с нами и мы незамедлительно удалим её. Файлы для обмена на трекере предоставлены пользователями сайта, и администрация не несёт ответственности за их содержание. Просьба не заливать файлы, защищенные авторскими правами, а также файлы нелегального содержания!
cron