На всех торрентах на трекере установлена скидка на скачивание в размере 100 процентов(а).
 Возможность скачивания торрента НЕ зависит от ограничений при низком ратио, низком аплоаде, требуемом ратио или требуемом аплоаде.


Начать новую тему Ответить на тему
Статистика раздачи
Размер: 5.7 ГБ | Добавлен: 17 авг 2016, 21:56 | Скачали: 165
Сидеров: 257  [0 байт/сек]    Личеров: 146  [0 байт/сек]
Пред. тема | След. тема 

Автор
Сообщение

СообщениеДобавлено: 17 авг 2016, 21:56 

Год выпуска: 2016
Страна: Великобритания, США
Жанр: фантастика, боевик, триллер, драма, криминал, детектив
Продолжительность: 01:53:34
Перевод: Профессиональный (полное дублирование)[iTunes]
Субтитры: нет

Режиссер: Ариэль Вромен / Ariel Vromen

В ролях: Кевин Костнер, Гари Олдман, Томми Ли Джонс, Райан Рейнольдс, Элис Ив, Галь Гадот, Хорди Молья, Майкл Питт, Амори Ноласко, Антье Трауэ

Описание: В последней отчаянной попытке остановить катастрофу мирового масштаба генетики осуществляют невероятную операцию по вживлению воспоминаний и умений погибшего оперативника ЦРУ в тело опасного заключенного с надеждой, что тот доведет до конца прерванную миссию агента.

Качество видео: BDRip 720p (SbR)
Формат видео: MKV

Видео: 1280х536, 23,976 fps, AVC ~6663 kbps avg
Аудио: 48 kHz, AC3 Dolby Digital, 3/2 (L,C,R,l,r) + LFE ch, ~384 kbps

Релиз от:




Criminal 2016 720p_BDRip_[scarabey.org].mkv
Формат : Matroska
Версия формата : Version 4 / Version 2
Размер файла : 5,70 Гбайт
Продолжительность : 1 ч. 53 м.
Общий поток : 7190 Кбит/сек
Дата кодирования : UTC 2016-08-16 16:16:16
Программа кодирования : mkvmerge v6.1.0 ('Old Devil') built on Mar 4 2013 09:10:42
Библиотека кодирования : libebml v1.3.0 + libmatroska v1.4.0
Обложка : Yes
Attachments : cover.jpg

Видео
Идентификатор : 1
Формат : AVC
Формат/Информация : Advanced Video Codec
Профиль формата : High@L4.1
Параметр CABAC формата : Да
Параметр ReFrames формата : 12 кадров
Идентификатор кодека : V_MPEG4/ISO/AVC
Продолжительность : 1 ч. 53 м.
Битрейт : 6663 Кбит/сек
Ширина : 1280 пикселей
Высота : 536 пикселей
Соотношение сторон : 2,40:1
Режим частоты кадров : Постоянный
Частота кадров : 23,976 (24000/1001) кадра/сек
Цветовое пространство : YUV
Субдискретизация насыщенности : 4:2:0
Битовая глубина : 8 бит
Тип развёртки : Прогрессивная
Бит/(Пиксели*Кадры) : 0.405
Размер потока : 5,29 Гбайт (93%)
Библиотека кодирования : x264 core 148 r2705+54 9f484c1 t_mod_Custom [8-bit@all X86_64]
Настройки программы : cabac=1 / ref=12 / deblock=1:-3:-3 / analyse=0x3:0x133 / me=tesa / subme=10 / psy=1 / fade_compensate=0.00 / psy_rd=1.05:0.00 / mixed_ref=1 / me_range=24 / chroma_me=1 / trellis=2 / 8x8dct=1 / cqm=0 / deadzone=21,11 / fast_pskip=0 / chroma_qp_offset=-2 / threads=6 / lookahead_threads=1 / sliced_threads=0 / nr=0 / decimate=1 / interlaced=0 / bluray_compat=0 / constrained_intra=0 / fgo=0 / bframes=9 / b_pyramid=2 / b_adapt=2 / b_bias=0 / direct=3 / weightb=1 / open_gop=0 / weightp=2 / keyint=250 / keyint_min=23 / scenecut=40 / intra_refresh=0 / rc_lookahead=60 / rc=crf / mbtree=0 / crf=15.5000 / qcomp=0.60 / qpmin=0:0:0 / qpmax=69:69:69 / qpstep=4 / vbv_maxrate=62500 / vbv_bufsize=78125 / crf_max=0.0 / nal_hrd=none / filler=0 / ip_ratio=1.40 / pb_ratio=1.30 / aq=1:0.80 / aq-sensitivity=10.00 / aq-factor=1.00:1.00:1.00 / aq2=1:0.75 / aq2-sensitivity=15.00 / aq2-factor=1.00:1.00:1.00 / aq3=1:[0.70:0.70]:[0.70:0.70]:[0.70:0.70]:[0.70:0.70] / aq3-sensitivity=10.00 / aq3-factor=[1.00:1.00]:[1.00:1.00]:[1.00:1.00] / aq3-boundary=192:64:24
Язык : English
Default : Да
Forced : Нет
Цветовой диапазон : Limited
Основные цвета : BT.709
Характеристики трансфера : BT.709
Коэффициенты матрицы : BT.709

Аудио
Идентификатор : 2
Формат : AC-3
Формат/Информация : Audio Coding 3
Расширение режима : CM (complete main)
Параметр Endianness формата : Big
Идентификатор кодека : A_AC3
Продолжительность : 1 ч. 53 м.
Вид битрейта : Постоянный
Битрейт : 384 Кбит/сек
Каналы : 6 каналов
Расположение каналов : Front: L C R, Side: L R, LFE
Частота : 48,0 КГц
Частота кадров : 31,250 кадров/сек (1536 spf)
Метод сжатия : С потерями
Размер потока : 312 Мбайт (5%)
Заголовок : Дубляж - iTunes
Язык : Russian
Default : Да
Forced : Нет

Меню
00:00:00.000 : en:00:00:00.000
00:10:41.266 : en:00:10:41.266
00:15:32.265 : en:00:15:32.265
00:23:45.340 : en:00:23:45.340
00:30:56.563 : en:00:30:56.563
00:36:01.367 : en:00:36:01.367
00:45:36.317 : en:00:45:36.317
00:48:48.509 : en:00:48:48.509
00:54:51.455 : en:00:54:51.455
01:01:46.244 : en:01:01:46.244
01:08:32.608 : en:01:08:32.608
01:16:11.609 : en:01:16:11.609
01:22:20.143 : en:01:22:20.143
01:29:52.011 : en:01:29:52.011
01:36:46.092 : en:01:36:46.092
01:42:08.497 : en:01:42:08.497

загрузка...
Правила, инструкции, FAQ!!!
Торрент  Добавлен [17 авг 2016, 21:56] Скачать торрент
Скачать торрент
[ Размер 29.25 КБ / Просмотров 17 ]

Статус
Проверен 
 
Размер  5.7 ГБ
Приватный: Нет (DHT включён)
.torrent скачан  165
Как залить торрент? | Как скачать Torrent? | Как смотреть и слушать онлайн?  


     Отправить личное сообщение
   
Страница 1 из 1
Показать сообщения за:  Поле сортировки  
Начать новую тему Ответить на тему

   Похожие торренты   Автор   Ответы   Просмотры   Последнее сообщение 
В этой теме нет новых непрочитанных сообщений. Скачать торрент Проверен Преступник / Criminal (2016) WEB-DLRip | iTunes

в форуме Фантастика, Фэнтези, Размер: 1.45 ГБ, Здоровье: 100%

Гость

0
165|68

384
18

13 июл 2016, 21:48

Гость Перейти к последнему сообщению

В этой теме нет новых непрочитанных сообщений. Скачать торрент Проверен OST - Преступник / Criminal [Music by Brian Tyler & Keith Power] (2016) FLAC

в форуме Зарубежная музыка, Размер: 309.16 МБ, Здоровье: 100%

Гость

0
70|2

314
12

17 апр 2016, 22:04

Гость Перейти к последнему сообщению

В этой теме нет новых непрочитанных сообщений. Закрыто правообладателем Лев / Lion (2016) BDRip 720p | iTunes Данный торрент является блокированным, причина: Закрыто правообладателем

в форуме 720p | 1080p, Размер: 5.05 ГБ, Здоровье: 100%

Гость

0
206|62

53
289

01 апр 2017, 19:57

Гость Перейти к последнему сообщению

В этой теме нет новых непрочитанных сообщений. Скачать торрент Проверен Инферно / Inferno (2016) BDRip 720p | iTunes

в форуме 720p | 1080p, Размер: 6.35 ГБ, Здоровье: 100%

Гость

0
140|16

39
1

18 янв 2017, 11:04

Гость Перейти к последнему сообщению

В этой теме нет новых непрочитанных сообщений. Скачать торрент Проверен Дэдпул / Deadpool (2016) BDRip 720p | iTunes

в форуме 720p | 1080p, Размер: 5.58 ГБ, Здоровье: 100%

Гость

0
530|397

294
538

27 апр 2016, 19:44

Гость Перейти к последнему сообщению



Сейчас этот форум просматривают: нет зарегистрированных пользователей и гости: 1


Вы не можете начинать темы
Вы не можете отвечать на сообщения
Вы не можете редактировать свои сообщения
Вы не можете удалять свои сообщения
Вы не можете добавлять вложения

Перейти:  

!ВНИМАНИЕ!
 Ресурс не предоставляет электронные версии произведений, а занимается лишь коллекционированием и каталогизацией ссылок, присылаемых и публикуемых на форуме нашими читателями. Если вы являетесь правообладателем какого-либо представленного материала и не желаете чтобы ссылка на него находилась в нашем каталоге, свяжитесь с нами и мы незамедлительно удалим её. Файлы для обмена на трекере предоставлены пользователями сайта, и администрация не несёт ответственности за их содержание. Просьба не заливать файлы, защищенные авторскими правами, а также файлы нелегального содержания!