На всех торрентах на трекере установлена скидка на скачивание в размере 100 процентов(а).
 Возможность скачивания торрента НЕ зависит от ограничений при низком ратио, низком аплоаде, требуемом ратио или требуемом аплоаде.


Начать новую тему Ответить на тему
Статистика раздачи
Размер: 1.46 ГБ | Добавлен: 17 июн 2018, 18:09 | Скачали: 416
Сидеров: 195  [0 байт/сек]    Личеров: 69  [0 байт/сек]
Пред. тема | След. тема 

Автор
Сообщение

СообщениеДобавлено: 17 июн 2018, 18:09 

Ответить с цитатой 

Название: Потерянный в снегах / Идущий по снегу
Оригинальное название: The Snow Walker
Год выхода: 2003
Жанр: драма, приключения
Режиссер: Чарльз Мартин Смит
В ролях: Барри Пеппер, Анабелла Пиугаттук, Джеймс Кромуэлл, Кирстен Уоррен, Джон Грайз, Робин Данн, Малкольм Скотт, Майкл Бубле, Брэд Сивон, Грег Споттисвуд

О фильме: События фильма разворачиваются в 1950-х годах. Тысячи миль арктической пустыни вокруг. Край, который еще не успел разрушить ЧЕЛОВЕК. Чарли Холлидей был рожден для того, чтобы работать в таком месте. Его самолет бороздил воздушное пространство практически в любую погоду, доставляя продовольствие в самые отдаленные уголки Канадской Арктики.

Он привык рисковать жизнью и за хорошее вознаграждение был готов практически на все. Не удивительно, что даже зная о предстоящем буране он согласился доставить в больницу, страдающую от туберкулеза девушку Иунит из местного племени.

Однако даже Чарли не был готов к тому, какую участь уготовила ему судьба. Его верный самолет оказавшийся не в силах противостоять разбушевавшейся стихии, терпит катастрофу и отважный пилот вместе со спутницей, практически не говорящей по-английски, оказывается один на один с бесконечной арктической пустыней.

Теперь эти двое могут надеяться только друг на друга и, чтобы выжить среди снежных просторов им предстоит не только собрать в кулак всю свою волю и мужество, но и наконец-то поверить друг в друга…



Страна: Канада
Студия: British Columbia Film, Canadian Television Fund, Infinity Media, Movie Central Network
Продолжительность: 01:45:19
Перевод: Профессиональный (многоголосый, закадровый) R5

Файл
Формат: AVI
Видео: 704x400 at 23.976 fps, XviD build 73 ~1510 kbps avg
Аудио: Russian: 48 kHz, AC3 Dolby Digital, 3/2 (L,C,R,l,r) + LFE ch, ~384 kbps avg |Многоголосый закадровый, R5|
Субтитры: None

***Релиз - tеko

Общее
Полное имя : The.Snow.Walker.2003.dvdrip_[1.46]_[teko].avi
Формат : AVI
Формат/Информация : Audio Video Interleave
Размер файла : 1,46 Гбайт
Продолжительность : 1 ч. 45 м.
Общий поток : 1981 Кбит/сек
Программа кодирования : VirtualDubMod 1.5.10.3 | http://www.virtualdub-fr.org || (build 2550/release)
Библиотека кодирования : VirtualDubMod build 2550/release

Видео
Идентификатор : 0
Формат : MPEG-4 Visual
Профиль формата : Advanced Simple@L5
Параметр BVOP формата : 2
Параметр QPel формата : Нет
Параметр GMC формата : Без точки перехода
Параметр матрицы формата : Выборочная
Идентификатор кодека : XVID
Идентификатор кодека/Подсказка : XviD
Продолжительность : 1 ч. 45 м.
Битрейт : 1510 Кбит/сек
Ширина : 704 пикселя
Высота : 400 пикселей
Соотношение сторон : 16:9
Частота кадров : 23,976 кадра/сек
Цветовое пространство : YUV
Субдискретизация насыщенности : 4:2:0
Битовая глубина : 8 бит
Тип развёртки : Прогрессивная
Метод сжатия : С потерями
Бит/(Пиксели*Кадры) : 0.224
Размер потока : 1,11 Гбайт (76%)
Библиотека кодирования : XviD 73

Аудио
Идентификатор : 1
Формат : AC-3
Формат/Информация : Audio Coding 3
Расширение режима : CM (complete main)
Параметр Endianness формата : Big
Идентификатор кодека : 2000
Продолжительность : 1 ч. 45 м.
Вид битрейта : Постоянный
Битрейт : 384 Кбит/сек
Каналы : 6 каналов
Расположение каналов : Front: L C R, Side: L R, LFE
Частота : 48,0 КГц
Метод сжатия : С потерями
Размер потока : 289 Мбайт (19%)
Выравнивание : Разделение по промежуткам

загрузка...
Правила, инструкции, FAQ!!!
Торрент  Добавлен [17 июн 2018, 18:09] Скачать торрент Магнет ссылка
Скачать торрент
[ Размер 15.6 КБ / Просмотров 50 ]

Статус
Проверен 
 
Размер  1.46 ГБ
Приватный: Нет (DHT включён)
.torrent скачан  416
Как залить торрент? | Как скачать Torrent? | Ошибка в торренте? Качайте магнет  


     Отправить личное сообщение
   
Страница 1 из 1
Показать сообщения за:  Поле сортировки  
Начать новую тему Ответить на тему

   Похожие торренты   Автор   Ответы   Просмотры   Последнее сообщение 
В этой теме нет новых непрочитанных сообщений. Скачать торрент Проверен Ю Несбё/Jo Nesbø - Кровь на снегу/Blood On Snow [2015, FB2, RTF, RUS]

в форуме Детективы и Боевики, Размер: 1.21 МБ, Здоровье: 100%

Anonymous

0
89|21

437
3

08 сен 2016, 21:23

Anonymous Перейти к последнему сообщению

В этой теме нет новых непрочитанных сообщений. Скачать торрент Проверен (Atmospheric Black Metal) [WEB] Black Lakes (Чёрные Озёра) - In Bloody Snow (В Кровавых Снегах) - 2015, FLAC (tracks), lossless

в форуме Русский рок, Размер: 354.54 МБ, Здоровье: 100%

Anonymous

0
5|1

22
0

01 июл 2018, 10:23

Anonymous Перейти к последнему сообщению

В этой теме нет новых непрочитанных сообщений. Скачать торрент Проверен Моуэт Фарли - Следы на снегу. Путешествие на Коппермайн. Уводящий по снегу [Мурашко Игорь, 2010 г., 96 kbps, MP3]

в форуме Зарубежная литература, Размер: 518.27 МБ, Здоровье: 0%

Anonymous

0
0|0

9
0

08 июл 2018, 11:22

Anonymous Перейти к последнему сообщению

В этой теме нет новых непрочитанных сообщений. Скачать торрент Потерянный / Un homme perdu / A Lost Man (2007) DVDRip | L1

в форуме Драмы, Мелодрамы, Размер: 1.24 ГБ, Здоровье: 0%

Anonymous

0
0|0

59
0

26 мар 2014, 09:33

Anonymous Перейти к последнему сообщению

В этой теме нет новых непрочитанных сообщений. Скачать торрент Проверен Том и Джерри: Потерянный дракон / Tom & Jerry: The Lost Dragon (2014) DVDRip | L1

в форуме Зарубежные мультфильмы, Размер: 1.18 ГБ, Здоровье: 100%

Anonymous

0
201|15

175
6367

28 авг 2014, 15:29

Anonymous Перейти к последнему сообщению



Сейчас этот форум просматривают: нет зарегистрированных пользователей и гости: 1


Вы не можете начинать темы
Вы не можете отвечать на сообщения
Вы не можете редактировать свои сообщения
Вы не можете удалять свои сообщения
Вы не можете добавлять вложения

Перейти:  
Ресурс не предоставляет электронные версии произведений, а занимается лишь коллекционированием и каталогизацией ссылок, присылаемых и публикуемых на форуме нашими читателями. Если вы являетесь правообладателем какого-либо представленного материала и не желаете чтобы ссылка на него находилась в нашем каталоге, свяжитесь с нами и мы незамедлительно удалим её. Файлы для обмена на трекере предоставлены пользователями сайта, и администрация не несёт ответственности за их содержание. Просьба не заливать файлы, защищенные авторскими правами, а также файлы нелегального содержания!
cron