На всех торрентах на трекере установлена скидка на скачивание в размере 100 процентов(а).
 Возможность скачивания торрента НЕ зависит от ограничений при низком ратио, низком аплоаде, требуемом ратио или требуемом аплоаде.


Начать новую тему Ответить на тему
Статистика раздачи
Размер: 1.08 ГБ | Добавлен: 21 окт 2014, 20:55 | Скачали: 3
Сидеров: 44  [0 байт/сек]    Личеров: 9  [0 байт/сек]
Пред. тема | След. тема 

Автор
Сообщение

СообщениеДобавлено: 21 окт 2014, 20:55 

Ответить с цитатой 

Жанр: драма, военный
Год выпуска: 1986
Продолжительность: 01:04:07

Режиссёр: Геннадий Иванов

В ролях:
Евгений Меньшов
Илона Бальсите
Петр Глебов
Юрий Горобец
Анатолий Скорякин
Виктор Жиганов
Сергей Волкош
Юрий Михеенков
Игорь Тарадайкин
Аршак Оганян
Альгирдас Паулавичюс
Андрис Лиелайс
Александр Январёв

Описание:
В ходе подготовки стратегического наступления наших войск в Прибалтике перед разведчиками лейтенанта Фомичёва поставлена непростая задача: захватить и удержать железнодорожный мост до подхода основных сил.

Выполнение задания связано с огромными трудностями: мост хорошо охраняется и, кроме того, заминирован, что позволяет уничтожить его при малейшей опасности. При пересечении линии фронта самолет с группой десантников получает повреждение и не долетает до намеченной точки выброса…

Доп. информация:


Качество видео: SATRip
Формат видео: AVI

Видео: 704x336 (2.10:1), 25 fps, XviD build 65 ~2219 kbps avg, 0.38 bit/pixel
Аудио: 48 kHz, AC3 Dolby Digital, 2/0 (L,R) ch, ~192 kbps

Семпл
Общее
Полное имя : D:\Torrent\Постарайся остаться живым\Постарайся остаться живым_1.09\Постарайся остаться живым_1.09.avi
Формат : AVI
Формат/Информация : Audio Video Interleave
Размер файла : 1,08 Гбайт
Продолжительность : 1 ч. 4 м.
Общий поток : 2422 Кбит/сек
Программа кодирования : VirtualDubMod 1.5.10.3 (build 2550/release)
Библиотека кодирования : VirtualDubMod build 2550/release

Видео
Идентификатор : 0
Формат : MPEG-4 Visual
Профиль формата : Advanced Simple@L5
Параметр BVOP формата : 1
Параметр QPel формата : Нет
Параметр GMC формата : Без точки перехода
Параметр матрицы формата : Выборочная
Идентификатор кодека : XVID
Идентификатор кодека/Подсказка : XviD
Продолжительность : 1 ч. 4 м.
Битрейт : 2220 Кбит/сек
Ширина : 704 пикселя
Высота : 336 пикселей
Соотношение сторон : 2,095
Частота кадров : 25,000 кадров/сек
Цветовое пространство : YUV
Субдискретизация насыщенности : 4:2:0
Битовая глубина : 8 бит
Тип развёртки : Прогрессивная
Метод сжатия : С потерями
Бит/(Пиксели*Кадры) : 0.375
Размер потока : 1018 Мбайт (92%)
Библиотека кодирования : XviD 65

Аудио
Идентификатор : 1
Формат : AC-3
Формат/Информация : Audio Coding 3
Расширение режима : CM (complete main)
Параметр Endianness формата : Big
Идентификатор кодека : 2000
Продолжительность : 1 ч. 4 м.
Вид битрейта : Постоянный
Битрейт : 192 Кбит/сек
Каналы : 2 канала
Расположение каналов : Front: L R
Частота : 48,0 КГц
Битовая глубина : 16 бит
Метод сжатия : С потерями
Размер потока : 88,1 Мбайт (8%)
Выравнивание : Разделение по промежуткам
Продолжительность промежутка : 40 мс. (1,00 видеокадр)
Время предзагрузки промежутка : 500 мс.
загрузка...
Правила, инструкции, FAQ!!!
Торрент  Добавлен [21 окт 2014, 20:55] Скачать торрент Магнет ссылка
Скачать торрент
[ Размер 11.37 КБ / Просмотров 41 ]

Статус
Проверен 
 
Размер  1.08 ГБ
Приватный: Нет (DHT включён)
.torrent скачан  3
Как залить торрент? | Как скачать Torrent? | Ошибка в торренте? Качайте магнет  


     Отправить личное сообщение
   
Страница 1 из 1
Показать сообщения за:  Поле сортировки  
Начать новую тему Ответить на тему

   Похожие торренты   Автор   Ответы   Просмотры   Последнее сообщение 
В этой теме нет новых непрочитанных сообщений. Скачать торрент Проверен [iPad] Не брать живым / Green Zone (Пол Гринграсс / Paul Greengrass ) [2010, Великобритания, Боевик, триллер, драма, военный, BDRip, SD (576p)] DUB + Original + sub (rus, eng)

в форуме Фильмы для iPod, iPhone, iPad, Размер: 2.39 ГБ, Здоровье: 100%

Гость

0
35|3

172
5

18 май 2015, 10:50

Гость Перейти к последнему сообщению

В этой теме нет новых непрочитанных сообщений. Скачать торрент Проверен Чейз Джеймс Хедли - Хотите остаться живым [Николай Козий]

в форуме Детектив и Боевики, Размер: 320.9 МБ, Здоровье: 100%

Anonymous

0
2|1

47
3

20 ноя 2016, 10:42

Anonymous Перейти к последнему сообщению

В этой теме нет новых непрочитанных сообщений. Скачать торрент Не брать живым / Green Zone (Пол Гринграсс / Paul Greengrass) [2010, боевик, триллер, военный, BDRip] Dub

в форуме Боевики, Размер: 1.41 ГБ, Здоровье: 100%

Anonymous

0
36|11

62
1

16 апр 2014, 07:47

Anonymous Перейти к последнему сообщению

В этой теме нет новых непрочитанных сообщений. Скачать торрент Проверен Быстров Геннадий - Скорочтение [Станислав Иванов, 2014 г., 64 kbps, MP3]

в форуме Другие, Размер: 41.63 МБ, Здоровье: 100%

Anonymous

0
123|20

93
6

06 янв 2017, 10:00

Anonymous Перейти к последнему сообщению

В этой теме нет новых непрочитанных сообщений. Скачать торрент Проверен За двумя зайцами (Виктор Иванов) [1961, сатирическая комедия, экранизация, SATRip]

в форуме Кино СССР, Размер: 1.35 ГБ, Здоровье: 100%

Anonymous

0
75|18

320
5

21 окт 2014, 21:01

Anonymous Перейти к последнему сообщению



Сейчас этот форум просматривают: нет зарегистрированных пользователей и гости: 0


Вы не можете начинать темы
Вы не можете отвечать на сообщения
Вы не можете редактировать свои сообщения
Вы не можете удалять свои сообщения
Вы не можете добавлять вложения

Перейти:  
Ресурс не предоставляет электронные версии произведений, а занимается лишь коллекционированием и каталогизацией ссылок, присылаемых и публикуемых на форуме нашими читателями. Если вы являетесь правообладателем какого-либо представленного материала и не желаете чтобы ссылка на него находилась в нашем каталоге, свяжитесь с нами и мы незамедлительно удалим её. Файлы для обмена на трекере предоставлены пользователями сайта, и администрация не несёт ответственности за их содержание. Просьба не заливать файлы, защищенные авторскими правами, а также файлы нелегального содержания!
cron