На всех торрентах на трекере установлена скидка на скачивание в размере 100 процентов(а).
 Возможность скачивания торрента НЕ зависит от ограничений при низком ратио, низком аплоаде, требуемом ратио или требуемом аплоаде.


Начать новую тему Ответить на тему
Статистика раздачи
Размер: 2.18 ГБ | Добавлен: 22 апр 2014, 11:47 | Скачали: 0
Сидеров: 37  [0 байт/сек]    Личеров: 12  [0 байт/сек]
Пред. тема | След. тема 

Автор
Сообщение

СообщениеДобавлено: 22 апр 2014, 11:47 

Ответить с цитатой 

Последний самурай / The Last Samurai
«In the face on an enemy, in the Heart of One Man, Lies the Soul of a Warrior.»

Страна: США / Warner Bros. Pictures, Radar Pictures Inc., The Bedford Falls Company
Жанр: боевик, драма, военный, история
Год выпуска: 2003
Продолжительность: 02:34:11

Перевод: Профессиональный (дублированный) лицензия CEE
Cубтитры: русские (forced) на надписи и японскую речь (внешние)
Режиссёр: Эдвард Цвик / Edward Zwick

В ролях: Кен Ватанабе / Ken Watanabe, Том Круз / Tom Cruise, Коюки / Koyuki, Уильям Этертон / William Atherton, Тони Голдуин / Tony Goldwyn, Билли Коннолли / Billy Connolly, Чэд Линдберг / Chad Lindberg, Тимоти Сполл / Timothy Spall, Шичиносуке Накамура / Shichinosuke Nakamura, Хироюки Санада / Hiroyuki Sanada.

Описание: Действие разворачивается в Японии 70-ых годов девятнадцатого века. Капитан Нейтон Альгрен, уважаемый американский военный офицер, нанят Императором Японии для обучения первой армии Страны Восходящего Солнца современному искусству ведения боевых действий.
Император пытается искоренить древних воинов-самураев, готовясь к более прозападной политике правительства…
Рейтинг
imdb.com: 7.70 (214 466)
kinopoisk.ru: 8.113 (50 200)
MPAA: - лицам до 17 лет обязательно присутствие взрослого
Сэмпл: http://multi-up.com/890643
Качество видео: BDRip
Формат видео: AVI

Видео: XviD build 65, 720x304 (2.37:1), 23.976 fps, ~1630 kbps avg, 0.311 bit/pixel
Аудио: 48 kHz, AC3 Dolby Digital, 3/2 (L,C,R,l,r) + LFE ch, ~384 kbps avg (Dub)
Формат субтитров: softsub (SRT)

MediaInfo
General
Complete name : D\The.Last.Samurai.2003.Dub.BDRip.2,18Gb.XviD.AC3\The.Last.Samurai.2003.Dub.BDRip.2,18Gb.XviD.AC3.avi
Format : AVI
Format/Info : Audio Video Interleave
Format profile : OpenDML
File size : 2.18 GiB
Duration : 2h 34mn
Overall bit rate : 2 026 Kbps
Writing application : VirtualDubModRus 1.5.10.2 (build 2542/release)
Writing library : VirtualDubMod build 2542/release

Video
ID : 0
Format : MPEG-4 Visual
Format profile : Advanced Simple@L5
Format settings, BVOP : 1
Format settings, QPel : No
Format settings, GMC : No warppoints
Format settings, Matrix : Custom
Codec ID : XVID
Codec ID/Hint : XviD
Duration : 2h 34mn
Bit rate : 1 630 Kbps
Width : 720 pixels
Height : 304 pixels
Display aspect ratio : 2.35:1
Frame rate : 23.976 fps
Color space : YUV
Chroma subsampling : 4:2:0
Bit depth : 8 bits
Scan type : Progressive
Compression mode : Lossy
Bits/(Pixel*Frame) : 0.311
Stream size : 1.76 GiB (80%)
Writing library : XviD 65

Audio
ID : 1
Format : AC-3
Format/Info : Audio Coding 3
Mode extension : CM (complete main)
Format settings, Endianness : Big
Codec ID : 2000
Duration : 2h 34mn
Bit rate mode : Constant
Bit rate : 384 Kbps
Channel(s) : 6 channels
Channel positions : Front: L C R, Side: L R, LFE
Sampling rate : 48.0 KHz
Bit depth : 16 bits
Compression mode : Lossy
Stream size : 423 MiB (19%)
Alignment : Split accross interleaves
Interleave, duration : 42 ms (1.00 video frame)
Interleave, preload duration : 500 ms
Title : Dub
Скриншоты
загрузка...
Правила, инструкции, FAQ!!!
Торрент  Добавлен [22 апр 2014, 11:47] Скачать торрент Магнет ссылка
Скачать торрент
[ Размер 11.58 КБ / Просмотров 5 ]

Статус  
 
Размер  2.18 ГБ
Приватный: Нет (DHT включён)
.torrent скачан  0
Как залить торрент? | Как скачать Torrent? | Как смотреть и слушать онлайн?  


     Отправить личное сообщение
   
Страница 1 из 1
Показать сообщения за:  Поле сортировки  
Начать новую тему Ответить на тему

   Похожие торренты   Автор   Ответы   Просмотры   Последнее сообщение 
В этой теме нет новых непрочитанных сообщений. Скачать торрент Проверен Последний самурай / The Last Samurai (2003) BDRip

в форуме 720p | 1080p, Размер: 4.15 ГБ, Здоровье: 100%

Гость

0
46|12

72
419

04 дек 2014, 17:19

Гость Перейти к последнему сообщению

В этой теме нет новых непрочитанных сообщений. Скачать торрент Проверен Последний самурай / The Last Samurai (2003) BDRip 720p

в форуме 720p | 1080p, Размер: 3.59 ГБ, Здоровье: 100%

Гость

0
63|4

57
40

04 дек 2014, 17:15

Гость Перейти к последнему сообщению

В этой теме нет новых непрочитанных сообщений. Скачать торрент Проверен Звезда (Николай Лебедев) [2002, Россия, боевик, драма, приключения, военный, история., BDRip 720p] Sub eng

в форуме Наше кино (HD Video), Размер: 4.37 ГБ, Здоровье: 91%

Anonymous

0
11|12

61
0

12 апр 2015, 11:06

Anonymous Перейти к последнему сообщению

В этой теме нет новых непрочитанных сообщений. Скачать торрент Проверен Звезда (Николай Лебедев) [2002, Россия, боевик, драма, приключения, военный, история, Blu-ray disc 1080p] Sub eng

в форуме Наше кино (HD Video), Размер: 19.61 ГБ, Здоровье: 100%

Гость

0
11|4

67
0

12 апр 2015, 10:56

Гость Перейти к последнему сообщению

В этой теме нет новых непрочитанных сообщений. Скачать торрент Проверен Александр / Alexander (Оливер Стоун) [2004 г., боевик, мелодрама, драма, приключения, военный, биография, история, DVDRip]

в форуме Фильмы для iPod, iPhone, iPad, Размер: 667.45 МБ, Здоровье: 100%

Гость

0
1|0

94
0

14 май 2015, 00:21

Гость Перейти к последнему сообщению



Сейчас этот форум просматривают: нет зарегистрированных пользователей и гости: 1


Вы не можете начинать темы
Вы не можете отвечать на сообщения
Вы не можете редактировать свои сообщения
Вы не можете удалять свои сообщения
Вы не можете добавлять вложения


!ВНИМАНИЕ!
 Ресурс не предоставляет электронные версии произведений, а занимается лишь коллекционированием и каталогизацией ссылок, присылаемых и публикуемых на форуме нашими читателями. Если вы являетесь правообладателем какого-либо представленного материала и не желаете чтобы ссылка на него находилась в нашем каталоге, свяжитесь с нами и мы незамедлительно удалим её. Файлы для обмена на трекере предоставлены пользователями сайта, и администрация не несёт ответственности за их содержание. Просьба не заливать файлы, защищенные авторскими правами, а также файлы нелегального содержания!