На всех торрентах на трекере установлена скидка на скачивание в размере 100 процентов(а).
 Возможность скачивания торрента НЕ зависит от ограничений при низком ратио, низком аплоаде, требуемом ратио или требуемом аплоаде.


Начать новую тему Ответить на тему
Статистика раздачи
Размер: 1.71 ГБ | Добавлен: 05 май 2016, 19:15 | Скачали: 3
Сидеров: 51  [0 байт/сек]    Личеров: 14  [0 байт/сек]
Пред. тема | След. тема 

Автор
Сообщение

СообщениеДобавлено: 05 май 2016, 19:15 

Ответить с цитатой 

Название: Последний рубеж
Оригинальное название: The Last Patrol
Год выхода: 2000
Жанр: фантастика, боевик, триллер, драма
Режиссер: Шелдон Леттич / Sheldon Lettich
В ролях: Дольф Лундгрен, Шерри Александр, Джо Майкл Бурк, Ребекка Кросс, Брук Сьюзэн Паркер, Юлиано Мер, Зеев Ревах, Анжелика Леттич, Терри Биг Чарльз, Ховард Рипп, Джилья Штерн, Ишай Голан, Джек Эдалист, Нати Равиц, Йоав Декельбаум, Джессика Леттич, Джей Коллер.

О фильме:
Колоссальное по силе землетрясение низвергло пылающий ад на штат Калифорния. За считанные секунды гигантская волна накрыла материк, образовав новый океан, волны которого омывают призрачный остров. Могучая цивилизация стала лишь вехой истории, оставив после себя гигантскую свалку ядовитых отходов и супермощного оружия.

Страшные эпидемии рассеялись по опустевшей земле в поисках выживших. Три кочевника — защитники старого мира и спасители нового, верные служители армии на земле, в воздухе и под водой — объединили свои силы для одной миссии — возродить жизнь на оскверненных землях.
Страна: США, Израиль
Продолжительность: 01:34:24
Перевод: Профессиональный (двухголосый закадровый) Премьер Видео Фильм
Перевод 2: Профессиональный (многоголосый закадровый) РТР


Кодек: XviD
Качество: HDRip
Видео: 704x384 (1.83:1), 24 fps, XviD build 73 ~2012 kbps avg, 0.31 bit/pixel
Аудио 1: 48 kHz, AC3 Dolby Digital, 2/0 (L,R) ch, ~192 kbps | Премьер Видео Фильм
Аудио 2: 48 kHz, AC3 Dolby Digital, 2/0 (L,R) ch, ~192 kbps | РТР (отдельно)
Аудио 3: 48 kHz, AC3 Dolby Digital, 2/0 (L,R) ch, ~192 kbps | ENG (отдельно)



General
Format : AVI
Format/Info : Audio Video Interleave
File size : 1.46 GiB
Duration : 1h 34mn
Overall bit rate : 2 214 Kbps
Writing application : VirtualDubMod 1.5.10.3 | http://www.virtualdub-fr.org || (build 2550/release)
Writing library : VirtualDubMod build 2550/release

Video
ID : 0
Format : MPEG-4 Visual
Format profile : Advanced Simple@L5
Format settings, BVOP : 1
Format settings, QPel : No
Format settings, GMC : No warppoints
Format settings, Matrix : Custom
Codec ID : XVID
Codec ID/Hint : XviD
Duration : 1h 34mn
Bit rate : 2 013 Kbps
Width : 704 pixels
Height : 384 pixels
Display aspect ratio : 1.85:1
Frame rate : 24.000 fps
Color space : YUV
Chroma subsampling : 4:2:0
Bit depth : 8 bits
Scan type : Progressive
Compression mode : Lossy
Bits/(Pixel*Frame) : 0.310
Stream size : 1.33 GiB (91%)
Writing library : XviD 73

Audio
ID : 1
Format : AC-3
Format/Info : Audio Coding 3
Mode extension : CM (complete main)
Format settings, Endianness : Big
Codec ID : 2000
Duration : 1h 34mn
Bit rate mode : Constant
Bit rate : 192 Kbps
Channel(s) : 2 channels
Channel positions : Front: L R
Sampling rate : 48.0 KHz
Bit depth : 16 bits
Compression mode : Lossy
Stream size : 130 MiB (9%)
Alignment : Split accross interleaves
Interleave, duration : 42 ms (1.00 video frame)
Interleave, preload duration : 500 ms




Релиз от:

Автор рипа: Sem-te
Правила, инструкции, FAQ!!!
Торрент  Добавлен [05 май 2016, 19:15] Скачать торрент Магнет ссылка
Скачать торрент
[ Размер 18.21 КБ / Просмотров 51 ]

Статус
Проверен 
 
Размер  1.71 ГБ
Приватный: Нет (DHT включён)
.torrent скачан  3
Как залить торрент? | Как скачать Torrent? | Ошибка в торренте? Качайте магнет  
загрузка...


     Отправить личное сообщение
   
Страница 1 из 1
Показать сообщения за:  Поле сортировки  
Начать новую тему Ответить на тему

   Похожие торренты   Автор   Ответы   Просмотры   Последнее сообщение 
В этой теме нет новых непрочитанных сообщений. Скачать торрент Обновлён Последний рубеж / Homefront (2013) HDRip | D | Лицензия

в форуме Боевики, Размер: 1.45 ГБ, Здоровье: 100%

Гость

0
39|0

146
17

31 янв 2014, 23:28

Гость Перейти к последнему сообщению

В этой теме нет новых непрочитанных сообщений. Скачать торрент Последний рубеж / Homefront (2013) HDRip | Чистый звук

в форуме Боевики, Размер: 1.46 ГБ, Здоровье: 100%

Anonymous

0
1|0

97
0

25 фев 2014, 10:44

Anonymous Перейти к последнему сообщению

В этой теме нет новых непрочитанных сообщений. Скачать торрент Проверен Кинг Стивен - Последний рубеж (Противостояние) [Тамара Швец, 2000 г., 48, MP3]

в форуме Зарубежная фантастика, фэнтези, мистика, ужасы, Размер: 690.23 МБ, Здоровье: 100%

Anonymous

0
55|17

44
0

11 сен 2016, 12:35

Anonymous Перейти к последнему сообщению

В этой теме нет новых непрочитанных сообщений. Скачать торрент Проверен [VIDEO] Последний рубеж / Homefront (Гэри Фледер / Gary Fleder) [2013г, США, боевик, криминал, HDRip][MP4, 640x] Dub

в форуме Видео для смартфонов и КПК, Размер: 876.69 МБ, Здоровье: 100%

Anonymous

0
38|12

93
0

02 авг 2014, 16:54

Anonymous Перейти к последнему сообщению

В этой теме нет новых непрочитанных сообщений. Скачать торрент Проверен [iPad] Последний рубеж / Homefront (Гэри Фледер / Gary Fleder ) [2013, США, боевик, криминал, HDRip, SD (576p)] DUB (Line) + Original

в форуме Фильмы для iPod, iPhone, iPad, Размер: 1.71 ГБ, Здоровье: 66%

Anonymous

0
2|3

28
1

24 дек 2017, 22:37

Anonymous Перейти к последнему сообщению



Сейчас этот форум просматривают: нет зарегистрированных пользователей и гости: 0


Вы не можете начинать темы
Вы не можете отвечать на сообщения
Вы не можете редактировать свои сообщения
Вы не можете удалять свои сообщения
Вы не можете добавлять вложения

Перейти:  
Ресурс не предоставляет электронные версии произведений, а занимается лишь коллекционированием и каталогизацией ссылок, присылаемых и публикуемых на форуме нашими читателями. Если вы являетесь правообладателем какого-либо представленного материала и не желаете чтобы ссылка на него находилась в нашем каталоге, свяжитесь с нами и мы незамедлительно удалим её. Файлы для обмена на трекере предоставлены пользователями сайта, и администрация не несёт ответственности за их содержание. Просьба не заливать файлы, защищенные авторскими правами, а также файлы нелегального содержания!
cron