На всех торрентах на трекере установлена скидка на скачивание в размере 100 процентов(а).
 Возможность скачивания торрента НЕ зависит от ограничений при низком ратио, низком аплоаде, требуемом ратио или требуемом аплоаде.


Начать новую тему Ответить на тему
Статистика раздачи
Размер: 1.45 ГБ | Добавлен: 21 окт 2014, 20:54 | Скачали: 7
Сидеров: 371  [0 байт/сек]    Личеров: 14  [0 байт/сек]
Пред. тема | След. тема 

Автор
Сообщение

СообщениеДобавлено: 21 окт 2014, 20:54 

Ответить с цитатой 

Попугай, говорящий на идиш

Жанр: драма, комедия, экранизация
Год выпуска: 1990
Продолжительность: 1:24:06

Режиссёр: Эфраим Севела

В ролях: Рамаз Иоселиани, Авангард Леонтьев, Марина Полицеймако, Семён Фарада, Альгис Матулёнис, Аудрис Мечисловас Хадаравичюс, Анна Афанасьева, Юлия Менакерман, Карина Моритц, Вадим Жук

Описание: По повести Эфраима Севелы "Мама".

Так и не научившись завязывать шнурки, тем не менее благодаря именно этому свойству своих рук, молодой Янкель в годы второй мировой войны будет и наемным легионером, и попадет в плен, и пройдет по Сицилии с армией союзников, и окажется в Индокитае. И везде ему слава ! Оставшемуся в живых орденоносцу Янкелю...

Доп. информация: Производство: Киносервис, "Примодесса-фильм"
Эфраим Севела снял горькую комедию о еврейском Иванушке-дурачке по имени Янкель, которому угораздило родиться в Вильнюсе, ставшем яблоком раздора между Польшей, Германией и Россией в 30-х-40-х годах ХХ века. В этом фильме с ироничным названием "Попугай, говорящий на идиш" бедняга Янкель успевает побывать польским солдатом, заключенным в сибирском лагере, бойцом польской дивизии, сражавшейся в Африке против армии Роммеля, безработным, французским легионером в Индокитае, военнопленным в Таиланде и снова заключенным ГУЛАГа...

Таковы невероятные похождения еврейского Швейка. Эфраим Севела рассказывает эту историю как бы скороговоркой, не останавливаясь на деталях. Тема маленького человека, попавшего под сокрушительный пресс "высших государственных интересов", которые на практике сводились к борьбе за власть, войнам и массовому истреблению людей, конечно, не нова для искусства. Однако фильм "Попугай, говорящий на идиш" сделан весьма профессионально, и его смех сквозь слезы несмотря ни на что помогает сохранить главному герою остатки оптимизма...
Семпл: https://www.sendspace.com/file/krme8a

Качество видео: SATRip
Формат видео: AVI

Видео: XviD MPEG-4 , 704x528 (1.33:1) , 25 fps , 2 273 Kbps
Аудио: AC3 , 48 kHz , 192.00 kbps avg , 2/0 (L,R) ch
Complete name Попугай говорящий на идиш 1990.avi
Format : AVI
Format/Info : Audio Video Interleave
File size : 1.45 GiB
Duration : 1h 24mn
Overall bit rate : 2 475 Kbps
Writing library : VirtualDub build 35491/release

Video
ID : 0
Format : MPEG-4 Visual
Format profile : Advanced Simple@L5
Format settings, BVOP : 2
Format settings, QPel : No
Format settings, GMC : No warppoints
Format settings, Matrix : Default (H.263)
Codec ID : XVID
Codec ID/Hint : XviD
Duration : 1h 24mn
Bit rate : 2 273 Kbps
Width : 704 pixels
Height : 528 pixels
Display aspect ratio : 4:3
Frame rate : 25.000 fps
Color space : YUV
Chroma subsampling : 4:2:0
Bit depth : 8 bits
Scan type : Progressive
Compression mode : Lossy
Bits/(Pixel*Frame) : 0.245
Stream size : 1.34 GiB (92%)
Writing library : XviD 1.2.1 (UTC 2008-12-04)

Audio
ID : 1
Format : AC-3
Format/Info : Audio Coding 3
Mode extension : CM (complete main)
Format settings, Endianness : Big
Codec ID : 2000
Duration : 1h 24mn
Bit rate mode : Constant
Bit rate : 192 Kbps
Channel(s) : 2 channels
Channel positions : Front: L R
Sampling rate : 48.0 KHz
Bit depth : 16 bits
Compression mode : Lossy
Stream size : 116 MiB (8%)
Alignment : Aligned on interleaves
Interleave, duration : 40 ms (1.00 video frame)
Interleave, preload duration : 512 ms
загрузка...
Правила, инструкции, FAQ!!!
Торрент  Добавлен [21 окт 2014, 20:54] Скачать торрент Магнет ссылка
Скачать торрент
[ Размер 15.17 КБ / Просмотров 145 ]

Статус
Проверен 
 
Размер  1.45 ГБ
Приватный: Нет (DHT включён)
.torrent скачан  7
Как залить торрент? | Как скачать Torrent? | Ошибка в торренте? Качайте магнет  


     Отправить личное сообщение
   
Страница 1 из 1
Показать сообщения за:  Поле сортировки  
Начать новую тему Ответить на тему

   Похожие торренты   Автор   Ответы   Просмотры   Последнее сообщение 
В этой теме нет новых непрочитанных сообщений. Скачать торрент Проверен Эфраим Севела - Собрание сочинений [с 1971-го, fb2]

в форуме Русская литература, Размер: 6.3 МБ, Здоровье: 100%

Anonymous

0
74|15

210
6

08 сен 2016, 00:07

Anonymous Перейти к последнему сообщению

В этой теме нет новых непрочитанных сообщений. Скачать торрент Проверен За двумя зайцами (Виктор Иванов) [1961, сатирическая комедия, экранизация, SATRip]

в форуме Кино СССР, Размер: 1.35 ГБ, Здоровье: 100%

Anonymous

0
75|18

320
5

21 окт 2014, 21:01

Anonymous Перейти к последнему сообщению

В этой теме нет новых непрочитанных сообщений. Скачать торрент Проверен Судьба барабанщика (Александр Игишев) [1976, драма, экранизация, SATRip]

в форуме Детское, Семейное кино, Размер: 3.27 ГБ, Здоровье: 100%

Гость

0
18|6

139
0

10 апр 2016, 20:26

Гость Перейти к последнему сообщению

В этой теме нет новых непрочитанных сообщений. Скачать торрент Проверен Троянский конь / Амнистия (Валерий Пономарёв) [1980, сатирическая комедия, экранизация, SATRip] телеверсия

в форуме Кино СССР, Размер: 1.44 ГБ, Здоровье: 100%

Anonymous

0
88|12

368
16

21 окт 2014, 21:01

Anonymous Перейти к последнему сообщению

В этой теме нет новых непрочитанных сообщений. Скачать торрент Простак / Simple (Иван Кальберак / Ivan Calberac / Ivan Calbérac) [2010, Франция, драма, комедия, экранизация, DVB] Original (Fre) + Sub (rus)

в форуме 720p | 1080p, Размер: 2.59 ГБ, Здоровье: 100%

Anonymous

0
9|8

167
5

11 фев 2014, 09:14

Anonymous Перейти к последнему сообщению



Сейчас этот форум просматривают: нет зарегистрированных пользователей и гости: 0


Вы не можете начинать темы
Вы не можете отвечать на сообщения
Вы не можете редактировать свои сообщения
Вы не можете удалять свои сообщения
Вы не можете добавлять вложения

Перейти:  
Ресурс не предоставляет электронные версии произведений, а занимается лишь коллекционированием и каталогизацией ссылок, присылаемых и публикуемых на форуме нашими читателями. Если вы являетесь правообладателем какого-либо представленного материала и не желаете чтобы ссылка на него находилась в нашем каталоге, свяжитесь с нами и мы незамедлительно удалим её. Файлы для обмена на трекере предоставлены пользователями сайта, и администрация не несёт ответственности за их содержание. Просьба не заливать файлы, защищенные авторскими правами, а также файлы нелегального содержания!
cron