На всех торрентах на трекере установлена скидка на скачивание в размере 100 процентов(а).
 Возможность скачивания торрента НЕ зависит от ограничений при низком ратио, низком аплоаде, требуемом ратио или требуемом аплоаде.


Начать новую тему Ответить на тему
Статистика раздачи
Размер: 118.6 МБ | Добавлен: 16 апр 2018, 23:04 | Скачали: 0
Сидеров: 3  [0 байт/сек]    Личеров: 1  [0 байт/сек]
Пред. тема | След. тема 

Автор
Сообщение

СообщениеДобавлено: 16 апр 2018, 23:04 

Ответить с цитатой 

Валерий Ободзинский - Олеандр
Жанр: Pop
Носитель: 7"
Год выпуска: 1978
Лейбл: Мелодия, M62-40773-4
Страна-производитель: СССР, Ленинградский завод грампластинок
Аудио кодек: FLAC
Тип рипа: tracks
Формат записи: 24/96 mono
Формат раздачи: 24/96 mono
Продолжительность: 12:14
Треклист:
A1. Олеандр (С.Влавианос) [3:53]
A2. Мне снится море (Рахбани) [2:46]
B. Где же ты (Б.Уорд) [5:35]
Русские тексты: Онегин Гаджикасимов
Оркестр и хор п/у Е.Пустельника
Источник оцифровки: выполнена автором раздачи
Код класса состояния винила: VG++
Устройство воспроизведения: Micro Seiki DD7
Головка звукоснимателя: AT-MONO3/LP (MC)
Повышающий трансформатор: Denon AU-320
Предварительный усилитель: Sander'Z tube / схема А.Торреса
АЦП: Tascam US-122mkII
Программа-оцифровщик: Audacity 2.1.0
Обработка: никакой, только удаление крупных щелчков, декликер в паузах
foobar2000 1.3.10 / Dynamic Range Meter 1.1.1
log date: 2017-08-12 11:51:39
--------------------------------------------------------------------------------
Analyzed: Валерий Ободзинский / Олеандр 7"EP
--------------------------------------------------------------------------------
DR Peak RMS Duration Track
--------------------------------------------------------------------------------
DR10 -3.82 dB -16.16 dB 5:35 ?-Где же ты? (Б.Уорд - русский текст О.Гаджикасимова)
DR10 -2.56 dB -16.00 dB 2:47 ?-Мне снится море (Рахбани русский текст О.Гаджикасимова)
DR10 -1.46 dB -13.54 dB 3:54 ?-Олеандр (С.Влавианос - русский текст О.Гаджикасимова)
--------------------------------------------------------------------------------
Number of tracks: 3
Official DR value: DR10
Samplerate: 96000 Hz
Channels: 1
Bits per sample: 24
Bitrate: 1369 kbps
Codec: FLAC
================================================================================
загрузка...
Правила, инструкции, FAQ!!!
Торрент  Добавлен [16 апр 2018, 23:04] Скачать торрент Магнет ссылка
Скачать торрент
[ Размер 19.35 КБ / Просмотров 56 ]

Статус
Проверен 
 
Размер  118.6 МБ
Приватный: Нет (DHT включён)
.torrent скачан  0
Как залить торрент? | Как скачать Torrent? | Ошибка в торренте? Качайте магнет  


     Отправить личное сообщение
   
Страница 1 из 1
Показать сообщения за:  Поле сортировки  
Начать новую тему Ответить на тему

   Похожие торренты   Автор   Ответы   Просмотры   Последнее сообщение 
В этой теме нет новых непрочитанных сообщений. Скачать торрент Проверен (Pop) [7"] [24/96] Валерий Ободзинский - Олеандр - 1978, FLAC (image+.cue)

в форуме Отечественная поп-музыка (оцифровки), Размер: 100.84 МБ, Здоровье: 0%

Anonymous

0
0|0

0
0

16 апр 2018, 22:03

Anonymous Перейти к последнему сообщению

В этой теме нет новых непрочитанных сообщений. Скачать торрент Проверен (Pop, Retro) [7"] [MONO] [24/96] Валерий Ободзинский - Поёт Валерий Ободзинский - 1974, FLAC (image+.cue)

в форуме Отечественная поп-музыка (оцифровки), Размер: 114.01 МБ, Здоровье: 0%

Anonymous

0
0|0

1
0

16 апр 2018, 21:57

Anonymous Перейти к последнему сообщению

В этой теме нет новых непрочитанных сообщений. Скачать торрент Проверен (Pop, Retro) [7"] [MONO] [24/96] Валерий Ободзинский - Поёт Валерий Ободзинский - 1973, FLAC (image+.cue)

в форуме Отечественная поп-музыка (оцифровки), Размер: 149.28 МБ, Здоровье: 0%

Anonymous

0
0|0

1
0

16 апр 2018, 21:57

Anonymous Перейти к последнему сообщению

В этой теме нет новых непрочитанных сообщений. Скачать торрент Проверен (Pop, Vocal) [Flexi][MONO] [24/96] Валерий Ободзинский - Поёт Валерий Ободзинский - 1969, FLAC (image+.cue)

в форуме Отечественная поп-музыка (оцифровки), Размер: 189.86 МБ, Здоровье: 0%

Anonymous

0
0|0

1
0

16 апр 2018, 21:56

Anonymous Перейти к последнему сообщению

В этой теме нет новых непрочитанных сообщений. Скачать торрент Проверен (Pop, Vocal) [LP] [MONO] [24/96] Валерий Ободзинский - Поёт Валерий Ободзинский (Карнавал) - 1970, WavPack (image+.cue)

в форуме Отечественная поп-музыка (оцифровки), Размер: 683.35 МБ, Здоровье: 0%

Anonymous

0
0|0

1
0

16 апр 2018, 22:20

Anonymous Перейти к последнему сообщению



Сейчас этот форум просматривают: нет зарегистрированных пользователей и гости: 0


Вы не можете начинать темы
Вы не можете отвечать на сообщения
Вы не можете редактировать свои сообщения
Вы не можете удалять свои сообщения
Вы не можете добавлять вложения

Перейти:  
Ресурс не предоставляет электронные версии произведений, а занимается лишь коллекционированием и каталогизацией ссылок, присылаемых и публикуемых на форуме нашими читателями. Если вы являетесь правообладателем какого-либо представленного материала и не желаете чтобы ссылка на него находилась в нашем каталоге, свяжитесь с нами и мы незамедлительно удалим её. Файлы для обмена на трекере предоставлены пользователями сайта, и администрация не несёт ответственности за их содержание. Просьба не заливать файлы, защищенные авторскими правами, а также файлы нелегального содержания!
cron