На всех торрентах на трекере установлена скидка на скачивание в размере 100 процентов(а).
 Возможность скачивания торрента НЕ зависит от ограничений при низком ратио, низком аплоаде, требуемом ратио или требуемом аплоаде.


Начать новую тему Ответить на тему
Статистика раздачи
Размер: 329.94 МБ | Добавлен: 15 авг 2016, 17:41 | Скачали: 0
Сидеров: 0  [0 байт/сек]    Личеров: 0  [0 байт/сек]
Пред. тема | След. тема 

Автор
Сообщение

СообщениеДобавлено: 15 авг 2016, 17:41 

Ответить с цитатой 

Pauline Ester / De L'autre Cote

Жанр: Pop
Страна-производитель диска: Japan
Год издания: 1993
Издатель (лейбл): Polydor
Номер по каталогу: POCP-1290
Страна: France
Аудиокодек: FLAC (*.flac)
Тип рипа: tracks+.cue
Битрейт аудио: lossless
Продолжительность: 36:53
Источник (релизер): what...
Наличие сканов в содержимом раздачи: нет
Треклист:
1. Peace & Love 4:01
2. Les Hommes A Genoux 4:38
3. La Vie Facile 4:24
4. De L'Autre Cote 4:09
5. Elle A Le Temps, Elle Attend 4:23
6. C'Est L'Amour 3:43
7. Jimi 4:00
8. Il Ne Veut Pas De Moi 4:16
9. Sur Ton Repondeur 3:41
10. Personne 3:41
11. Ça Me Plait 4:28
12. Les Chansons D'Amour 3:52
Код:
Exact Audio Copy V1.0 beta 3 from 29. August 2011

EAC extraction logfile from 23. March 2012, 20:15

Pauline Ester / De l'autre côté

Used drive  : HL-DT-STDVD+-RW GA31N   Adapter: 0  ID: 1

Read mode               : Secure
Utilize accurate stream : Yes
Defeat audio cache      : Yes
Make use of C2 pointers : No

Read offset correction                      : 103
Overread into Lead-In and Lead-Out          : No
Fill up missing offset samples with silence : Yes
Delete leading and trailing silent blocks   : No
Null samples used in CRC calculations       : Yes
Used interface                              : Native Win32 interface for Win NT & 2000
Gap handling                                : Appended to previous track

Used output format              : User Defined Encoder
Selected bitrate                : 1024 kBit/s
Quality                         : High
Add ID3 tag                     : No
Command line compressor         : C:\Program Files (x86)\Exact Audio Copy\Flac\flac.exe
Additional command line options : -8 -V -T "ARTIST=%artist%" -T "TITLE=%title%" -T "ALBUM=%albumtitle%" -T "DATE=%year%" -T "TRACKNUMBER=%tracknr%" -T "GENRE=%genre%" -T "PERFORMER=%albuminterpret%" -T "COMPOSER=%composer%" %haslyrics%--tag-from-file=LYRICS="%lyricsfile%"%haslyrics% -T "ALBUMARTIST=%albumartist%" -T "DISCNUMBER=%cdnumber%" -T "TOTALDISCS=%totalcds%" -T "TOTALTRACKS=%numtracks%" -T "COMMENT=%comment%" %source% -o %dest%

TOC of the extracted CD

     Track |   Start  |  Length  | Start sector | End sector
    ---------------------------------------------------------
        1  |  0:00.33 |  4:01.00 |        33    |    18107
        2  |  4:01.33 |  4:39.00 |     18108    |    39032
        3  |  8:40.33 |  4:24.10 |     39033    |    58842
        4  | 13:04.43 |  4:09.55 |     58843    |    77572
        5  | 17:14.23 |  4:23.62 |     77573    |    97359
        6  | 21:38.10 |  3:43.53 |     97360    |   114137
        7  | 25:21.63 |  4:00.20 |    114138    |   132157
        8  | 29:22.08 |  4:17.25 |    132158    |   151457
        9  | 33:39.33 |  3:40.45 |    151458    |   168002
       10  | 37:20.03 |  3:42.05 |    168003    |   184657
       11  | 41:02.08 |  4:28.20 |    184658    |   204777
       12  | 45:30.28 |  3:52.30 |    204778    |   222207

Track  1

     Filename C:\EAC\01 Peace and love.wav

     Pre-gap length  0:00:02.44

     Peak level 93.0 %
     Extraction speed 1.1 X
     Track quality 99.9 %
     Test CRC B8DC9173
     Copy CRC B8DC9173
     Accurately ripped (confidence 2)  [59E0179E]  (AR v1)
     Copy OK

Track  2

     Filename C:\EAC\02 Les hommes à genoux.wav

     Pre-gap length  0:00:01.00

     Peak level 76.9 %
     Extraction speed 1.4 X
     Track quality 100.0 %
     Test CRC 2CF4149E
     Copy CRC 2CF4149E
     Accurately ripped (confidence 2)  [72FE7390]  (AR v1)
     Copy OK

Track  3

     Filename C:\EAC\03 La vie facile.wav

     Peak level 89.1 %
     Extraction speed 1.5 X
     Track quality 100.0 %
     Test CRC 15623F15
     Copy CRC 15623F15
     Accurately ripped (confidence 2)  [FD4D579C]  (AR v1)
     Copy OK

Track  4

     Filename C:\EAC\04 De l'autre côté.wav

     Peak level 81.7 %
     Extraction speed 1.6 X
     Track quality 100.0 %
     Test CRC 8951EF74
     Copy CRC 8951EF74
     Accurately ripped (confidence 2)  [3F295F50]  (AR v1)
     Copy OK

Track  5

     Filename C:\EAC\05 Elle a le temps, elle attend.wav

     Peak level 89.5 %
     Extraction speed 1.8 X
     Track quality 100.0 %
     Test CRC 35A21FDE
     Copy CRC 35A21FDE
     Accurately ripped (confidence 2)  [5B9947B9]  (AR v1)
     Copy OK

Track  6

     Filename C:\EAC\06 C'est l'amour.wav

     Peak level 86.3 %
     Extraction speed 1.8 X
     Track quality 100.0 %
     Test CRC E36F3680
     Copy CRC E36F3680
     Accurately ripped (confidence 2)  [513A3A5C]  (AR v1)
     Copy OK

Track  7

     Filename C:\EAC\07 Jimi.wav

     Pre-gap length  0:00:01.00

     Peak level 80.9 %
     Extraction speed 1.9 X
     Track quality 100.0 %
     Test CRC D03B12CE
     Copy CRC D03B12CE
     Accurately ripped (confidence 2)  [168ED29D]  (AR v1)
     Copy OK

Track  8

     Filename C:\EAC\08 Il ne veut pas de moi.wav

     Peak level 98.0 %
     Extraction speed 2.0 X
     Track quality 100.0 %
     Test CRC C01B862B
     Copy CRC C01B862B
     Accurately ripped (confidence 2)  [4C41F7C1]  (AR v1)
     Copy OK

Track  9

     Filename C:\EAC\09 Sur ton répondeur.wav

     Peak level 72.0 %
     Extraction speed 2.1 X
     Track quality 100.0 %
     Test CRC 7DD3D360
     Copy CRC 7DD3D360
     Accurately ripped (confidence 2)  [224881DA]  (AR v1)
     Copy OK

Track 10

     Filename C:\EAC\10 Personne.wav

     Peak level 90.0 %
     Extraction speed 1.9 X
     Track quality 99.9 %
     Test CRC C31EAB25
     Copy CRC C31EAB25
     Accurately ripped (confidence 2)  [BE55EFE4]  (AR v1)
     Copy OK

Track 11

     Filename C:\EAC\11 Ca me plait.wav

     Pre-gap length  0:00:01.00

     Peak level 96.6 %
     Extraction speed 2.0 X
     Track quality 99.9 %
     Test CRC 1F800D69
     Copy CRC 1F800D69
     Accurately ripped (confidence 2)  [6AA4FC51]  (AR v1)
     Copy OK

Track 12

     Filename C:\EAC\12 Les chansons d'amour.wav

     Pre-gap length  0:00:02.44

     Peak level 59.4 %
     Extraction speed 2.1 X
     Track quality 99.9 %
     Test CRC 1A6B2F0A
     Copy CRC 1A6B2F0A
     Accurately ripped (confidence 2)  [83708051]  (AR v1)
     Copy OK

All tracks accurately ripped

No errors occurred

End of status report

==== Log checksum 9756630F5AE1B340EAB2626DC7430080F85411890C3C16183AB814466F69AA62 ====
Код:
REM GENRE Chanson
REM DATE 1992
REM DISCID 810B920C
REM COMMENT "ExactAudioCopy v1.0b3"
PERFORMER "Pauline Ester"
TITLE "De l'autre сote"
FILE "01 Peace and love.wav" WAVE
  TRACK 01 AUDIO
    TITLE "Peace and love"
    PERFORMER "Pauline Ester"
    ISRC FRZ029201380
    PREGAP 00:00:33
    INDEX 01 00:00:00
  TRACK 02 AUDIO
    TITLE "Les hommes а genoux"
    PERFORMER "Pauline Ester"
    ISRC FRZ029201500
    INDEX 00 04:00:00
FILE "02 Les hommes а genoux.wav" WAVE
    INDEX 01 00:00:00
FILE "03 La vie facile.wav" WAVE
  TRACK 03 AUDIO
    TITLE "La vie facile"
    PERFORMER "Pauline Ester"
    ISRC FRZ029201510
    INDEX 01 00:00:00
FILE "04 De l'autre cote.wav" WAVE
  TRACK 04 AUDIO
    TITLE "De l'autre cote"
    PERFORMER "Pauline Ester"
    ISRC FRZ029201520
    INDEX 01 00:00:00
FILE "05 Elle a le temps, elle attend.wav" WAVE
  TRACK 05 AUDIO
    TITLE "Elle a le temps, elle attend"
    PERFORMER "Pauline Ester"
    ISRC FRZ029201530
    INDEX 01 00:00:00
FILE "06 C'est l'amour.wav" WAVE
  TRACK 06 AUDIO
    TITLE "C'est l'amour"
    PERFORMER "Pauline Ester"
    ISRC FRZ029201590
    INDEX 01 00:00:00
  TRACK 07 AUDIO
    TITLE "Jimi"
    PERFORMER "Pauline Ester"
    ISRC FRZ029202070
    INDEX 00 03:42:53
FILE "07 Jimi.wav" WAVE
    INDEX 01 00:00:00
FILE "08 Il ne veut pas de moi.wav" WAVE
  TRACK 08 AUDIO
    TITLE "Il ne veut pas de moi"
    PERFORMER "Pauline Ester"
    ISRC FRZ029201550
    INDEX 01 00:00:00
FILE "09 Sur ton repondeur.wav" WAVE
  TRACK 09 AUDIO
    TITLE "Sur ton repondeur"
    PERFORMER "Pauline Ester"
    ISRC FRZ029201560
    INDEX 01 00:00:00
FILE "10 Personne.wav" WAVE
  TRACK 10 AUDIO
    TITLE "Personne"
    PERFORMER "Pauline Ester"
    ISRC FRZ029201570
    INDEX 01 00:00:00
  TRACK 11 AUDIO
    TITLE "Ca me plait"
    PERFORMER "Pauline Ester"
    ISRC FRZ029201580
    INDEX 00 03:41:05
FILE "11 Ca me plait.wav" WAVE
    INDEX 01 00:00:00
  TRACK 12 AUDIO
    TITLE "Les chansons d'amour"
    PERFORMER "Pauline Ester"
    ISRC FRZ029201540
    INDEX 00 04:25:62
FILE "12 Les chansons d'amour.wav" WAVE
    INDEX 01 00:00:00
загрузка...
Правила, инструкции, FAQ!!!
Торрент  Добавлен [15 авг 2016, 17:41] Скачать торрент Магнет ссылка
Скачать торрент
[ Размер 14.18 КБ / Просмотров 0 ]

Статус
Проверен 
 
Размер  329.94 МБ
Приватный: Нет (DHT включён)
.torrent скачан  0
Как залить торрент? | Как скачать Torrent? | Как смотреть и слушать онлайн?  


     Отправить личное сообщение
   
Страница 1 из 1
Показать сообщения за:  Поле сортировки  
Начать новую тему Ответить на тему

   Похожие торренты   Автор   Ответы   Просмотры   Последнее сообщение 
В этой теме нет новых непрочитанных сообщений. Скачать торрент Проверен (Pop) Pauline Ester - Le Monde Est Fou - 1990, FLAC (tracks+.cue), lossless

в форуме Зарубежная музыка, Размер: 216.86 МБ, Здоровье: 0%

Anonymous

0
0|0

1
0

15 авг 2016, 17:41

Anonymous Перейти к последнему сообщению

В этой теме нет новых непрочитанных сообщений. Скачать торрент По ту сторону кровати / Changing Sides / De l'autre cote du lit (2008) BDRip

в форуме Комедии, Размер: 1.45 ГБ, Здоровье: 0%

Anonymous

0
0|0

21
0

20 ноя 2013, 18:45

Anonymous Перейти к последнему сообщению

В этой теме нет новых непрочитанных сообщений. Скачать торрент Шутки в сторону / De l'autre côté du périph (2012) HDRip | Звук с TS

в форуме Комедии, Размер: 1.37 ГБ, Здоровье: 0%

Anonymous

0
0|0

118
0

09 май 2013, 17:29

Anonymous Перейти к последнему сообщению

В этой теме нет новых непрочитанных сообщений. Скачать торрент Шутки в сторону / De l'autre côté du périph (2012) HDRip | Лицензия

в форуме Комедии, Размер: 1.46 ГБ, Здоровье: 0%

Anonymous

0
0|0

124
0

14 июн 2013, 21:50

Anonymous Перейти к последнему сообщению

В этой теме нет новых непрочитанных сообщений. Скачать торрент Шутки в сторону / De l'autre côté du périph (2012) BDRip 720p | Звук с TS

в форуме 720p | 1080p, Размер: 4.45 ГБ, Здоровье: 0%

Anonymous

0
0|0

103
0

09 май 2013, 17:22

Anonymous Перейти к последнему сообщению



Сейчас этот форум просматривают: нет зарегистрированных пользователей и гости: 0


Вы не можете начинать темы
Вы не можете отвечать на сообщения
Вы не можете редактировать свои сообщения
Вы не можете удалять свои сообщения
Вы не можете добавлять вложения

Перейти:  

!ВНИМАНИЕ!
 Ресурс не предоставляет электронные версии произведений, а занимается лишь коллекционированием и каталогизацией ссылок, присылаемых и публикуемых на форуме нашими читателями. Если вы являетесь правообладателем какого-либо представленного материала и не желаете чтобы ссылка на него находилась в нашем каталоге, свяжитесь с нами и мы незамедлительно удалим её. Файлы для обмена на трекере предоставлены пользователями сайта, и администрация не несёт ответственности за их содержание. Просьба не заливать файлы, защищенные авторскими правами, а также файлы нелегального содержания!