На всех торрентах на трекере установлена скидка на скачивание в размере 100 процентов(а).
 Возможность скачивания торрента НЕ зависит от ограничений при низком ратио, низком аплоаде, требуемом ратио или требуемом аплоаде.


Начать новую тему Ответить на тему
Статистика раздачи
Размер: 522.46 МБ | Добавлен: 17 авг 2016, 13:35 | Скачали: 19
Сидеров: 54  [0 байт/сек]    Личеров: 14  [0 байт/сек]
Пред. тема | След. тема 

Автор
Сообщение

СообщениеДобавлено: 17 авг 2016, 13:35 

Ответить с цитатой 

Anastacia / Ultimate Collection

Жанр: Pop, Dance, Rock, Soul
Носитель: CD
Год издания: 2015
Издатель (лейбл): Sony Music
Страна исполнителя (группы): US
Аудиокодек: FLAC (*.flac)
Тип рипа: tracks+.cue
Битрейт аудио: lossless
Продолжительность: 01:15:19
Источник (релизер): сетевой торрент
Наличие сканов в содержимом раздачи: нет

Треклист:
01. I'm Outta Love (4:04)
02. Left Outside Alone (4:17)
03. Sick and Tired (3:31)
04. Paid My Dues (3:22)
05. Stupid Little Things (3:56)
06. Not That Kind (3:21)
07. Everything Burns (with Ben Moody) (3:42)
08. Welcome To My Truth (4:04)
09. You'll Never Be Alone (4:38)
10. Pieces of a Dream (4:02)
11. Best Of You (4:22)
12. Heavy On My Heart (4:28)
13. One Day In Your Life (3:29)
14. Cowboys & Kisses (4:41)
15. Why'd You Lie To Me (3:45)
16. Love Is a Crime (3:21)
17. I Belong To You (El Ritmo De La Pasion) (with Eros Ramazzotti) (4:26)
18. Army Of Me (3:26)
19. Take This Chance (4:25)
Код:
Exact Audio Copy V1.0 beta 4 from 7. December 2014

EAC extraction logfile from 22. November 2015, 18:35

Anastacia / Ultimate Collection

Used drive  : ATAPI   iHAS124   E   Adapter: 1  ID: 0

Read mode               : Secure
Utilize accurate stream : Yes
Defeat audio cache      : Yes
Make use of C2 pointers : No

Read offset correction                      : 6
Overread into Lead-In and Lead-Out          : No
Fill up missing offset samples with silence : Yes
Delete leading and trailing silent blocks   : No
Null samples used in CRC calculations       : Yes
Used interface                              : Native Win32 interface for Win NT & 2000
Gap handling                                : Appended to previous track

Used output format              : User Defined Encoder
Selected bitrate                : 1024 kBit/s
Quality                         : High
Add ID3 tag                     : No
Command line compressor         : C:\Program Files (x86)\Exact Audio Copy\Flac\flac.exe
Additional command line options : -8 -V -T "ARTIST=%artist%" -T "TITLE=%title%" -T "ALBUM=%albumtitle%" -T "DATE=%year%" -T "TRACKNUMBER=%tracknr%" -T "GENRE=%genre%" -T "PERFORMER=%albuminterpret%" -T "COMPOSER=%composer%" %haslyrics%--tag-from-file=LYRICS="%lyricsfile%"%haslyrics% -T "ALBUMARTIST=%albumartist%" -T "DISCNUMBER=%cdnumber%" -T "TOTALDISCS=%totalcds%" -T "TOTALTRACKS=%numtracks%" -T "COMMENT=%comment%" %source% -o %dest%

TOC of the extracted CD

     Track |   Start  |  Length  | Start sector | End sector
    ---------------------------------------------------------
        1  |  0:00.00 |  4:04.08 |         0    |    18307
        2  |  4:04.08 |  4:16.71 |     18308    |    37578
        3  |  8:21.04 |  3:30.46 |     37579    |    53374
        4  | 11:51.50 |  3:22.10 |     53375    |    68534
        5  | 15:13.60 |  3:56.27 |     68535    |    86261
        6  | 19:10.12 |  3:20.59 |     86262    |   101320
        7  | 22:30.71 |  3:42.25 |    101321    |   117995
        8  | 26:13.21 |  4:03.56 |    117996    |   136276
        9  | 30:17.02 |  4:37.72 |    136277    |   157123
       10  | 34:54.74 |  4:01.45 |    157124    |   175243
       11  | 38:56.44 |  4:21.46 |    175244    |   194864
       12  | 43:18.15 |  4:27.44 |    194865    |   214933
       13  | 47:45.59 |  3:29.15 |    214934    |   230623
       14  | 51:14.74 |  4:41.30 |    230624    |   251728
       15  | 55:56.29 |  3:44.69 |    251729    |   268597
       16  | 59:41.23 |  3:20.72 |    268598    |   283669
       17  | 63:02.20 |  4:26.30 |    283670    |   303649
       18  | 67:28.50 |  3:25.64 |    303650    |   319088
       19  | 70:54.39 |  4:24.41 |    319089    |   338929

Track  1

     Filename D:\EAC\01 - Anastacia - I'm Outta Love.wav

     Pre-gap length  0:00:02.00

     Peak level 98.8 %
     Extraction speed 3.9 X
     Track quality 100.0 %
     Test CRC A492C88F
     Copy CRC A492C88F
     Track not present in AccurateRip database
     Copy OK

Track  2

     Filename D:\EAC\02 - Anastacia - Left Outside Alone.wav

     Pre-gap length  0:00:00.18

     Peak level 96.6 %
     Extraction speed 3.6 X
     Track quality 99.9 %
     Test CRC 486785B4
     Copy CRC 486785B4
     Track not present in AccurateRip database
     Copy OK

Track  3

     Filename D:\EAC\03 - Anastacia - Sick and Tired.wav

     Peak level 98.8 %
     Extraction speed 4.5 X
     Track quality 100.0 %
     Test CRC A4B2346D
     Copy CRC A4B2346D
     Track not present in AccurateRip database
     Copy OK

Track  4

     Filename D:\EAC\04 - Anastacia - Paid My Dues.wav

     Pre-gap length  0:00:00.81

     Peak level 94.4 %
     Extraction speed 4.7 X
     Track quality 100.0 %
     Test CRC 9EEDABEA
     Copy CRC 9EEDABEA
     Track not present in AccurateRip database
     Copy OK

Track  5

     Filename D:\EAC\05 - Anastacia - Stupid Little Things.wav

     Pre-gap length  0:00:01.24

     Peak level 98.8 %
     Extraction speed 4.2 X
     Track quality 99.9 %
     Test CRC 26A052E2
     Copy CRC 26A052E2
     Track not present in AccurateRip database
     Copy OK

Track  6

     Filename D:\EAC\06 - Anastacia - Not That Kind.wav

     Pre-gap length  0:00:01.08

     Peak level 96.6 %
     Extraction speed 5.2 X
     Track quality 100.0 %
     Test CRC CA83C31C
     Copy CRC CA83C31C
     Track not present in AccurateRip database
     Copy OK

Track  7

     Filename D:\EAC\07 - Anastacia - Everything Burns (with Ben Moody).wav

     Pre-gap length  0:00:00.33

     Peak level 98.8 %
     Extraction speed 5.5 X
     Track quality 100.0 %
     Test CRC B013112B
     Copy CRC B013112B
     Track not present in AccurateRip database
     Copy OK

Track  8

     Filename D:\EAC\08 - Anastacia - Welcome To My Truth.wav

     Pre-gap length  0:00:00.45

     Peak level 86.1 %
     Extraction speed 5.8 X
     Track quality 100.0 %
     Test CRC F3CD1075
     Copy CRC F3CD1075
     Track not present in AccurateRip database
     Copy OK

Track  9

     Filename D:\EAC\09 - Anastacia - You'll Never Be Alone.wav

     Pre-gap length  0:00:00.52

     Peak level 92.1 %
     Extraction speed 6.2 X
     Track quality 100.0 %
     Test CRC 909ABC30
     Copy CRC 909ABC30
     Track not present in AccurateRip database
     Copy OK

Track 10

     Filename D:\EAC\10 - Anastacia - Pieces of a Dream.wav

     Pre-gap length  0:00:00.28

     Peak level 96.6 %
     Extraction speed 6.3 X
     Track quality 100.0 %
     Test CRC 9EF33FE5
     Copy CRC 9EF33FE5
     Track not present in AccurateRip database
     Copy OK

Track 11

     Filename D:\EAC\11 - Anastacia - Best Of You.wav

     Peak level 98.8 %
     Extraction speed 5.4 X
     Track quality 99.9 %
     Test CRC AE1EDE13
     Copy CRC AE1EDE13
     Track not present in AccurateRip database
     Copy OK

Track 12

     Filename D:\EAC\12 - Anastacia - Heavy On My Heart.wav

     Pre-gap length  0:00:00.88

     Peak level 91.2 %
     Extraction speed 5.7 X
     Track quality 99.9 %
     Test CRC 5A7D36AB
     Copy CRC 5A7D36AB
     Track not present in AccurateRip database
     Copy OK

Track 13

     Filename D:\EAC\13 - Anastacia - One Day In Your Life.wav

     Pre-gap length  0:00:01.18

     Peak level 98.8 %
     Extraction speed 6.7 X
     Track quality 100.0 %
     Test CRC 398702D9
     Copy CRC 398702D9
     Track not present in AccurateRip database
     Copy OK

Track 14

     Filename D:\EAC\14 - Anastacia - Cowboys & Kisses.wav

     Pre-gap length  0:00:01.77

     Peak level 98.8 %
     Extraction speed 7.2 X
     Track quality 100.0 %
     Test CRC E324EACE
     Copy CRC E324EACE
     Track not present in AccurateRip database
     Copy OK

Track 15

     Filename D:\EAC\15 - Anastacia - Why'd You Lie To Me.wav

     Pre-gap length  0:00:01.22

     Peak level 83.2 %
     Extraction speed 7.2 X
     Track quality 100.0 %
     Test CRC CA57CB9E
     Copy CRC CA57CB9E
     Track not present in AccurateRip database
     Copy OK

Track 16

     Filename D:\EAC\16 - Anastacia - Love Is a Crime.wav

     Pre-gap length  0:00:02.44

     Peak level 98.8 %
     Extraction speed 7.2 X
     Track quality 100.0 %
     Test CRC 3F011FB6
     Copy CRC 3F011FB6
     Track not present in AccurateRip database
     Copy OK

Track 17

     Filename D:\EAC\17 - Anastacia - I Belong To You (El Ritmo De La Pasion) (with Eros Ramazzotti).wav

     Pre-gap length  0:00:01.21

     Peak level 86.1 %
     Extraction speed 7.7 X
     Track quality 100.0 %
     Test CRC F82AD8CF
     Copy CRC F82AD8CF
     Track not present in AccurateRip database
     Copy OK

Track 18

     Filename D:\EAC\18 - Anastacia - Army Of Me.wav

     Pre-gap length  0:00:00.14

     Peak level 97.9 %
     Extraction speed 6.0 X
     Track quality 99.9 %
     Test CRC 4F35A9B7
     Copy CRC 4F35A9B7
     Track not present in AccurateRip database
     Copy OK

Track 19

     Filename D:\EAC\19 - Anastacia - Take This Chance.wav

     Pre-gap length  0:00:00.14

     Peak level 97.6 %
     Extraction speed 8.0 X
     Track quality 100.0 %
     Test CRC A54A9184
     Copy CRC A54A9184
     Track not present in AccurateRip database
     Copy OK

None of the tracks are present in the AccurateRip database

No errors occurred

End of status report

---- CUETools DB Plugin V2.1.4

[CTDB TOCID: AT6HhCUhRAd_8vRtxbObP.u1wPk-] disk not present in database
Submit result: AT6HhCUhRAd_8vRtxbObP.u1wPk- has been uploaded

==== Log checksum AD46FC73326341ED9EFA6BF5F40F1E6E35362E35DBA14C7183F5CB212ADB7670 ====
Код:
REM DATE 2015
REM DISCID 1011A713
REM COMMENT "ExactAudioCopy v1.0b4"
CATALOG 0888751414822
PERFORMER "Anastacia"
TITLE "Ultimate Collection"
FILE "01 - I'm Outta Love.wav" WAVE
  TRACK 01 AUDIO
    TITLE "I'm Outta Love"
    PERFORMER "Anastacia"
    ISRC USSM19921724
    INDEX 01 00:00:00
  TRACK 02 AUDIO
    TITLE "Left Outside Alone"
    PERFORMER "Anastacia"
    ISRC USSM10400150
    INDEX 00 04:03:69
FILE "02 - Left Outside Alone.wav" WAVE
    INDEX 01 00:00:00
FILE "03 - Sick and Tired.wav" WAVE
  TRACK 03 AUDIO
    TITLE "Sick and Tired"
    PERFORMER "Anastacia"
    ISRC USSM10401046
    INDEX 01 00:00:00
  TRACK 04 AUDIO
    TITLE "Paid My Dues"
    PERFORMER "Anastacia"
    ISRC USSM10111241
    INDEX 00 03:29:60
FILE "04 - Paid My Dues.wav" WAVE
    INDEX 01 00:00:00
  TRACK 05 AUDIO
    TITLE "Stupid Little Things"
    PERFORMER "Anastacia"
    ISRC DELV41401017
    INDEX 00 03:20:67
FILE "05 - Stupid Little Things.wav" WAVE
    INDEX 01 00:00:00
  TRACK 06 AUDIO
    TITLE "Not That Kind"
    PERFORMER "Anastacia"
    ISRC USSM19928913
    INDEX 00 03:55:21
FILE "06 - Not That Kind.wav" WAVE
    INDEX 01 00:00:00
  TRACK 07 AUDIO
    TITLE "Everything Burns (with Ben Moody)"
    PERFORMER "Anastacia"
    ISRC USWU30500034
    INDEX 00 03:20:34
FILE "07 - Everything Burns (with Ben Moody).wav" WAVE
    INDEX 01 00:00:00
  TRACK 08 AUDIO
    TITLE "Welcome To My Truth"
    PERFORMER "Anastacia"
    ISRC USSM10401048
    INDEX 00 03:41:66
FILE "08 - Welcome To My Truth.wav" WAVE
    INDEX 01 00:00:00
  TRACK 09 AUDIO
    TITLE "You'll Never Be Alone"
    PERFORMER "Anastacia"
    ISRC USSM10205113
    INDEX 00 04:03:17
FILE "09 - You'll Never Be Alone.wav" WAVE
    INDEX 01 00:00:00
  TRACK 10 AUDIO
    TITLE "Pieces of a Dream"
    PERFORMER "Anastacia"
    ISRC USSM10505060
    INDEX 00 04:37:51
FILE "10 - Pieces of a Dream.wav" WAVE
    INDEX 01 00:00:00
FILE "11 - Best Of You.wav" WAVE
  TRACK 11 AUDIO
    TITLE "Best Of You"
    PERFORMER "Anastacia"
    ISRC DELV41200584
    INDEX 01 00:00:00
  TRACK 12 AUDIO
    TITLE "Heavy On My Heart"
    PERFORMER "Anastacia"
    ISRC USSM10401038
    INDEX 00 04:20:55
FILE "12 - Heavy On My Heart.wav" WAVE
    INDEX 01 00:00:00
  TRACK 13 AUDIO
    TITLE "One Day In Your Life"
    PERFORMER "Anastacia"
    ISRC USSM10113038
    INDEX 00 04:26:30
FILE "13 - One Day In Your Life.wav" WAVE
    INDEX 01 00:00:00
  TRACK 14 AUDIO
    TITLE "Cowboys & Kisses"
    PERFORMER "Anastacia"
    ISRC USSM19928914
    INDEX 00 03:27:32
FILE "14 - Cowboys & Kisses.wav" WAVE
    INDEX 01 00:00:00
  TRACK 15 AUDIO
    TITLE "Why'd You Lie To Me"
    PERFORMER "Anastacia"
    ISRC USSM10101967
    INDEX 00 04:40:13
FILE "15 - Why'd You Lie To Me.wav" WAVE
    INDEX 01 00:00:00
  TRACK 16 AUDIO
    TITLE "Love Is a Crime"
    PERFORMER "Anastacia"
    ISRC USSM10213115
    INDEX 00 03:42:36
FILE "16 - Love Is a Crime.wav" WAVE
    INDEX 01 00:00:00
  TRACK 17 AUDIO
    TITLE "I Belong To You (El Ritmo De La Pasion) (with Eros Ramazzotti)"
    PERFORMER "Anastacia"
    ISRC NLA200500098
    INDEX 00 03:19:56
FILE "17 - I Belong To You (El Ritmo De La Pasion) (with Eros Ramazzotti).wav" WAVE
    INDEX 01 00:00:00
  TRACK 18 AUDIO
    TITLE "Army Of Me"
    PERFORMER "Anastacia"
    ISRC GBARL1501453
    INDEX 00 04:26:19
FILE "18 - Army Of Me.wav" WAVE
    INDEX 01 00:00:00
  TRACK 19 AUDIO
    TITLE "Take This Chance"
    PERFORMER "Anastacia"
    ISRC GBARL1501424
    INDEX 00 03:25:53
FILE "19 - Take This Chance.wav" WAVE
    INDEX 01 00:00:00
Код:
-----------------------

DON'T MODIFY THIS FILE

-----------------------

PERFORMER: auCDtect Task Manager, ver. 1.5.1RC6 build 1.5.1.7
Copyright (c) 2008-2010 y-soft. All rights reserved
[url=http://y-soft.org]http://y-soft.org[/url]

ANALYZER: auCDtect: CD records authenticity detector, version 0.8.2
Copyright (c) 2004 Oleg Berngardt. All rights reserved.
Copyright (c) 2004 Alexander Djourik. All rights reserved.

FILE: 01 - I'm Outta Love.flac
  Size: 29255598 Hash: D7031ABC358E19034D4C97E6DBFBCF43 Accuracy: -m8
  Conclusion: CDDA 100%
  Signature: 47DC3BDF7519F4D613FB83365966AB95590FA182
FILE: 02 - Left Outside Alone.flac
  Size: 32275164 Hash: B4B3BBE9D50365F735B6D381D0AB8683 Accuracy: -m8
  Conclusion: CDDA 100%
  Signature: 2B49B02DA7CF6597E49A19B3550270DBF94D1EDF
FILE: 03 - Sick and Tired.flac
  Size: 25213922 Hash: F10C93BE307AE388936DF4C4ECE8B0DB Accuracy: -m8
  Conclusion: CDDA 100%
  Signature: 2E3ADA3BA5236A1477B59C5537BD2B678CB8DCAF
FILE: 04 - Paid My Dues.flac
  Size: 25055968 Hash: A3CED373219730FF62B059DF2845A434 Accuracy: -m8
  Conclusion: CDDA 99%
  Signature: 4B2DBE4B206D559F9264794572A822803D7A92A4
FILE: 05 - Stupid Little Things.flac
  Size: 29171222 Hash: AF28CD163BD900A17D2FDFA0BCD3D8CA Accuracy: -m8
  Conclusion: CDDA 99%
  Signature: 146CAA3B3CF4BCE29192CF7C38026D8E64917B4F
FILE: 06 - Not That Kind.flac
  Size: 24601321 Hash: F51E53ABD89A1152FA0111B5CE267D24 Accuracy: -m8
  Conclusion: CDDA 100%
  Signature: 8E77FB1893CD5B2AFC07390EF25FBFFC56CE4458
FILE: 07 - Everything Burns (with Ben Moody).flac
  Size: 26011807 Hash: 240A98E95704B43EA3DBE34750A91C83 Accuracy: -m8
  Conclusion: CDDA 100%
  Signature: 3CCEF9D3FEA9956A88D832A539321437BD660EE6
FILE: 08 - Welcome To My Truth.flac
  Size: 30977191 Hash: 2033E82383BD6F3B4DFA28EEA828597F Accuracy: -m8
  Conclusion: CDDA 100%
  Signature: 44A4DFCFBF581C42BBEBB176F308513F4A5E0590
FILE: 09 - You'll Never Be Alone.flac
  Size: 32901538 Hash: 11ED5EFEF77C0EFE5F4561341A7767CE Accuracy: -m8
  Conclusion: CDDA 100%
  Signature: CAB674B7203D3359EF1C8903FC91F6F6D050F81B
FILE: 10 - Pieces of a Dream.flac
  Size: 28445236 Hash: D3ADDD3581E9FDE59D6129FF4DA61D4C Accuracy: -m8
  Conclusion: CDDA 100%
  Signature: D09621F96B80A2AB7D7654D3BF9307032CE58CCD
FILE: 11 - Best Of You.flac
  Size: 31271714 Hash: BB63B48BAA7F0F4E0C6A02B52CF4764F Accuracy: -m8
  Conclusion: CDDA 100%
  Signature: C83C94B802AC11562675F5935FB0942AF8BC84B4
FILE: 12 - Heavy On My Heart.flac
  Size: 30027330 Hash: F0E5AF1DA8FD8F8453041932B853FE15 Accuracy: -m8
  Conclusion: CDDA 100%
  Signature: 4384370C0281FEA3617923BA282140C656C2EBEB
FILE: 13 - One Day In Your Life.flac
  Size: 26706819 Hash: 7C8FCA19D3E776C698C07402244625C5 Accuracy: -m8
  Conclusion: CDDA 100%
  Signature: 23C299206D721812895C00AB96C6AE98C0880CC9
FILE: 14 - Cowboys & Kisses.flac
  Size: 35900641 Hash: 7D46EB6D2D86904DE75C7A15EA566A0B Accuracy: -m8
  Conclusion: CDDA 100%
  Signature: A7F1C2082954CB0768A86A660F197CAAB6D5BC65
FILE: 15 - Why'd You Lie To Me.flac
  Size: 28781405 Hash: 5FB1B9EBCECBE7696458037421288A9B Accuracy: -m8
  Conclusion: CDDA 100%
  Signature: 1700640C5BB4B25B4C240D11086321FB064EF353
FILE: 16 - Love Is a Crime.flac
  Size: 25943877 Hash: 3078E6DD9235CDA37AB801EC3B961D7D Accuracy: -m8
  Conclusion: CDDA 100%
  Signature: 67934F602DBFBEE6AF969CCADBC6B719ACA83A6B
FILE: 17 - I Belong To You (El Ritmo De La Pasion) (with Eros Ramazzotti).flac
  Size: 29574303 Hash: 9B88769F381760E4D213818879CF5D70 Accuracy: -m8
  Conclusion: CDDA 100%
  Signature: 7B6CC12BDA7F0EBCD61AED9AAA05C027A98B172F
FILE: 18 - Army Of Me.flac
  Size: 22781510 Hash: 312ADC38EEAE66D60A51B65CB2C0B4FA Accuracy: -m8
  Conclusion: CDDA 100%
  Signature: 32D10491BB1A5CE6AD1DD292B420688D995CAB65
FILE: 19 - Take This Chance.flac
  Size: 31239355 Hash: 9D233FEEB3B42037EC95DB12CF1DCBF9 Accuracy: -m8
  Conclusion: CDDA 100%
  Signature: FB623B3CDCCF1A72ED75F89A781B70F13540D516
Код:
foobar2000 1.3.8 / Dynamic Range Meter 1.1.1
log date: 2015-11-24 06:06:44

--------------------------------------------------------------------------------
Analyzed: Anastacia / Ultimate Collection
--------------------------------------------------------------------------------

DR         Peak         RMS     Duration Track
--------------------------------------------------------------------------------
DR7       -0.10 dB    -8.48 dB      4:04 01-I'm Outta Love
DR5       -0.30 dB    -7.17 dB      4:17 02-Left Outside Alone
DR5       -0.10 dB    -7.00 dB      3:31 03-Sick and Tired
DR5       -0.50 dB    -7.63 dB      3:22 04-Paid My Dues
DR6       -0.10 dB    -7.22 dB      3:56 05-Stupid Little Things
DR7       -0.30 dB    -8.03 dB      3:21 06-Not That Kind
DR7       -0.10 dB   -10.43 dB      3:42 07-Everything Burns (with Ben Moody)
DR4       -1.29 dB    -7.32 dB      4:04 08-Welcome To My Truth
DR5       -0.71 dB    -8.73 dB      4:38 09-You'll Never Be Alone
DR5       -0.29 dB    -8.59 dB      4:02 10-Pieces of a Dream
DR4       -0.10 dB    -6.09 dB      4:22 11-Best Of You
DR5       -0.79 dB   -10.34 dB      4:28 12-Heavy On My Heart
DR6       -0.10 dB    -8.15 dB      3:29 13-One Day In Your Life
DR6       -0.10 dB    -7.55 dB      4:41 14-Cowboys & Kisses
DR5       -1.60 dB    -7.64 dB      3:45 15-Why'd You Lie To Me
DR7       -0.10 dB    -9.23 dB      3:21 16-Love Is a Crime
DR6       -1.30 dB    -8.85 dB      4:26 17-I Belong To You (El Ritmo De La Pasion) (with Eros Ramazzotti)
DR6       -0.18 dB    -8.40 dB      3:26 18-Army Of Me
DR6       -0.20 dB    -8.68 dB      4:25 19-Take This Chance
--------------------------------------------------------------------------------

Number of tracks:  19
Official DR value: DR6

Samplerate:        44100 Hz
Channels:          2
Bits per sample:   16
Bitrate:           941 kbps
Codec:             FLAC
================================================================================
загрузка...
Правила, инструкции, FAQ!!!
Торрент  Добавлен [17 авг 2016, 13:35] Скачать торрент Магнет ссылка
Скачать торрент
[ Размер 13.32 КБ / Просмотров 20 ]

Статус
Проверен 
 
Размер  522.46 МБ
Приватный: Нет (DHT включён)
.torrent скачан  19
Как залить торрент? | Как скачать Torrent? | Ошибка в торренте? Качайте магнет  


     Отправить личное сообщение
   
Страница 1 из 1
Показать сообщения за:  Поле сортировки  
Начать новую тему Ответить на тему

   Похожие торренты   Автор   Ответы   Просмотры   Последнее сообщение 
В этой теме нет новых непрочитанных сообщений. Скачать торрент Проверен Anastacia - Anastacia (2004)[WavPack|Lossless]<Pop, Dance, Pop Rock, R&B>

в форуме Зарубежная музыка, Размер: 602.46 МБ, Здоровье: 12%

Гость

0
1|8

67
0

12 янв 2015, 21:00

Гость Перейти к последнему сообщению

В этой теме нет новых непрочитанных сообщений. Скачать торрент Проверен (Disco, R&B, Dance, Soul) [CD] Donna Summer - The Ultimate Collection (3CD Deluxe Edition) - 2016 (Crimson Production EU), FLAC (image+.cue), lossless

в форуме Зарубежная музыка, Размер: 1.66 ГБ, Здоровье: 100%

Anonymous

0
38|5

29
3

16 сен 2018, 18:48

Anonymous Перейти к последнему сообщению

В этой теме нет новых непрочитанных сообщений. Скачать торрент Проверен (Pop,Rock,R&B, Soul) [CD] VA - 60's Classics The Ultimate Collection [5CD] - 2014, FLAC (tracks), lossless

в форуме Зарубежная музыка, Размер: 1.93 ГБ, Здоровье: 100%

Anonymous

0
22|8

58
2

16 авг 2016, 21:18

Anonymous Перейти к последнему сообщению

В этой теме нет новых непрочитанных сообщений. Скачать торрент Проверен (Pop,Rock,Soul,R&B,Funk) [CD] VA - Number 1's - The Ultimate Collection [5CD] - 2013, FLAC (tracks+.cue), lossless

в форуме Зарубежная музыка, Размер: 3.51 ГБ, Здоровье: 100%

Anonymous

0
13|10

45
4

15 авг 2016, 16:18

Anonymous Перейти к последнему сообщению

В этой теме нет новых непрочитанных сообщений. Скачать торрент Проверен (Soul, R&B, Funk, Pop, Rock) [CD] VA - 80's Anthems - The Ultimate Collection (5CD) - 2013, FLAC (tracks+.cue), lossless

в форуме Зарубежная музыка, Размер: 2.58 ГБ, Здоровье: 100%

Anonymous

0
12|7

42
3

15 авг 2016, 16:41

Anonymous Перейти к последнему сообщению



Сейчас этот форум просматривают: нет зарегистрированных пользователей и гости: 3


Вы не можете начинать темы
Вы не можете отвечать на сообщения
Вы не можете редактировать свои сообщения
Вы не можете удалять свои сообщения
Вы не можете добавлять вложения

Перейти:  
Ресурс не предоставляет электронные версии произведений, а занимается лишь коллекционированием и каталогизацией ссылок, присылаемых и публикуемых на форуме нашими читателями. Если вы являетесь правообладателем какого-либо представленного материала и не желаете чтобы ссылка на него находилась в нашем каталоге, свяжитесь с нами и мы незамедлительно удалим её. Файлы для обмена на трекере предоставлены пользователями сайта, и администрация не несёт ответственности за их содержание. Просьба не заливать файлы, защищенные авторскими правами, а также файлы нелегального содержания!
cron