На всех торрентах на трекере установлена скидка на скачивание в размере 100 процентов(а).
 Возможность скачивания торрента НЕ зависит от ограничений при низком ратио, низком аплоаде, требуемом ратио или требуемом аплоаде.


Начать новую тему Ответить на тему
Статистика раздачи
Размер: 4.07 ГБ | Добавлен: 16 апр 2018, 23:05 | Скачали: 0
Сидеров: 1  [0 байт/сек]    Личеров: 0  [0 байт/сек]
Пред. тема | След. тема 

Автор
Сообщение

СообщениеДобавлено: 16 апр 2018, 23:05 

Ответить с цитатой 

Alla Pugatjova/Алла Пугачева - Greatest Hits Vol.1,2
Жанр: Pop
Год выпуска: 1984, 1985
Лейбл: Track Music, WRM
Страна-производитель: Sweden, Finland
Аудио кодек: FLAC
Тип рипа: image+.cue
Формат записи: 24/192
Формат раздачи: 24/192
Alla Pugatjova/Алла ПугачеваGreatest Hits Vol.1
Жанр: Pop
Год выпуска: 1984
Лейбл: Track Music - TRACK LP 001
Страна-производитель: Sweden
Аудио кодек: FLAC
Тип рипа: image+.cue
Формат записи: 24/192
Формат раздачи: 24/192
Продолжительность: 00:54:36
Треклист:
A1 Ах, Как Хочется Жить (А.Пугачева - Д.Костюрин)
A2 Миллион Роз (Р.Паулс - А.Вознесенский)
A3 Расскажите Птицы (И.Николаев)
A4 Поднимись Над Суетой (А.Пугачева - И.Резник)
A5 Ты Возьми Меня С Собой (Э.Ханок - И.Резник)
A6 Старинные Часы (Р.Паулс - И.Резник)
B1 Я Больше He Ревную (А.Пугачева - О.Мандельштам)
B2 Дежурный Ангел (А.Пугачева - И.Резник)
B3 Держи Меня Соломинка (А.Пугачева - Е.Шлионский)
B4 Лестница (А.Пугачева - И.Резник)
B5 Арлекино (Э.Димитров - Б.Баркас)
B6 Вот Так Случилось, Мама (А.Пугачева - О.Милявский)
Recоrded in the USSR. Manufactured in Sweden under license from V/O Mezhdunarodnaja Kniga, Moscow.
Источник оцифровки: оцифровано Crimson74
Код класса состояния винила: Mint
Устройство воспроизведения: Technics SP-10 MK2
Головка звукоснимателя: Audio Technica ML180
Предварительный усилитель: Kora 3T SE MM
АЦП: Edirol R-44
Обработка: отсутствует
foobar2000 1.1.8 / Dynamic Range Meter 1.1.1
log date: 2014-04-26 07:37:11
--------------------------------------------------------------------------------
Analyzed: Alla Pugatjova/Алла Пугачева / Alla Pugatjova - Greatest Hits (1976-1984)
--------------------------------------------------------------------------------
DR Peak RMS Duration Track
--------------------------------------------------------------------------------
DR13 -4.76 dB -20.36 dB 3:36 01-Living My Life - Ах, Как Хочется Жить (А.Пугачева - Д.Костюрин)
DR12 -4.83 dB -20.85 dB 5:33 02-Millions Of Roses - Миллион Роз (Р.Паулс - А.Вознесенский)
DR12 -4.80 dB -20.41 dB 6:28 03-Come Fly With Me - Бумажный Змей (В.Резников)
DR14 -2.79 dB -19.89 dB 4:24 04-No Fuss! - Поднимись Над Суетой (А.Пугачева - И.Резник)
DR16 -3.01 dB -22.10 dB 2:55 05-Please Take Me With You - Ты Возьми Меня С Собой (Е.Ханок - И.Резник)
DR14 -3.30 dB -22.44 dB 4:42 06-I'm Not Jealous Anymore - Я Больше He Ревную (А.Пугачева - О.Мандельштам)
DR12 -4.75 dB -19.68 dB 5:18 07-The Old Clock - Старинные Часы (Р.Паулс - И.Резник)
DR13 -3.76 dB -20.03 dB 4:34 08-Angel On Duty - Дежурный Ангел (А.Пугачева - И.Резник)
DR15 -2.76 dB -20.64 dB 4:21 09-Hold Me - Держи Меня Соломинка (А.Пугачева - Е.Шлионский)
DR14 -2.33 dB -18.49 dB 3:54 10-Step By Step - Лестница (А.Пугачева - И.Резник)
DR13 -4.14 dB -20.06 dB 4:36 11-Harlequin - Арлекино (Э.Димитров - Б.Баркас)
DR15 -3.28 dB -20.96 dB 3:45 12-I'm Gonna My Way Now, Mama - Вот Так Случилось, Мама (А.Пугачева - О.Милявский)
--------------------------------------------------------------------------------
Number of tracks: 12
Official DR value: DR14
Samplerate: 192000 Hz
Channels: 2
Bits per sample: 24
Bitrate: 5461 kbps
Codec: FLAC
================================================================================
В раздаче присутствует файл сэмплов (из треков A6 и B1).
Alla Pugatjova/Алла ПугачеваGreatest Hits (1976-1984) Vol. 2
#777Жанр: Pop
Год выпуска: 1985
Лейбл: WRM AP-7084
Страна-производитель: Finland
Аудио кодек: FLAC
Тип рипа: image+.cue
Формат записи: 24/192
Формат раздачи: 24/192
Продолжительность: 00:52:24
Треклист:
A1 Айсберг (И. Николаев — Л. Козлова)
A2 Канатоходка (А. Пугачёва — И. Резник)
A3 Ленинград (А. Пугачёва — О. Мандельштам)
A4 Женщина, которая поет (А. Пугачёва, Л. Гарин — К. Кулиев)
A5 Куда уходит детство (А.Зацепин - Л.Дербенев)
A6 Песенка первоклассника (Э. Ханок — И. Шаферан)
B1 Звездное лето (А. Пугачёва — И. Резник)
B2 Маэстро (Р. Паулс — И. Резник)
B3 Очень хорошо (А. Мажуков — Д. Усманов)
B4 Сонет Шекспира (А. Пугачева — В. Шекспир, пер. С. Маршак)
B5 Усталость (А. Пугачева - И. Резник)
B6 Цыганский хор (В. Шаинский — И. Резник)
Recоrded in the USSR. Manufactured in Finland under license from V/O Mezhdunarodnaja Kniga, Moscow.
Источник оцифровки: оцифровано Crimson74
Код класса состояния винила: Mint
Устройство воспроизведения: Technics SP-10 MK2
Головка звукоснимателя: Audio Technica ML180
Предварительный усилитель: Kora 3T SE MM
АЦП: Edirol R-44
Обработка: отсутствует
foobar2000 1.1.8 / Dynamic Range Meter 1.1.1
log date: 2014-06-01 12:33:42
--------------------------------------------------------------------------------
Analyzed: Alla Pugatjova/Алла Пугачева / Alla Pugatjova - Greatest Hits Vol.2
--------------------------------------------------------------------------------
DR Peak RMS Duration Track
--------------------------------------------------------------------------------
DR12 -2.93 dB -17.20 dB 4:33 01-Айсберг (И. Николаев — Л. Козлова)
DR13 -4.57 dB -19.55 dB 6:00 02-Канатоходка (А. Пугачёва — И. Резник)
DR12 -3.29 dB -20.40 dB 3:14 03-Ленинград (А. Пугачёва — О. Мандельштам)
DR11 -5.19 dB -18.74 dB 4:21 04-Женщина, которая поет (А. Пугачёва, Л. Гарин — К. Кулиев)
DR11 -4.91 dB -17.76 dB 4:57 05-Куда уходит детство
DR12 -5.22 dB -19.91 dB 2:36 06-Песенка первоклассника (Э. Ханок — И. Шаферан)
DR13 -4.55 dB -19.39 dB 4:49 07-Звездное лето (А. Пугачёва — И. Резник)
DR12 -4.97 dB -18.66 dB 5:43 08-Маэстро (Р. Паулс — И. Резник)
DR11 -5.03 dB -17.51 dB 3:28 09-Очень хорошо (А. Мажуков — Д. Усманов)
DR11 -4.50 dB -17.99 dB 3:26 10-Сонет Шекспира (А. Пугачева — В. Шекспир, пер. С. Маршак)
DR14 -4.19 dB -19.89 dB 4:34 11-Усталость (А. Пугачева - И. Резник)
DR14 -4.09 dB -20.83 dB 4:43 12-Цыганский хор (В. Шаинский — И. Резник)
--------------------------------------------------------------------------------
Number of tracks: 12
Official DR value: DR12
Samplerate: 192000 Hz
Channels: 2
Bits per sample: 24
Bitrate: 5337 kbps
Codec: FLAC
================================================================================
В раздаче присутствует файл сэмплов (из треков A6 и B1).
01.06.2014 - Добавлен Vol.2.
Большое спасибо VH за оформление раздачи.
загрузка...
Правила, инструкции, FAQ!!!
Торрент  Добавлен [16 апр 2018, 23:05] Скачать торрент Магнет ссылка
Скачать торрент
[ Размер 12.79 КБ / Просмотров 57 ]

Статус
Проверен 
 
Размер  4.07 ГБ
Приватный: Нет (DHT включён)
.torrent скачан  0
Как залить торрент? | Как скачать Torrent? | Ошибка в торренте? Качайте магнет  


     Отправить личное сообщение
   
Страница 1 из 1
Показать сообщения за:  Поле сортировки  
Начать новую тему Ответить на тему

   Похожие торренты   Автор   Ответы   Просмотры   Последнее сообщение 
В этой теме нет новых непрочитанных сообщений. Скачать торрент Проверен (Pop) [LP] [24/192] Alla Pugatjova (Алла Пугачёва) - Soviet Superstar. Greatest Hits 1976-1984 - 1984, FLAC (image+.cue)

в форуме Отечественная поп-музыка (оцифровки), Размер: 2.08 ГБ, Здоровье: 0%

Anonymous

0
0|0

0
0

16 апр 2018, 21:53

Anonymous Перейти к последнему сообщению

В этой теме нет новых непрочитанных сообщений. Скачать торрент Проверен (Pop)[LP] [24/192] Alla Pugatjova (Алла Пугачёва) - Watch out - 1985, APE (image+.cue)

в форуме Отечественная поп-музыка (оцифровки), Размер: 1.9 ГБ, Здоровье: 0%

Anonymous

0
0|0

0
0

16 апр 2018, 21:54

Anonymous Перейти к последнему сообщению

В этой теме нет новых непрочитанных сообщений. Скачать торрент Проверен (Synth-pop, Schlager) [LP] [24/192] Алла Пугачева – Алла Пугачева В Стокгольме - 1985, FLAC (image+.cue)

в форуме Отечественная поп-музыка (оцифровки), Размер: 1.53 ГБ, Здоровье: 100%

Anonymous

0
1|0

1
0

15 апр 2018, 21:05

Anonymous Перейти к последнему сообщению

В этой теме нет новых непрочитанных сообщений. Скачать торрент Проверен (Pop) [MB] [24/48] Алла Пугачева - Пришла и говорю (Live) - 1984, FLAC (image+.cue)

в форуме Отечественная поп-музыка (оцифровки), Размер: 531.78 МБ, Здоровье: 0%

Anonymous

0
0|0

0
0

16 апр 2018, 22:29

Anonymous Перейти к последнему сообщению

В этой теме нет новых непрочитанных сообщений. Скачать торрент Проверен (Pop) [LP] [24/192] Alla Pugacheva - Алла Пугачева [Japan] - 1978, FLAC (image+.cue)

в форуме Отечественная поп-музыка (оцифровки), Размер: 1.83 ГБ, Здоровье: 100%

Anonymous

0
1|0

1
0

16 апр 2018, 22:08

Anonymous Перейти к последнему сообщению



Сейчас этот форум просматривают: нет зарегистрированных пользователей и гости: 0


Вы не можете начинать темы
Вы не можете отвечать на сообщения
Вы не можете редактировать свои сообщения
Вы не можете удалять свои сообщения
Вы не можете добавлять вложения

Перейти:  
Ресурс не предоставляет электронные версии произведений, а занимается лишь коллекционированием и каталогизацией ссылок, присылаемых и публикуемых на форуме нашими читателями. Если вы являетесь правообладателем какого-либо представленного материала и не желаете чтобы ссылка на него находилась в нашем каталоге, свяжитесь с нами и мы незамедлительно удалим её. Файлы для обмена на трекере предоставлены пользователями сайта, и администрация не несёт ответственности за их содержание. Просьба не заливать файлы, защищенные авторскими правами, а также файлы нелегального содержания!
cron