На всех торрентах на трекере установлена скидка на скачивание в размере 100 процентов(а).
 Возможность скачивания торрента НЕ зависит от ограничений при низком ратио, низком аплоаде, требуемом ратио или требуемом аплоаде.


Начать новую тему Ответить на тему
Статистика раздачи
Размер: 1.02 ГБ | Добавлен: 23 фев 2016, 10:13 | Скачали: 4
Сидеров: 59  [0 байт/сек]    Личеров: 10  [0 байт/сек]
Пред. тема | След. тема 

Автор
Сообщение

СообщениеДобавлено: 23 фев 2016, 10:13 

Ответить с цитатой 

Полонез Огинского (1971) DVDRip [H.264]

Производство: СССР, Белорусьфильм
Жанр: Военный, Драма

Режиссер: Лев Голуб
Актеры: Илья Цуккер, Геннадий Гарбук, Павел Кормунин, Геннадий Юхтин, Олев Эскола, Леонид Крюк, Игорь Варпа

Описание:
Повесть военных лет. Осиротевший маленький скрипач вместе со своим старшим другом проводят одну за другой серьезные операции в тылу врага.


Продолжительность: 01:23:29
Качество видео: DVDRip

Видео: AVC/H.264, 692x290@740x290, ~1550 Кбит/сек
Аудио: AC3, 2 ch, 192 Кбит/сек
Код:
Код:
Общее
Уникальный идентификатор                 : 226779413996372509478487515635372120647 (0xAA9C205CF88011F8B9D2A37D31A5DA47)
Полное имя                               : Z:\Полонез Огинского (1971) SATRip.mkv
Формат                                   : Matroska
Версия формата                           : Version 4 / Version 2
Размер файла                             : 1,02 Гбайт
Продолжительность                        : 1 ч. 23 м.
Режим общего битрейта                    : Переменный
Общий поток                              : 1744 Кбит/сек
Дата кодирования                         : UTC 2015-02-21 13:38:02
Программа кодирования                    : mkvmerge v7.6.0 ('Garden of Dreams') 64bit built on Feb  8 2015 13:04:34
Библиотека кодирования                   : libebml v1.3.1 + libmatroska v1.4.2

Видео
Идентификатор                            : 1
Формат                                   : AVC
Формат/Информация                        : Advanced Video Codec
Профиль формата                          :
Параметр CABAC формата                   : Да
Параметр ReFrames формата                : 2 кадра
Идентификатор кодека                     : V_MPEG4/ISO/AVC
Продолжительность                        : 1 ч. 23 м.
Вид битрейта                             : Переменный
Битрейт                                  : 1550 Кбит/сек
Максимальный битрейт                     : 14,0 Мбит/сек
Ширина                                   : 692 пикселя
Высота                                   : 290 пикселей
Соотношение сторон                       : 2,552
Режим частоты кадров                     : Постоянный
Частота кадров                           : 25,000 кадров/сек
Цветовое пространство                    : YUV
Субдискретизация насыщенности            : 4:2:0
Битовая глубина                          : 8 бит
Тип развёртки                            : Прогрессивная
Бит/(Пиксели*Кадры)                      : 0.309
Размер потока                            : 925 Мбайт (89%)
Язык                                     : Russian
Default                                  : Да
Forced                                   : Нет

Аудио
Идентификатор                            : 2
Формат                                   : AC-3
Формат/Информация                        : Audio Coding 3
Расширение режима                        : CM (complete main)
Параметр Endianness формата              : Big
Идентификатор кодека                     : A_AC3
Продолжительность                        : 1 ч. 23 м.
Вид битрейта                             : Постоянный
Битрейт                                  : 192 Кбит/сек
Каналы                                   : 2 канала
Расположение каналов                     : Front: L R
Частота                                  : 48,0 КГц
Частота кадров                           : 31,250 кадров/сек (1536 spf)
Метод сжатия                             : С потерями
Размер потока                            : 115 Мбайт (11%)
Язык                                     : Russian
Default                                  : Да
Forced                                   : Нет

Скриншоты:




загрузка...
Правила, инструкции, FAQ!!!
Торрент  Добавлен [23 фев 2016, 10:13] Скачать торрент Магнет ссылка
Скачать торрент
[ Размер 10.88 КБ / Просмотров 68 ]

Статус
Проверен 
 
Размер  1.02 ГБ
Приватный: Нет (DHT включён)
.torrent скачан  4
Как залить торрент? | Как скачать Torrent? | Ошибка в торренте? Качайте магнет  


     Отправить личное сообщение
   
Страница 1 из 1
Показать сообщения за:  Поле сортировки  
Начать новую тему Ответить на тему

   Похожие торренты   Автор   Ответы   Просмотры   Последнее сообщение 
В этой теме нет новых непрочитанных сообщений. Скачать торрент Проверен (Шансон) Полонез-Бэнд - Маде ин Адесса - 2012, MP3, 320 kbps

в форуме Шансон|Авторская песня, Размер: 33.93 МБ, Здоровье: 0%

Anonymous

0
2|594

26
0

05 ноя 2016, 16:36

Anonymous Перейти к последнему сообщению

В этой теме нет новых непрочитанных сообщений. Скачать торрент Проверен Проверка на дорогах (1971) DVDRip

в форуме Военные, Размер: 1.37 ГБ, Здоровье: 100%

Гость

0
26|0

323
27

04 май 2015, 13:37

Гость Перейти к последнему сообщению

В этой теме нет новых непрочитанных сообщений. Скачать торрент Проверен Освобождение (1968-1971) [Реставрация КП] DVDRip

в форуме Военные, Размер: 6.87 ГБ, Здоровье: 100%

Anonymous

0
62|5

416
3

05 июл 2014, 23:36

Anonymous Перейти к последнему сообщению

В этой теме нет новых непрочитанных сообщений. Скачать торрент Проверен Неуловимые мстители. Трилогия (1966-1971) DVDRip (Реставрация)

в форуме Кино СССР, Размер: 8.44 ГБ, Здоровье: 100%

Anonymous

0
159|6

921
13

18 май 2016, 22:17

Anonymous Перейти к последнему сообщению

В этой теме нет новых непрочитанных сообщений. Скачать торрент Проверен Неуловимые мстители / Трилогия (1966-1971) DVDrip [x264]

в форуме Приключения, Размер: 4.37 ГБ, Здоровье: 100%

Anonymous

0
44|11

1412
8

05 июл 2014, 23:35

Anonymous Перейти к последнему сообщению



Сейчас этот форум просматривают: нет зарегистрированных пользователей и гости: 0


Вы не можете начинать темы
Вы не можете отвечать на сообщения
Вы не можете редактировать свои сообщения
Вы не можете удалять свои сообщения
Вы не можете добавлять вложения

Перейти:  
Ресурс не предоставляет электронные версии произведений, а занимается лишь коллекционированием и каталогизацией ссылок, присылаемых и публикуемых на форуме нашими читателями. Если вы являетесь правообладателем какого-либо представленного материала и не желаете чтобы ссылка на него находилась в нашем каталоге, свяжитесь с нами и мы незамедлительно удалим её. Файлы для обмена на трекере предоставлены пользователями сайта, и администрация не несёт ответственности за их содержание. Просьба не заливать файлы, защищенные авторскими правами, а также файлы нелегального содержания!
cron