На всех торрентах на трекере установлена скидка на скачивание в размере 100 процентов(а).
 Возможность скачивания торрента НЕ зависит от ограничений при низком ратио, низком аплоаде, требуемом ратио или требуемом аплоаде.


Начать новую тему Ответить на тему
Статистика раздачи
Размер: 2.06 ГБ | Добавлен: 13 сен 2015, 01:14 | Скачали: 2
Сидеров: 36  [0 байт/сек]    Личеров: 3  [0 байт/сек]
Пред. тема | След. тема 

Автор
Сообщение

СообщениеДобавлено: 13 сен 2015, 01:14 

Ответить с цитатой 

Пока не сыграл в ящик / The Bucket List (2007) BDRip [576p] iPad

Русское название: Пока не сыграл в ящик
Оригинальное название: The Bucket List
Год: 2007
Страна: США
Жанр: драма, комедия, приключения

Продолжительность: 01:37:04
Перевод: Профессиональный дублированный
Оригинальная аудиодорожка: английская
Субтитры: нет
Навигация по главам: нет

Режиссёр: Роб Райнер
Сценарий: Джастин Закэм
В ролях: Джек Николсон, Морган Фриман, Шон Хейс, Беверли Тодд, Роб Морроу, Альфонсо Фриман, Роуэна Кинг, Эннтон Берри мл., Верда Бриджес, Дестини Браунридж

Описание: Именно так решили два больных раком соседа по больничной палате, когда услышали свой приговор. Один из них вспыльчивый миллиардер, а второй эрудированный автомеханик. Они составляют список дел, которые необходимо сделать прежде, чем они сыграют в ящик, и отправляются в кругосветное путешествие, путешествие всей своей жизни.
Прыжки с парашютом? Посмотрим. Гонки на раритетных автомобилях? Сделано. Посмотреть на пирамиды? Отлично. Открыть радость жизни прежде, чем станет слишком поздно? Точно!



Качество видео: BDRip
Исходник: BDRemux
Формат: MP4 (контейнер m4v)
Видео: AVC, 1024x576 (16:9) at 23.976 fps, AVC at 2633 kbps avg, 0.186 bit/pixel
Аудио: 48 kHz, AAC, 2ch, 128 Kbps | Russian | Дублированный
Аудио: 48 kHz, AAC, 2ch, 128 Kbps | Russian | Одноголосый, закадровый (Ю.Немахов)
Аудио: 48 kHz, AAC, 2ch, 128 Kbps | English | Original
Общее
Полное имя : F:\Downloads\The Bucket List.2007.BDRip.iPad.m4v
Формат : MPEG-4
Профиль формата : Base Media / Version 2
Идентификатор кодека : mp42
Размер файла : 2,06 Гбайт
Продолжительность : 1 ч. 37 м.
Режим общего битрейта : Переменный
Общий поток : 3035 Кбит/сек
Название фильма : Пока не сыграл в ящик / The Bucket List
Исполнитель : Роб Райнер
Жанр : драма, комедия, приключения
Дата записи : UTC 2007-12-16 07:00:00
Дата кодирования : UTC 2013-03-22 07:46:08
Дата пометки : UTC 2013-03-25 08:10:44
Программа кодирования : HandBrake 0.9.8 2012071700

Видео
Идентификатор : 1
Формат : AVC
Формат/Информация : Advanced Video Codec
Профиль формата :
Параметр CABAC формата : Да
Параметр ReFrames формата : 8 кадров
Идентификатор кодека : avc1
Идентификатор кодека/Информация : Advanced Video Coding
Продолжительность : 1 ч. 37 м.
Вид битрейта : Переменный
Битрейт : 2633 Кбит/сек
Ширина : 1024 пикселя
Высота : 576 пикселей
Соотношение сторон : 16:9
Режим частоты кадров : Переменный
Частота кадров : 23,976 кадра/сек
Минимальная частота кадров : 23,974 кадра/сек
Максимальная частота кадров : 23,981 кадра/сек
Цветовое пространство : YUV
Субдискретизация насыщенности : 4:2:0
Битовая глубина : 8 бит
Тип развёртки : Прогрессивная
Бит/(Пиксели*Кадры) : 0.186
Размер потока : 1,79 Гбайт (87%)
Библиотека кодирования : x264 core 120
Настройки программы : cabac=1 / ref=9 / deblock=1:-1:-1 / analyse=0x3:0x133 / me=umh / subme=9 / psy=1 / psy_rd=1.00:0.15 / mixed_ref=1 / me_range=32 / chroma_me=1 / trellis=2 / 8x8dct=1 / cqm=0 / deadzone=21,11 / fast_pskip=1 / chroma_qp_offset=-3 / threads=6 / sliced_threads=0 / nr=0 / decimate=1 / interlaced=0 / bluray_compat=0 / constrained_intra=0 / bframes=9 / b_pyramid=1 / b_adapt=2 / b_bias=0 / direct=1 / weightb=1 / open_gop=0 / weightp=2 / keyint=240 / keyint_min=24 / scenecut=40 / intra_refresh=0 / rc_lookahead=40 / rc=crf / mbtree=1 / crf=18.0 / qcomp=0.60 / qpmin=3 / qpmax=69 / qpstep=4 / ip_ratio=1.40 / aq=1:0.90
Дата кодирования : UTC 2013-03-22 07:46:08
Дата пометки : UTC 2013-03-22 12:10:13
Основные цвета : BT.709
Характеристики трансфера : BT.709
Коэффициенты матрицы : BT.709

Аудио #1
Идентификатор : 2
Формат : AAC
Формат/Информация : Advanced Audio Codec
Профиль формата : LC
Идентификатор кодека : 40
Продолжительность : 1 ч. 37 м.
Вид битрейта : Переменный
Битрейт : 128 Кбит/сек
Максимальный битрейт : 216 Кбит/сек
Каналы : 2 канала
Расположение каналов : Front: L R
Частота : 48,0 КГц
Метод сжатия : С потерями
Задержка видео : 83 мс.
Размер потока : 88,8 Мбайт (4%)
Язык : Russian
Дата кодирования : UTC 2013-03-22 07:46:08
Дата пометки : UTC 2013-03-22 12:10:08

Аудио #2
Идентификатор : 3
Формат : AAC
Формат/Информация : Advanced Audio Codec
Профиль формата : LC
Идентификатор кодека : 40
Продолжительность : 1 ч. 37 м.
Вид битрейта : Переменный
Битрейт : 128 Кбит/сек
Максимальный битрейт : 236 Кбит/сек
Каналы : 2 канала
Расположение каналов : Front: L R
Частота : 48,0 КГц
Метод сжатия : С потерями
Задержка видео : 83 мс.
Размер потока : 88,7 Мбайт (4%)
Язык : Russian
Дата кодирования : UTC 2013-03-22 07:46:08
Дата пометки : UTC 2013-03-22 12:10:08

Аудио #3
Идентификатор : 4
Формат : AAC
Формат/Информация : Advanced Audio Codec
Профиль формата : LC
Идентификатор кодека : 40
Продолжительность : 1 ч. 37 м.
Вид битрейта : Переменный
Битрейт : 128 Кбит/сек
Максимальный битрейт : 236 Кбит/сек
Каналы : 2 канала
Расположение каналов : Front: L R
Частота : 48,0 КГц
Метод сжатия : С потерями
Задержка видео : 83 мс.
Размер потока : 88,7 Мбайт (4%)
Язык : English
Дата кодирования : UTC 2013-03-22 07:46:08
Дата пометки : UTC 2013-03-22 12:10:08
x264 [info]: frame I:1129 Avg QP:15.11 size:111101
x264 [info]: frame P:26990 Avg QP:18.48 size: 31638
x264 [info]: frame B:111531 Avg QP:21.01 size: 8405
x264 [info]: consecutive B-frames: 1.9% 0.9% 3.0% 12.0% 19.8% 45.3% 9.4% 4.3% 2.0% 1.4%
x264 [info]: mb I I16..4: 13.5% 64.1% 22.4%
x264 [info]: mb P I16..4: 0.8% 7.8% 1.4% P16..4: 38.0% 21.4% 16.4% 1.9% 0.7% skip:11.6%
x264 [info]: mb B I16..4: 0.0% 0.7% 0.1% B16..8: 42.6% 8.9% 2.3% direct: 5.0% skip:40.5% L0:42.8% L1:44.9% BI:12.3%
x264 [info]: 8x8 transform intra:76.2% inter:56.4%
x264 [info]: coded y,uvDC,uvAC intra: 93.1% 85.9% 65.5% inter: 24.7% 19.7% 2.8%
x264 [info]: i16 v,h,dc,p: 36% 13% 17% 35%
x264 [info]: i8 v,h,dc,ddl,ddr,vr,hd,vl,hu: 11% 9% 8% 9% 13% 13% 12% 11% 12%
x264 [info]: i4 v,h,dc,ddl,ddr,vr,hd,vl,hu: 13% 9% 4% 9% 14% 14% 13% 11% 12%
x264 [info]: i8c dc,h,v,p: 43% 22% 20% 15%
x264 [info]: Weighted P-Frames: Y:3.6% UV:1.6%
x264 [info]: ref P L0: 52.6% 12.6% 15.2% 6.9% 4.8% 3.6% 2.8% 1.7% 0.1% 0.0%
x264 [info]: ref B L0: 78.4% 9.7% 5.3% 2.6% 1.9% 1.4% 0.7%
x264 [info]: ref B L1: 92.1% 7.9%
x264 [info]: kb/s:2632.60
Скриншоты:

Время раздачи: 24/7
загрузка...
Правила, инструкции, FAQ!!!
Торрент  Добавлен [13 сен 2015, 01:14] Скачать торрент Магнет ссылка
Скачать торрент
[ Размер 11.04 КБ / Просмотров 15 ]

Статус
Проверен 
 
Размер  2.06 ГБ
Приватный: Нет (DHT включён)
.torrent скачан  2
Как залить торрент? | Как скачать Torrent? | Как смотреть и слушать онлайн?  


     Отправить личное сообщение
   
Страница 1 из 1
Показать сообщения за:  Поле сортировки  
Начать новую тему Ответить на тему

   Похожие торренты   Автор   Ответы   Просмотры   Последнее сообщение 
В этой теме нет новых непрочитанных сообщений. Скачать торрент [iPad] Пока не сыграл в ящик / The Bucket List (Роб Райнер / Rob Reiner) [2007, США, комедия, драма, приключения, BDRip]

в форуме Фильмы для iPod, iPhone, iPad, Размер: 2.58 ГБ, Здоровье: 100%

Anonymous

0
22|6

57
1

07 ноя 2013, 21:01

Anonymous Перейти к последнему сообщению

В этой теме нет новых непрочитанных сообщений. Скачать торрент Пока не сыграл в ящик / The Bucket List (2007) BDRip

в форуме Комедии, Размер: 1.76 ГБ, Здоровье: 0%

Anonymous

0
0|0

104
0

11 май 2013, 18:46

Anonymous Перейти к последнему сообщению

В этой теме нет новых непрочитанных сообщений. Скачать торрент Пока не сыграл в ящик / The Bucket List (2007) BDRip 1080p

в форуме 720p | 1080p, Размер: 7.95 ГБ, Здоровье: 100%

Anonymous

0
16|3

68
90

11 май 2013, 18:56

Anonymous Перейти к последнему сообщению

В этой теме нет новых непрочитанных сообщений. Скачать торрент Пока не сыграл в ящик / The Bucket List (Роб Райнер / Rob Reiner) [2007 г., драма, комедия, приключения, BDRip-AVC] Dub

в форуме Комедии, Размер: 1.46 ГБ, Здоровье: 100%

Anonymous

0
34|11

47
0

14 апр 2014, 09:28

Anonymous Перейти к последнему сообщению

В этой теме нет новых непрочитанных сообщений. Скачать торрент Проверен [iPod] Пока не сыграл в ящик / The Bucket List [2007 г., комедия, драма, приключения, HDRip]

в форуме Фильмы для iPod, iPhone, iPad, Размер: 278.91 МБ, Здоровье: 100%

Anonymous

0
21|2

46
1

14 май 2015, 00:04

Anonymous Перейти к последнему сообщению



Сейчас этот форум просматривают: нет зарегистрированных пользователей и гости: 1


Вы не можете начинать темы
Вы не можете отвечать на сообщения
Вы не можете редактировать свои сообщения
Вы не можете удалять свои сообщения
Вы не можете добавлять вложения

Перейти:  

!ВНИМАНИЕ!
 Ресурс не предоставляет электронные версии произведений, а занимается лишь коллекционированием и каталогизацией ссылок, присылаемых и публикуемых на форуме нашими читателями. Если вы являетесь правообладателем какого-либо представленного материала и не желаете чтобы ссылка на него находилась в нашем каталоге, свяжитесь с нами и мы незамедлительно удалим её. Файлы для обмена на трекере предоставлены пользователями сайта, и администрация не несёт ответственности за их содержание. Просьба не заливать файлы, защищенные авторскими правами, а также файлы нелегального содержания!