На всех торрентах на трекере установлена скидка на скачивание в размере 100 процентов(а).
 Возможность скачивания торрента НЕ зависит от ограничений при низком ратио, низком аплоаде, требуемом ратио или требуемом аплоаде.


Начать новую тему Ответить на тему
Статистика раздачи
Размер: 5.47 ГБ | Добавлен: 29 апр 2018, 11:10 | Скачали: 186
Сидеров: 78  [0 байт/сек]    Личеров: 42  [0 байт/сек]
Пред. тема | След. тема 

Автор
Сообщение

СообщениеДобавлено: 29 апр 2018, 11:10 

Ответить с цитатой 

Название: Пожалуйста, приготовьтесь
Оригинальное название: Please Stand By
Год выпуска: 2017
Жанр: Драма, комедия
Выпущено: США, 2929 Productions
Режиссер: Бен Луин
В ролях: Дакота Фэннинг, Тони Коллетт, Элис Ив, Ривер Александр, Марла Гиббс, Джессика Рот, Майкл Сталь-Дэвид, Стефани Аллен, Мэттью Кардаропле, Мэтт Корбой

О фильме: Сюжет художественного фильма «Пожалуйста, приготовьтесь» вертится вокруг молодой девушки Вэнди, страдающей аутизмом. Несмотря на болезнь девушка пытается вести нормальный образ жизни и в этом ей помогает сотрудница специального центра Скотти, в котором живет Вэнди. Со временем состояние девушки сильно улучшилось: она устроилась на работу в ресторан быстрого питания и завела четвероногого друга, за которым ухаживает. Вэнди может заботиться о себе сама, но сестра Одри отказывается забирать ее из центра, что приводит к срыву. Больше всего в жизни Вэнди обожает фантастический сериал «Звездный путь», который может смотреть бесконечно. Она даже пишет собственную книгу, главным героем которой стал Спок. Когда же объявляют конкурс на лучший сценарий для «Звездного пути», то Вэнди приступает к работе. Проверив и перепроверив сценарий она собирается отправить его, но не успевает к нужной дате, поэтому решает отправиться в Лос-Анджелес, чтобы доставить сценарий лично.



Продолжительность: 01:32:46
Перевод: Профессиональный многоголосый [HDrezka Studio]
Субтитры: Русские, английские


Качество: BDRip (1080p)
Видео: MPEG-4 AVC, 7542 Кбит/с, 1920x800
Аудио #1: Русский (AC3, 6 ch, 448 Кбит/с)
Аудио #2: Английский (AC3, 6 ch, 448 Кбит/с)

Формат : Matroska
Версия формата : Version 2
Размер файла : 5,47 Гбайт
Продолжительность : 1 ч. 32 м.
Общий поток : 8437 Кбит/сек
Название фильма : ~V ad~
Дата кодирования : UTC 2018-04-28 10:16:54
Программа кодирования : mkvmerge v6.5.0 ('Isn't she lovely') built on Oct 20 2013 12:50:05
Библиотека кодирования : libebml v1.3.0 + libmatroska v1.4.1
Обложка : Yes
Attachments : cover.jpg

Видео
Идентификатор : 1
Формат : AVC
Формат/Информация : Advanced Video Codec
Профиль формата : High@L4.1
Настройки формата : CABAC / 5 Ref Frames
Параметр CABAC формата : Да
Параметр RefFrames формата : 5 кадров
Идентификатор кодека : V_MPEG4/ISO/AVC
Продолжительность : 1 ч. 32 м.
Битрейт : 7542 Кбит/сек
Ширина : 1920 пикселей
Высота : 800 пикселей
Соотношение сторон : 2,40:1
Режим частоты кадров : Постоянный
Частота кадров : 23,976 (24000/1001) кадра/сек
Цветовое пространство : YUV
Субдискретизация насыщенности : 4:2:0
Битовая глубина : 8 бит
Тип развёртки : Прогрессивная
Бит/(Пиксели*Кадры) : 0.205
Размер потока : 4,78 Гбайт (87%)
Заголовок : ~V~
Библиотека кодирования : x264 core 155 r2901 7d0ff22
Настройки программы : cabac=1 / ref=5 / deblock=1:-3:-3 / analyse=0x3:0x133 / me=umh / subme=11 / psy=1 / psy_rd=1.00:0.00 / mixed_ref=1 / me_range=32 / chroma_me=1 / trellis=2 / 8x8dct=1 / cqm=0 / deadzone=21,11 / fast_pskip=0 / chroma_qp_offset=-2 / threads=12 / lookahead_threads=1 / sliced_threads=0 / nr=0 / decimate=0 / interlaced=0 / bluray_compat=0 / constrained_intra=0 / bframes=9 / b_pyramid=2 / b_adapt=2 / b_bias=0 / direct=3 / weightb=1 / open_gop=0 / weightp=2 / keyint=240 / keyint_min=23 / scenecut=40 / intra_refresh=0 / rc=2pass / mbtree=0 / bitrate=7542 / ratetol=1.0 / qcomp=0.70 / qpmin=0 / qpmax=69 / qpstep=4 / cplxblur=20.0 / qblur=0.5 / ip_ratio=1.30 / pb_ratio=1.30 / aq=3:0.80
Язык : Английский
Default : Да
Forced : Нет

Аудио #1
Идентификатор : 2
Формат : AC-3
Формат/Информация : Audio Coding 3
Идентификатор кодека : A_AC3
Продолжительность : 1 ч. 32 м.
Вид битрейта : Постоянный
Битрейт : 448 Кбит/сек
Каналы : 6 каналов
Расположение каналов : Front: L C R, Side: L R, LFE
Частота : 48,0 КГц
Частота кадров : 31,250 кадров/сек (1536 SPF)
Битовая глубина : 16 бит
Метод сжатия : С потерями
Размер потока : 297 Мбайт (5%)
Заголовок : MVO [HDrezka Studio]
Язык : Русский
Service Kind : Complete Main
Default : Да
Forced : Нет

Аудио #2
Идентификатор : 3
Формат : AC-3
Формат/Информация : Audio Coding 3
Идентификатор кодека : A_AC3
Продолжительность : 1 ч. 32 м.
Вид битрейта : Постоянный
Битрейт : 448 Кбит/сек
Каналы : 6 каналов
Расположение каналов : Front: L C R, Side: L R, LFE
Частота : 48,0 КГц
Частота кадров : 31,250 кадров/сек (1536 SPF)
Битовая глубина : 16 бит
Метод сжатия : С потерями
Размер потока : 297 Мбайт (5%)
Язык : Английский
Service Kind : Complete Main
Default : Нет
Forced : Нет

Текст #1
Идентификатор : 4
Формат : UTF-8
Идентификатор кодека : S_TEXT/UTF8
Идентификатор кодека/Информация : UTF-8 Plain Text
Язык : Русский
Default : Нет
Forced : Нет

Текст #2
Идентификатор : 5
Формат : UTF-8
Идентификатор кодека : S_TEXT/UTF8
Идентификатор кодека/Информация : UTF-8 Plain Text
Язык : Английский
Default : Нет
Forced : Нет

Меню
00:00:00.000 : en:Chapter 01
00:07:47.842 : en:Chapter 02
00:17:04.356 : en:Chapter 03
00:22:42.944 : en:Chapter 04
00:30:44.884 : en:Chapter 05
00:37:56.857 : en:Chapter 06
00:48:05.382 : en:Chapter 07
00:53:31.374 : en:Chapter 08
01:02:41.674 : en:Chapter 09
01:13:14.515 : en:Chapter 10
01:20:46.341 : en:Chapter 11
01:28:14.956 : en:Chapter 12
x264 [info]: frame I:1046 Avg QP:15.64 size:224794
x264 [info]: frame P:27406 Avg QP:17.67 size: 76283
x264 [info]: frame B:104999 Avg QP:19.40 size: 27800



Сэмпл
Релиз от:
Правила, инструкции, FAQ!!!
Торрент  Добавлен [29 апр 2018, 11:10] Скачать торрент Магнет ссылка
Скачать торрент
[ Размер 15.23 КБ / Просмотров 64 ]

Статус
Проверен 
 
Размер  5.47 ГБ
Приватный: Нет (DHT включён)
.torrent скачан  186
Как залить торрент? | Как скачать Torrent? | Ошибка в торренте? Качайте магнет  


     Отправить личное сообщение
   
Страница 1 из 1
Показать сообщения за:  Поле сортировки  
Начать новую тему Ответить на тему

   Похожие торренты   Автор   Ответы   Просмотры   Последнее сообщение 
В этой теме нет новых непрочитанных сообщений. Скачать торрент Проверен Секс на две ночи / Two Night Stand (2014) BDRip [1080p]

в форуме 720p | 1080p, Размер: 6.82 ГБ, Здоровье: 100%

Гость

0
201|10

105
0

26 янв 2015, 00:42

Гость Перейти к последнему сообщению

В этой теме нет новых непрочитанных сообщений. Скачать торрент Проверен Приготовьтесь, будет громко / It Might Get Loud [2008, Documentary, Rock, BDRip 720p]

в форуме Концерты (HD-Video), Размер: 6.3 ГБ, Здоровье: 100%

Anonymous

0
3|0

83
0

29 апр 2015, 19:17

Anonymous Перейти к последнему сообщению

В этой теме нет новых непрочитанных сообщений. Скачать торрент Проверен Оно / It (2017) BDRip 1080p | Лицензия

в форуме 720p | 1080p, Размер: 7.57 ГБ, Здоровье: 100%

Гость

0
465|21

106
13808

26 фев 2018, 21:37

Гость Перейти к последнему сообщению

В этой теме нет новых непрочитанных сообщений. Скачать торрент Проверен Slipknot - Day Of The Gusano (2017) BDRip 1080p

в форуме Концерты (HD-Video), Размер: 6.23 ГБ, Здоровье: 64%

Anonymous

0
192|297

194
76

14 ноя 2017, 22:37

Anonymous Перейти к последнему сообщению

В этой теме нет новых непрочитанных сообщений. Скачать торрент Проверен Живое / Life (2017) BDRip 1080p | Лицензия, A

в форуме 720p | 1080p, Размер: 10.72 ГБ, Здоровье: 94%

Anonymous

0
246|260

127
550

02 авг 2017, 23:27

Anonymous Перейти к последнему сообщению



Сейчас этот форум просматривают: нет зарегистрированных пользователей и гости: 0


Вы не можете начинать темы
Вы не можете отвечать на сообщения
Вы не можете редактировать свои сообщения
Вы не можете удалять свои сообщения
Вы не можете добавлять вложения

Перейти:  
Ресурс не предоставляет электронные версии произведений, а занимается лишь коллекционированием и каталогизацией ссылок, присылаемых и публикуемых на форуме нашими читателями. Если вы являетесь правообладателем какого-либо представленного материала и не желаете чтобы ссылка на него находилась в нашем каталоге, свяжитесь с нами и мы незамедлительно удалим её. Файлы для обмена на трекере предоставлены пользователями сайта, и администрация не несёт ответственности за их содержание. Просьба не заливать файлы, защищенные авторскими правами, а также файлы нелегального содержания!
cron