На всех торрентах на трекере установлена скидка на скачивание в размере 100 процентов(а).
 Возможность скачивания торрента НЕ зависит от ограничений при низком ратио, низком аплоаде, требуемом ратио или требуемом аплоаде.


Начать новую тему Ответить на тему
Статистика раздачи
Размер: 4.56 ГБ | Добавлен: 24 дек 2016, 20:35 | Скачали: 2171
Сидеров: 710  [0 байт/сек]    Личеров: 111  [0 байт/сек]
Пред. тема | След. тема 

Автор
Сообщение

СообщениеДобавлено: 24 дек 2016, 20:35 

Год выхода: 2016
Страна: Корея Южная
Жанр: боевик, триллер, ужасы
Продолжительность: 01:58:08
Перевод: Профессиональный (полное дублирование) [iTunes]
Субтитры: нет

Режиссер: Ён Сан-хо / Yeon Sang-ho

В ролях: Кон Ю, Ма Дон-сок, Чон Ю-ми, Ким Су-ан, Ким И-сон, Чхве У-щик, Ан Со-хи, Чхве Гви-хва, Чон Сок-ён, Е Су-джон

Описание: У маленькой Су-ан день рождения. Девочка живет с отцом в Сеуле и очень хочет отправиться к маме в Пусан. По дороге случается непредвиденное, и на страну обрушивается загадочный вирус. Пассажирам поезда в Пусан — единственного города, отразившего атаки вируса- придется бороться за выживание. 442 километра в пути. Добро пожаловать на борт и помните — в этой гонке недостаточно выжить, чтобы остаться человеком.

Качество видео: BDRip 720p (HDS)
Формат видео: MKV

Видео: 1280х694, 23.976 fps, AVC ~5026 kbps avg
Аудио: 48 kHz, AC3 Dolby Digital, 3/2 (L,C,R,l,r) + LFE ch, ~384 kbps

Релиз от:




Train.to.Busan.2016.720p_BDRip_[scarabey.org].mkv
Формат : Matroska
Версия формата : Version 4 / Version 2
Размер файла : 4,56 Гбайт
Продолжительность : 1 ч. 58 м.
Общий поток : 5520 Кбит/сек
Название фильма : Train to Busan 2016 720p BluRay DTS x264-HDS
Дата кодирования : UTC 2016-12-23 20:48:24
Программа кодирования : mkvmerge v6.1.0 ('Old Devil') built on Mar 4 2013 09:10:42
Библиотека кодирования : libebml v1.3.0 + libmatroska v1.4.0

Видео
Идентификатор : 1
Формат : AVC
Формат/Информация : Advanced Video Codec
Профиль формата : High@L4.1
Параметр CABAC формата : Да
Параметр ReFrames формата : 9 кадров
Идентификатор кодека : V_MPEG4/ISO/AVC
Продолжительность : 1 ч. 58 м.
Битрейт : 5026 Кбит/сек
Ширина : 1280 пикселей
Высота : 694 пикселя
Соотношение сторон : 1,85:1
Режим частоты кадров : Постоянный
Частота кадров : 23,976 (24000/1001) кадра/сек
Цветовое пространство : YUV
Субдискретизация насыщенности : 4:2:0
Битовая глубина : 8 бит
Тип развёртки : Прогрессивная
Бит/(Пиксели*Кадры) : 0.236
Размер потока : 4,15 Гбайт (91%)
Заголовок : 环环@HDS
Библиотека кодирования : x264 core 148 r2699+6+41 29a38aa Yuuki [8-bit@4:2:0 X86_64][GCC 5.3.0]
Настройки программы : cabac=1 / ref=9 / deblock=1:-3:-3 / analyse=0x3:0x113 / me=umh / subme=11 / psy=1 / fade_compensate=0.00 / psy_rd=1.00:0.05 / mixed_ref=1 / me_range=32 / chroma_me=1 / trellis=2 / 8x8dct=1 / cqm=0 / deadzone=21,11 / fast_pskip=0 / chroma_qp_offset=-2 / threads=24 / lookahead_threads=4 / sliced_threads=0 / nr=0 / decimate=1 / interlaced=0 / bluray_compat=0 / constrained_intra=0 / fgo=0 / bframes=8 / b_pyramid=2 / b_adapt=2 / b_bias=0 / direct=3 / weightb=1 / open_gop=0 / weightp=2 / keyint=250 / keyint_min=23 / scenecut=40 / intra_refresh=0 / rc=crf / mbtree=0 / crf=18.0000 / qcomp=0.60 / qpmin=0:0:0 / qpmax=69:69:69 / qpstep=4 / ip_ratio=1.40 / pb_ratio=1.30 / aq=3:0.90
Default : Да
Forced : Нет

Аудио
Идентификатор : 2
Формат : AC-3
Формат/Информация : Audio Coding 3
Расширение режима : CM (complete main)
Параметр Endianness формата : Big
Идентификатор кодека : A_AC3
Продолжительность : 1 ч. 58 м.
Вид битрейта : Постоянный
Битрейт : 384 Кбит/сек
Каналы : 6 каналов
Расположение каналов : Front: L C R, Side: L R, LFE
Частота : 48,0 КГц
Частота кадров : 31,250 кадров/сек (1536 spf)
Метод сжатия : С потерями
Размер потока : 324 Мбайт (7%)
Заголовок : Дубляж - iTunes
Язык : Russian
Default : Да
Forced : Нет

загрузка...
Правила, инструкции, FAQ!!!
Торрент  Добавлен [24 дек 2016, 20:35] Скачать торрент
Скачать торрент
[ Размер 23.52 КБ / Просмотров 6 ]

Статус
Проверен 
 
Размер  4.56 ГБ
Приватный: Нет (DHT включён)
.torrent скачан  2171
Как залить торрент? | Как скачать Torrent? | Как смотреть и слушать онлайн?  


     Отправить личное сообщение
   
Страница 1 из 1
Показать сообщения за:  Поле сортировки  
Начать новую тему Ответить на тему

   Похожие торренты   Автор   Ответы   Просмотры   Последнее сообщение 
В этой теме нет новых непрочитанных сообщений. Скачать торрент Проверен Поезд в Пусан / Busanhaeng (2016) HDRip | iTunes

в форуме Боевики, Размер: 1.4 ГБ, Здоровье: 100%

Гость

0
893|529

154
445

24 дек 2016, 23:37

Гость Перейти к последнему сообщению

В этой теме нет новых непрочитанных сообщений. Закрыто правообладателем Лев / Lion (2016) BDRip 720p | iTunes Данный торрент является блокированным, причина: Закрыто правообладателем

в форуме 720p | 1080p, Размер: 5.05 ГБ, Здоровье: 100%

Гость

0
206|62

44
289

01 апр 2017, 19:57

Гость Перейти к последнему сообщению

В этой теме нет новых непрочитанных сообщений. Скачать торрент Проверен Дэдпул / Deadpool (2016) BDRip 720p | iTunes

в форуме 720p | 1080p, Размер: 5.58 ГБ, Здоровье: 100%

Гость

0
530|397

288
538

27 апр 2016, 19:44

Гость Перейти к последнему сообщению

В этой теме нет новых непрочитанных сообщений. Скачать торрент Проверен Преступник / Criminal (2016) BDRip 720p | iTunes

в форуме 720p | 1080p, Размер: 5.7 ГБ, Здоровье: 100%

Гость

0
257|146

263
165

17 авг 2016, 21:56

Гость Перейти к последнему сообщению

В этой теме нет новых непрочитанных сообщений. Скачать торрент Проверен Инферно / Inferno (2016) BDRip 720p | iTunes

в форуме 720p | 1080p, Размер: 6.35 ГБ, Здоровье: 100%

Гость

0
140|16

34
0

18 янв 2017, 11:04

Гость Перейти к последнему сообщению



Сейчас этот форум просматривают: нет зарегистрированных пользователей и гости: 1


Вы не можете начинать темы
Вы не можете отвечать на сообщения
Вы не можете редактировать свои сообщения
Вы не можете удалять свои сообщения
Вы не можете добавлять вложения

Перейти:  

!ВНИМАНИЕ!
 Ресурс не предоставляет электронные версии произведений, а занимается лишь коллекционированием и каталогизацией ссылок, присылаемых и публикуемых на форуме нашими читателями. Если вы являетесь правообладателем какого-либо представленного материала и не желаете чтобы ссылка на него находилась в нашем каталоге, свяжитесь с нами и мы незамедлительно удалим её. Файлы для обмена на трекере предоставлены пользователями сайта, и администрация не несёт ответственности за их содержание. Просьба не заливать файлы, защищенные авторскими правами, а также файлы нелегального содержания!